osu file format v14

[General]
AudioFilename: audio.mp3
AudioLeadIn: 0
PreviewTime: 42344
Countdown: 1
SampleSet: Soft
StackLeniency: 0.7
Mode: 0
LetterboxInBreaks: 0
WidescreenStoryboard: 0

[Editor]
Bookmarks: 8627,12875,17123,21105,25618,29866,34114,38362
DistanceSpacing: 1
BeatDivisor: 4
GridSize: 16
TimelineZoom: 1

[Metadata]
Title:The Hills
TitleUnicode:The Hills
Artist:The Weeknd
ArtistUnicode:The Weeknd
Creator:Donmeetsapig
Version:Burning
Source:
Tags:Pop
BeatmapID:931682
BeatmapSetID:432027

[Difficulty]
HPDrainRate:6
CircleSize:4.5
OverallDifficulty:6
ApproachRate:8
SliderMultiplier:1.6
SliderTickRate:1

[Events]
//Background and Video events
0,0,"the hills osu new bg.jpg",0,0
//Break Periods
//Storyboard Layer 0 (Background)
//Storyboard Layer 1 (Fail)
//Storyboard Layer 2 (Pass)
//Storyboard Layer 3 (Foreground)
//Storyboard Sound Samples

[TimingPoints]
132,530.973451327434,4,2,0,5,1,0
25618,-100,4,2,0,35,0,0
41547,-200,4,2,0,5,0,0
44733,-133.333333333333,4,2,0,50,0,1
45530,-100,4,2,0,50,0,1
48981,-133.333333333333,4,2,0,50,0,1
49778,-100,4,2,0,50,0,1
53229,-133.333333333333,4,2,0,50,0,1
54025,-100,4,2,0,50,0,1
55353,-133.333333333333,4,2,0,50,0,1
56149,-100,4,2,0,50,0,1
57477,-133.333333333333,4,2,0,50,0,1
58273,-100,4,2,0,50,0,1
59866,-100,4,2,0,50,0,1
61724,-133.333333333333,4,2,0,50,0,1
62255,-100,4,2,0,50,0,1
65972,-133.333333333333,4,2,0,50,0,1
66769,-100,4,2,0,50,0,1
70220,-133.333333333333,4,2,0,50,0,1
70751,-100,4,2,0,50,0,1
72344,-133.333333333333,4,2,0,50,0,1
72875,-100,4,2,0,50,0,1
74468,-133.333333333333,4,2,0,50,0,1
74999,-100,4,2,0,50,0,1
77654,-133.333333333333,4,2,0,50,0,1
78716,-100,4,2,0,5,0,0

[Colours]
Combo1 : 255,128,128
Combo2 : 128,0,0
Combo3 : 79,0,0
Combo4 : 255,0,0

[HitObjects]
64,80,8627,6,0,P|96:128|128:144,1,80
192,176,9158,2,0,P|256:176|304:160,1,80
336,128,9689,1,0,0:0:0:0:
400,80,9955,2,0,P|432:48|448:16,2,80
336,128,10751,6,0,P|288:144|224:144,1,80
176,160,11282,2,0,P|192:208|224:240,1,80
320,336,12875,6,0,P|352:288|368:256,1,80
400,192,13406,2,0,P|448:208|464:240,2,80
320,192,14202,2,0,P|272:208|240:208,1,80
160,192,14733,1,0,0:0:0:0:
96,160,14999,6,0,P|128:112|176:96,1,80
224,80,15530,2,0,P|256:112|256:224,1,160
240,272,17123,6,0,P|192:240|176:208,1,80
144,160,17654,1,0,0:0:0:0:
224,144,17919,1,0,0:0:0:0:
176,80,18185,1,0,0:0:0:0:
256,64,18450,1,0,0:0:0:0:
336,80,18716,2,0,P|304:128|304:176,1,80
320,224,19247,6,0,P|368:224|400:192,1,80
432,128,19778,2,0,P|384:128|336:144,1,80
256,192,21105,1,0,0:0:0:0:
256,192,21370,6,0,P|224:160|208:128,1,80
208,48,21901,2,0,P|160:32|112:32,2,80
272,80,22698,1,0,0:0:0:0:
352,112,22963,2,0,P|320:144|272:160,1,80
208,176,23494,6,0,P|192:128|192:96,1,80
208,16,24025,2,0,P|256:32|336:144,1,160
368,208,25618,6,0,P|320:224|272:224,1,80
208,208,26149,2,0,P|208:144|224:112,1,80
256,64,26680,1,8,0:1:0:0:
336,48,26946,2,0,P|384:48|416:64,2,80
256,64,27742,6,0,P|208:96|192:128,1,80
176,192,28273,2,0,P|224:192|256:176,1,80
320,128,29866,6,0,P|352:176|352:224,1,80
352,272,30397,2,0,P|304:256|272:224,1,80
208,192,30928,2,0,P|192:240|208:288,2,80,8|0|0,0:1|0:0|0:0,0:0:0:0:
224,112,31724,1,0,0:0:0:0:
272,48,31990,6,0,P|320:80|336:112,1,80
368,176,32521,2,0,P|320:192|192:160,1,160
128,144,34114,6,0,P|176:112|224:96,1,80
272,64,34645,2,0,P|320:96|336:144,1,80
384,176,35176,1,8,0:1:0:0:
384,256,35441,1,0,0:0:0:0:
320,304,35707,2,0,P|288:272|272:224,1,80
256,160,36238,6,0,P|272:112|304:96,1,80
368,80,36769,2,0,P|384:128|384:176,1,80
368,256,38362,6,0,P|304:224|272:192,1,80
224,176,38893,2,0,P|176:192|144:240,2,80,0|0|8,0:0|0:0|0:1,0:0:0:0:
304,176,39689,1,0,0:0:0:0:
384,160,39955,2,0,P|416:192|432:224,2,80
320,112,40751,1,0,0:0:0:0:
240,80,41016,2,0,P|208:112|208:144,1,80
208,192,41547,2,0,L|304:192,1,80
256,192,42609,12,0,44202,0:0:0:0:
256,192,44733,6,0,L|272:64,1,120.000004577637,4|0,0:3|0:3,0:3:0:0:
272,16,45530,2,0,B|304:0|304:0|352:0,2,80,0|8|0,0:0|0:3|0:0,0:0:0:0:
208,64,46326,1,0,0:0:0:0:
160,128,46592,1,0,0:0:0:0:
144,208,46857,6,0,L|96:224,2,40,0|0|4,0:2|0:2|0:3,0:2:0:0:
224,176,47388,2,0,P|256:144|272:112,1,80,4|0,0:3|0:0,0:0:0:0:
288,32,47919,2,0,P|352:64|368:96,1,80,8|0,0:3|0:0,0:0:0:0:
400,144,48450,2,0,P|352:192|320:208,1,80
288,240,48981,6,0,L|160:288,1,120.000004577637,4|0,0:3|0:0,0:0:0:0:
112,320,49778,2,0,B|96:352|96:352|64:384,2,80,0|8|0,0:0|0:3|0:0,0:0:0:0:
128,240,50574,1,0,0:0:0:0:
160,176,50839,1,0,0:0:0:0:
208,112,51105,6,0,L|160:96,2,40,0|0|4,0:0|0:0|0:3,0:0:0:0:
288,128,51636,2,0,P|272:176|240:208,1,80,4|0,0:3|0:0,0:0:0:0:
192,240,52167,2,0,P|176:192|176:144,1,80,8|0,0:3|0:0,0:0:0:0:
176,80,52698,2,0,P|224:96|256:128,1,80
288,160,53229,6,0,L|176:224,1,120.000004577637,4|0,0:3|0:0,0:0:0:0:
112,240,54025,2,0,B|96:192|96:192|112:144,2,80,0|8|0,0:3|0:3|0:3,0:3:0:0:
160,304,54822,2,0,P|224:272|240:256,1,80,4|0,0:3|0:0,0:0:0:0:
272,224,55353,6,0,L|320:112,1,120.000004577637,0|4,0:3|0:3,0:0:0:0:
336,32,56149,2,0,B|288:16|288:16|240:32,1,80
192,80,56680,1,0,0:0:0:0:
128,128,56946,2,0,P|112:176|128:224,1,80
144,256,57477,2,0,L|256:192,1,120.000004577637,4|0,0:3|0:0,0:0:0:0:
320,160,58273,2,0,B|368:176|368:176|384:224,1,80,0|8,0:3|0:3,0:3:0:0:
400,272,58804,2,0,P|336:272|288:256,1,80
240,256,59335,6,0,P|224:208|224:176,1,80
224,96,59866,2,0,P|176:64|144:48,2,80
272,160,60662,2,0,P|320:144|352:144,2,80,8|0|0,0:3|0:3|0:3,0:3:0:0:
192,192,61459,1,0,0:0:0:0:
192,192,61724,6,0,L|304:240,1,120.000004577637,4|0,0:3|0:3,0:3:0:0:
384,256,62521,2,0,B|368:304|368:304|336:336,2,80,0|8|0,0:0|0:3|0:0,0:0:0:0:
384,176,63317,1,0,0:0:0:0:
336,112,63583,1,0,0:0:0:0:
256,80,63848,6,0,L|272:32,2,40,0|0|4,0:0|0:0|0:3,0:0:0:0:
240,160,64379,2,0,P|224:208|224:256,1,80,4|0,0:3|0:0,0:0:0:0:
224,320,64910,2,0,P|288:304|320:272,1,80,8|0,0:3|0:0,0:0:0:0:
352,240,65441,2,0,P|320:192|272:176,1,80
240,160,65972,6,0,L|128:96,1,120.000004577637,4|0,0:3|0:0,0:0:0:0:
64,64,66769,2,0,B|96:32|96:32|144:32,1,80,0|8,0:0|0:3,0:0:0:0:
208,48,67300,1,0,0:0:0:0:
288,80,67565,1,0,0:0:0:0:
352,128,67831,1,0,0:0:0:0:
384,192,68096,6,0,L|448:208,2,40,0|0|4,0:3|0:0|0:3,0:0:0:0:
304,160,68627,1,4,0:3:0:0:
224,128,68893,2,0,P|192:160|176:208,1,80,0|8,0:0|0:3,0:0:0:0:
160,272,69424,1,0,0:0:0:0:
160,352,69689,2,0,P|208:336|240:288,1,80
256,256,70220,6,0,L|304:144,1,120.000004577637,4|0,0:3|0:0,0:0:0:0:
336,80,71016,1,0,0:0:0:0:
336,80,71282,2,0,B|304:48|304:48|240:48,1,80,8|0,0:3|0:0,0:0:0:0:
192,48,71813,2,0,P|160:96|160:128,1,80,4|0,0:3|0:0,0:0:0:0:
160,176,72344,6,0,L|208:288,1,120.000004577637,0|4,0:0|0:3,0:0:0:0:
240,352,73140,1,0,0:0:0:0:
240,352,73406,2,0,B|288:320|288:320|304:288,1,80,8|0,0:3|0:0,0:0:0:0:
336,224,73937,2,0,P|304:176|288:160,1,80
240,128,74468,6,0,L|128:80,1,120.000004577637,4|0,0:3|0:0,0:0:0:0:
64,48,75264,1,0,0:0:0:0:
64,48,75530,2,0,B|64:96|64:96|80:144,1,80,8|0,0:3|0:0,0:0:0:0:
112,192,76061,2,0,P|160:176|192:144,1,80,4|0,0:3|0:0,0:0:0:0:
224,96,76592,6,0,P|288:112|304:128,1,80,0|4,0:3|0:3,0:3:0:0:
368,160,77123,1,4,0:3:0:0:
256,192,77654,12,0,78716,0:3:0:0:
