osu file format v14

[General]
AudioFilename: audio.mp3
AudioLeadIn: 0
PreviewTime: 189841
Countdown: 0
SampleSet: Soft
StackLeniency: 0.7
Mode: 0
LetterboxInBreaks: 0
WidescreenStoryboard: 1

[Editor]
Bookmarks: 36292,67260,98228,129195,160163,191131,211776
DistanceSpacing: 1.61
BeatDivisor: 4
GridSize: 4
TimelineZoom: 1.7

[Metadata]
Title:Starboy (feat. Daft Punk)
TitleUnicode:Starboy (feat. Daft Punk)
Artist:The Weeknd
ArtistUnicode:The Weeknd
Creator:Cloudchaser
Version:Starboy
Source:
Tags:Abel Tesfaye R&B
BeatmapID:1186161
BeatmapSetID:560982

[Difficulty]
HPDrainRate:6
CircleSize:4
OverallDifficulty:7
ApproachRate:9
SliderMultiplier:2.1
SliderTickRate:2

[Events]
//Background and Video events
0,0,"Starboyh.jpg",0,0
//Break Periods
2,139718,144079
//Storyboard Layer 0 (Background)
//Storyboard Layer 1 (Fail)
//Storyboard Layer 2 (Pass)
//Storyboard Layer 3 (Foreground)
Sprite,Foreground,Centre,"sb\Cloudchaser.png",320,240 F,0,5325,5970,0,1 F,0,5970,35647,1 M,0,24679,,471.1226,409.2904 F,0,35647,36292,1,0
Sprite,Foreground,Centre,"sb\Bakari.png",320,240 F,0,35647,36292,0,1 M,0,36292,,173.8322,410.1161 F,0,36292,66615,1 F,0,66615,67260,1,0
Sprite,Foreground,Centre,"sb\Cloudchaser.png",320,240 F,0,66615,67260,0,1 F,0,67260,97582,1 M,0,85969,,471.1226,409.2904 F,0,97582,98228,1,0
Sprite,Foreground,Centre,"sb\Bakari.png",320,240 F,0,97583,98228,0,1 M,0,98228,,173.8322,410.1161 F,0,98228,128551,1 F,0,128551,129196,1,0
Sprite,Foreground,Centre,"sb\Cloudchaser.png",320,240 F,0,128550,129195,0,1 F,0,129195,159518,1 M,0,147904,,471.1226,409.2904 F,0,159518,160163,1,0
Sprite,Foreground,Centre,"sb\Bakari.png",320,240 F,0,159518,160163,0,1 M,0,160163,,173.8322,410.1161 F,0,160163,190486,1 F,0,190486,191131,1,0
Sprite,Foreground,Centre,"sb\Cloudchaser.png",320,240 F,0,190486,191131,0,1 F,0,191131,211131,1 M,0,209840,,471.1226,409.2904 F,0,211131,211776,1,0
Sprite,Foreground,Centre,"sb\Bakari.png",320,240 M,0,211131,,173.8322,409.2903 F,0,211131,211776,0,1 F,0,211776,222099,1 F,0,222099,225970,1,0
//Storyboard Sound Samples

[TimingPoints]
5325,645.161290322581,4,2,1,70,1,0
67260,-100,4,2,1,70,0,1
77583,-100,4,2,1,70,0,0
129195,-100,4,2,1,70,0,1
139518,-100,4,2,1,70,0,0
191131,-100,4,2,1,70,0,1
201131,-100,4,2,1,70,0,0
201454,-100,4,2,1,70,0,1
211454,-100,4,2,1,70,0,0
211776,-100,4,2,1,70,0,1
222099,-100,4,2,1,30,0,0
225970,-100,4,2,1,5,0,0

[Colours]
Combo1 : 157,60,255
Combo2 : 32,104,223
Combo3 : 238,221,17
Combo4 : 255,128,0

[HitObjects]
404,192,5325,6,0,L|316:200,1,52.5
276,164,5647,2,0,L|188:172,1,52.5
140,156,5970,2,0,P|128:96|132:12,1,105,8|0,0:0|0:0,0:0:0:0:
44,200,6454,1,0,0:0:0:0:
44,200,6615,2,0,P|64:272|68:300,1,52.5
220,304,6937,2,0,P|252:264|268:248,1,52.5
434,234,7260,2,0,P|387:256|336:268,1,105,8|0,0:0|0:0,0:0:0:0:
256,120,7744,1,0,0:0:0:0:
256,120,7905,6,0,P|240:72|236:40,1,52.5
140,204,8228,2,0,P|104:172|84:148,1,52.5
152,328,8550,2,0,L|300:308,1,105,8|0,0:0|0:0,0:0:0:0:
332,352,9034,1,0,0:0:0:0:
404,200,9195,2,0,P|392:252|384:268,1,52.5
244,172,9518,2,0,P|256:120|264:104,1,52.5
104,196,9841,2,0,L|128:332,1,105,8|0,0:0|0:0,0:0:0:0:
68,364,10325,1,0,0:0:0:0:
224,300,10486,6,0,P|260:292|312:292,1,52.5
411,301,10808,2,0,P|385:298|360:292,1,52.5
272,56,11131,2,0,P|296:152|300:204,1,105,8|0,0:0|0:0,0:0:0:0:
232,208,11615,1,0,0:0:0:0:
152,184,11776,2,0,P|72:176|60:176,1,52.5
188,320,12099,2,0,P|268:328|280:328,1,52.5
463,169,12421,2,0,P|411:174|360:184,1,105,8|0,0:0|0:0,0:0:0:0:
324,260,12905,1,0,0:0:0:0:
360,96,13066,6,0,P|348:64|308:36,1,52.5
208,64,13389,1,0,0:0:0:0:
276,112,13550,1,0,0:0:0:0:
72,164,13712,2,0,L|204:156,1,105,8|0,0:0|0:0,0:0:0:0:
248,204,14195,1,0,0:0:0:0:
116,308,14357,2,0,P|99:278|100:236,1,52.5
248,204,14679,2,0,P|242:229|228:251,1,52.5
248,84,15002,2,0,P|304:92|352:160,1,105,8|0,0:0|0:0,0:0:0:0:
340,208,15486,1,0,0:0:0:0:
96,268,15647,6,0,B|84:216|112:216|88:128,1,105
16,188,16131,1,0,0:0:0:0:
176,240,16292,2,0,P|240:244|276:236,1,52.5,8|0,0:0|0:0,0:0:0:0:
372,160,16615,2,0,P|436:156|472:164,1,52.5
416,324,16937,2,0,L|404:236,1,52.5
276,168,17260,2,0,L|264:80,1,52.5
200,64,17583,1,8,0:0:0:0:
276,28,17744,1,0,0:0:0:0:
144,132,17905,2,0,P|120:104|104:64,1,52.5
204,232,18228,6,0,P|252:272|248:352,1,105
176,312,18712,1,0,0:0:0:0:
252,164,18873,2,0,L|328:148,1,52.5,8|0,0:0|0:0,0:0:0:0:
412,280,19195,2,0,L|360:269,1,52.5
456,132,19518,1,0,0:0:0:0:
456,132,19679,1,0,0:0:0:0:
296,80,19841,2,0,P|240:56|228:48,1,52.5
152,200,20163,2,0,P|80:204|56:200,1,52.5,8|0,0:0|0:0,0:0:0:0:
28,160,20486,1,0,0:0:0:0:
28,160,20647,1,0,0:0:0:0:
228,312,20808,6,0,P|276:268|336:268,1,105
396,280,21292,1,0,0:0:0:0:
260,180,21454,2,0,P|248:128|252:84,1,52.5,8|0,0:0|0:0,0:0:0:0:
427,61,21776,2,0,P|424:87|416:112,1,52.5
192,228,22099,2,0,P|168:152|168:92,1,105
208,56,22583,1,0,0:0:0:0:
360,128,22744,2,0,L|436:124,1,52.5,8|0,0:0|0:0,0:0:0:0:
255,262,23066,2,0,L|308:260,1,52.5
148,212,23389,6,0,P|140:296|160:336,1,105
72,352,23873,1,0,0:0:0:0:
72,352,24034,2,0,P|59:315|36:280,1,52.5,8|0,0:0|0:0,0:0:0:0:
216,264,24357,2,0,P|228:227|252:192,1,52.5
400,188,24679,1,0,0:0:0:0:
400,188,24841,1,0,0:0:0:0:
292,60,25002,2,0,P|300:124|308:140,1,52.5
393,240,25325,2,0,L|400:188,1,52.5,8|0,0:0|0:0,0:0:0:0:
264,284,25647,2,0,L|257:336,1,52.5
296,108,25970,6,0,B|252:108|252:108|236:112|236:112|191:112,1,105
112,84,26454,1,0,0:0:0:0:
60,244,26615,2,0,P|100:244|152:256,1,52.5,8|0,0:0|0:0,0:0:0:0:
192,113,26937,2,0,P|232:153|244:177,1,52.5
228,316,27260,2,0,P|200:216|228:184,1,105
229,149,27744,1,0,0:0:0:0:
384,84,27905,2,0,L|472:88,1,52.5,8|0,0:0|0:0,0:0:0:0:
229,149,28228,2,0,L|141:145,1,52.5
344,184,28550,6,0,B|364:240|332:240|343:286,1,105
428,272,29034,1,0,0:0:0:0:
268,216,29195,2,0,L|176:224,1,52.5,8|0,0:0|0:0,0:0:0:0:
176,146,29518,1,0,0:0:0:0:
132,216,29679,1,0,0:0:0:0:
344,112,29841,2,0,P|368:56|376:32,1,52.5
154,97,30163,2,0,P|163:121|175:145,1,52.5
416,140,30486,2,0,P|440:84|448:60,1,52.5,8|0,0:0|0:0,0:0:0:0:
332,224,30808,2,0,L|356:320,1,52.5
175,145,31131,6,0,P|107:125|63:173,1,105
40,216,31615,1,0,0:0:0:0:
152,340,31776,2,0,L|160:268,1,52.5,8|0,0:0|0:0,0:0:0:0:
320,244,32099,2,0,L|328:172,1,52.5
320,108,32421,1,0,0:0:0:0:
248,156,32583,1,0,0:0:0:0:
468,160,32744,2,0,L|416:164,1,52.5
195,152,33066,2,0,L|247:155,2,52.5,8|0|0,0:0|0:0|0:0,0:0:0:0:
120,188,33550,1,0,0:0:0:0:
340,312,33712,6,0,P|404:304|404:240,1,105
392,192,34195,1,0,0:0:0:0:
256,292,34357,2,0,L|272:380,1,52.5,8|0,0:0|0:0,0:0:0:0:
106,216,34679,2,0,L|116:268,1,52.5
240,156,35002,1,0,0:0:0:0:
240,156,35163,1,0,0:0:0:0:
308,116,35325,1,0,0:0:0:0:
312,200,35486,1,0,0:0:0:0:
144,144,35647,2,0,P|116:148|91:144,1,52.5,8|0,0:0|0:0,0:0:0:0:
280,44,35970,2,0,P|304:40|332:44,1,52.5
306,304,36292,6,0,L|312:200,1,105
428,144,36776,1,0,0:0:0:0:
429,151,36937,2,0,P|408:176|380:192,1,52.5,8|0,0:0|0:0,0:0:0:0:
403,56,37260,2,0,P|440:48|472:52,1,52.5
334,110,37583,2,0,L|200:100,1,105
148,204,38066,1,0,0:0:0:0:
153,206,38228,2,0,P|188:224|216:232,1,52.5,8|0,0:0|0:0,0:0:0:0:
60,210,38550,2,0,P|24:240|12:252,1,52.5
125,372,38873,6,0,P|126:328|109:259,1,105
264,85,39518,2,0,P|263:129|280:198,1,105,8|0,0:0|0:0,0:0:0:0:
387,229,40002,1,0,0:0:0:0:
277,328,40163,2,0,L|192:320,1,52.5
400,352,40486,2,0,L|328:360,1,52.5
468,315,40808,2,0,P|472:264|500:208,1,105,8|0,0:0|0:0,0:0:0:0:
368,143,41292,1,0,0:0:0:0:
378,153,41454,6,0,P|396:192|408:232,1,52.5
279,109,41776,2,0,P|300:64|320:40,1,52.5
286,200,42099,2,0,L|164:184,1,105,8|0,0:0|0:0,0:0:0:0:
90,290,42583,1,0,0:0:0:0:
93,297,42744,2,0,P|130:321|150:333,1,52.5
11,313,43066,2,0,P|6:357|6:389,1,52.5
32,230,43389,1,8,0:0:0:0:
22,153,43550,1,0,0:0:0:0:
10,73,43712,2,0,L|14:17,1,52.5
118,57,44034,6,0,L|108:192,1,105
203,195,44518,1,0,0:0:0:0:
208,197,44679,2,0,P|210:169|202:123,1,52.5,8|0,0:0|0:0,0:0:0:0:
132,239,45002,2,0,P|128:272|132:304,1,52.5
192,364,45325,1,0,0:0:0:0:
12,240,45647,1,0,0:0:0:0:
96,188,45808,1,0,0:0:0:0:
180,144,45970,2,0,L|172:64,1,52.5,8|0,0:0|0:0,0:0:0:0:
276,16,46292,2,0,L|268:84,1,52.5
344,166,46615,6,0,P|400:188|488:176,1,105
341,155,47260,1,8,0:0:0:0:
308,268,47421,1,0,0:0:0:0:
252,122,47583,2,0,L|244:48,1,52.5
196,188,47905,1,0,0:0:0:0:
196,188,48066,1,0,0:0:0:0:
196,188,48228,1,0,0:0:0:0:
196,188,48389,1,0,0:0:0:0:
322,262,48550,2,0,P|344:304|356:368,1,105,8|0,0:0|0:0,0:0:0:0:
246,273,49034,1,0,0:0:0:0:
370,179,49195,6,0,L|356:12,1,157.5
453,133,49841,1,8,0:0:0:0:
312,240,50002,2,0,L|304:304,2,52.5
170,136,50486,2,0,P|174:192|198:244,1,105
63,199,50970,1,0,0:0:0:0:
55,208,51131,2,0,P|40:240|28:276,1,52.5,8|0,0:0|0:0,0:0:0:0:
81,118,51454,2,0,P|60:84|44:64,1,52.5
147,184,51776,6,0,P|216:212|324:188,1,157.5
387,112,52421,2,0,L|380:4,1,105,8|0,0:0|0:0,0:0:0:0:
306,95,52905,1,0,0:0:0:0:
401,210,53066,2,0,P|388:264|384:328,1,105
470,252,53550,1,0,0:0:0:0:
401,210,53712,2,0,L|334:219,1,52.5,8|0,0:0|0:0,0:0:0:0:
215,150,54034,2,0,L|152:144,1,52.5
281,96,54357,5,0,0:0:0:0:
176,364,54679,1,0,0:0:0:0:
152,284,54841,1,0,0:0:0:0:
92,344,55002,1,8,0:0:0:0:
259,222,55325,2,0,P|264:192|268:152,1,52.5
275,298,55647,2,0,P|300:324|324:348,1,52.5
445,243,55970,6,0,P|392:236|312:248,2,105,0|0|8,0:0|0:0|0:0,0:0:0:0:
504,300,56776,1,0,0:0:0:0:
466,145,56937,5,0,0:0:0:0:
512,375,57260,2,0,L|432:367,1,52.5
376,360,57583,1,8,0:0:0:0:
316,200,57905,1,0,0:0:0:0:
131,320,58228,2,0,L|51:312,1,52.5
248,362,58550,2,0,L|167:354,1,52.5
188,255,58873,2,0,P|203:229|224:205,1,52.5,8|0,0:0|0:0,0:0:0:0:
136,92,59195,2,0,P|160:134|168:162,1,52.5
79,212,59518,5,0,0:0:0:0:
214,42,59841,1,0,0:0:0:0:
282,295,60163,2,0,P|232:300|204:296,1,52.5,8|0,0:0|0:0,0:0:0:0:
142,217,60486,2,0,P|182:217|214:225,1,52.5
72,307,60808,2,0,P|54:283|39:206,1,105
156,296,61292,1,0,0:0:0:0:
166,381,61454,2,0,L|99:376,1,52.5,8|0,0:0|0:0,0:0:0:0:
288,336,61776,2,0,L|228:315,1,52.5
416,325,62099,6,0,L|327:237,1,105
348,168,62583,1,0,0:0:0:0:
466,175,62744,2,0,P|456:216|444:240,1,52.5,8|0,0:0|0:0,0:0:0:0:
411,93,63066,2,0,P|416:72|428:36,1,52.5
348,168,63389,1,0,0:0:0:0:
65,106,63712,1,0,0:0:0:0:
142,54,63873,1,0,0:0:0:0:
203,141,64034,2,0,P|169:145|129:141,1,52.5,8|0,0:0|0:0,0:0:0:0:
74,251,64357,2,0,P|108:244|144:240,1,52.5
234,356,64679,6,0,L|96:348,1,105
346,227,65325,1,8,0:0:0:0:
419,361,65647,2,0,L|351:358,1,52.5
449,275,65970,2,0,P|490:309|510:365,1,105
354,272,66454,1,0,0:0:0:0:
450,165,66615,2,0,P|468:120|472:92,1,52.5,8|0,0:0|0:0,0:0:0:0:
306,103,66937,2,0,P|292:72|268:40,1,52.5
76,204,67260,6,0,P|152:208|248:192,1,157.5,4|0,3:3|0:0,0:0:0:0:
308,236,67905,2,0,L|304:348,1,105,2|0,0:0|0:0,0:0:0:0:
180,120,68550,1,0,0:0:0:0:
420,192,68873,1,0,0:0:0:0:
420,192,69034,1,0,0:0:0:0:
420,192,69195,2,0,P|404:124|416:76,1,105,2|0,0:0|0:0,0:0:0:0:
124,192,69841,6,0,P|179:221|248:200,1,105
252,40,70486,1,2,0:0:0:0:
28,160,70808,2,0,L|36:240,1,52.5
64,292,71131,2,0,B|140:256|140:320|236:272,1,157.5
300,260,71776,2,0,P|328:308|328:344,2,52.5
320,116,72260,1,0,0:0:0:0:
320,116,72421,6,0,P|312:60|324:0,1,105,4|0,3:3|0:0,0:0:0:0:
440,192,73066,2,0,L|424:264,1,52.5,2|0,0:0|0:0,0:0:0:0:
352,280,73389,2,0,L|368:352,1,52.5
236,220,73712,2,0,P|188:196|96:180,1,105
60,332,74195,1,0,0:0:0:0:
60,332,74357,1,2,0:0:0:0:
60,332,74518,2,0,L|64:248,1,52.5
64,196,74841,1,0,0:0:0:0:
220,116,75002,6,0,P|308:132|352:128,1,105
468,48,75647,1,2,0:0:0:0:
316,248,75970,2,0,L|340:328,1,52.5
323,131,76292,2,0,L|347:51,1,52.5
272,28,76615,1,0,0:0:0:0:
216,92,76776,1,0,0:0:0:0:
72,60,76937,2,0,P|28:60|-4:52,1,52.5,2|0,0:0|0:0,0:0:0:0:
168,200,77260,2,0,P|212:200|244:208,1,52.5
322,50,77583,6,0,P|299:125|304:204,1,157.5,4|0,3:3|0:0,0:0:0:0:
452,276,78228,2,0,P|400:288|364:276,1,52.5,8|0,0:0|0:0,0:0:0:0:
253,190,78550,2,0,P|279:192|304:203,1,52.5
256,276,78873,1,0,0:0:0:0:
180,236,79034,1,0,0:0:0:0:
376,168,79195,2,0,L|384:88,1,52.5
252,44,79518,2,0,L|258:97,1,52.5,8|0,0:0|0:0,0:0:0:0:
212,168,79841,1,0,0:0:0:0:
164,96,80002,1,0,0:0:0:0:
360,136,80163,6,0,P|408:121|461:135,1,105
412,204,80647,1,0,0:0:0:0:
252,128,80808,2,0,L|248:64,1,52.5,8|0,0:0|0:0,0:0:0:0:
176,224,81131,2,0,L|148:164,1,52.5
68,168,81454,1,0,0:0:0:0:
96,248,81615,1,0,0:0:0:0:
256,144,81776,1,0,0:0:0:0:
296,220,81937,1,0,0:0:0:0:
336,148,82099,2,0,P|360:88|360:72,1,52.5,8|0,0:0|0:0,0:0:0:0:
212,232,82421,2,0,P|220:256|234:279,1,52.5
212,68,82744,6,0,P|128:96|80:96,1,105
60,240,83228,1,0,0:0:0:0:
60,240,83389,2,0,P|112:196|124:192,1,52.5,8|0,0:0|0:0,0:0:0:0:
292,188,83712,2,0,P|272:172|256:152,1,52.5
256,68,84034,1,0,0:0:0:0:
332,36,84195,1,0,0:0:0:0:
400,192,84357,2,0,L|392:288,1,52.5
256,328,84679,2,0,L|260:275,1,52.5,8|0,0:0|0:0,0:0:0:0:
112,192,85002,2,0,L|120:288,1,52.5
256,152,85325,6,0,P|264:72|244:24,1,105
112,192,85808,1,0,0:0:0:0:
112,192,85970,2,0,P|184:224|196:224,1,52.5,8|0,0:0|0:0,0:0:0:0:
264,348,86292,2,0,P|332:320|344:304,1,52.5
472,140,86615,2,0,P|396:168|364:196,1,105
372,268,87099,1,0,0:0:0:0:
172,116,87260,2,0,L|268:128,1,52.5,8|0,0:0|0:0,0:0:0:0:
384,68,87583,2,0,L|292:72,1,52.5
104,184,87905,6,0,L|232:200,1,105
352,192,88389,1,0,0:0:0:0:
352,192,88550,2,0,P|280:172|256:176,1,52.5,8|0,0:0|0:0,0:0:0:0:
151,322,88873,2,0,P|176:316|200:304,1,52.5
256,244,89195,1,0,0:0:0:0:
228,164,89357,1,0,0:0:0:0:
172,228,89518,1,0,0:0:0:0:
172,228,89679,1,0,0:0:0:0:
144,80,89841,2,0,P|144:32|128:0,1,52.5,8|0,0:0|0:0,0:0:0:0:
340,136,90163,2,0,P|335:161|338:187,1,52.5
420,76,90486,6,0,P|364:32|260:84,1,157.5
216,100,91131,2,0,P|168:124|136:128,1,52.5,8|0,0:0|0:0,0:0:0:0:
140,288,91454,2,0,P|172:224|192:212,1,52.5
320,192,91776,2,0,L|464:208,1,105
396,124,92260,1,0,0:0:0:0:
396,124,92421,2,0,P|396:64|404:40,1,52.5,8|0,0:0|0:0,0:0:0:0:
344,272,92744,2,0,P|344:332|336:356,1,52.5
139,183,93066,6,0,P|192:192|244:192,1,105
296,128,93550,1,0,0:0:0:0:
200,264,93712,2,0,P|172:282|140:320,2,52.5,8|0|0,0:0|0:0|0:0,0:0:0:0:
272,308,94195,1,0,0:0:0:0:
352,280,94357,2,0,P|356:208|352:184,1,52.5
256,140,94679,2,0,P|251:114|250:87,2,52.5,0|0|8,0:0|0:0|0:0,0:0:0:0:
332,104,95163,1,0,0:0:0:0:
408,144,95325,2,0,P|413:118|414:91,1,52.5
192,244,95647,6,0,P|256:236|316:232,1,105
376,256,96131,1,0,0:0:0:0:
316,100,96292,2,0,P|304:60|312:16,1,52.5,8|0,0:0|0:0,0:0:0:0:
164,144,96615,2,0,P|120:96|116:84,1,52.5
168,272,96937,2,0,L|28:292,1,105
12,220,97421,1,0,0:0:0:0:
164,144,97583,2,0,L|244:152,1,52.5,8|0,0:0|0:0,0:0:0:0:
368,80,97905,2,0,L|448:88,1,52.5
424,252,98228,6,0,P|352:244|312:288,1,105
460,364,98873,2,0,L|516:356,2,52.5,8|0|0,0:0|0:0|0:0,0:0:0:0:
292,352,99518,2,0,L|180:372,1,105
112,332,100002,1,0,0:0:0:0:
180,280,100163,2,0,P|192:244|192:172,1,105,8|0,0:0|0:0,0:0:0:0:
64,72,100808,6,0,P|52:108|52:180,1,105
144,288,101292,1,0,0:0:0:0:
144,288,101454,2,0,P|173:263|191:239,1,52.5,8|0,0:0|0:0,0:0:0:0:
276,259,101776,2,0,P|275:229|264:193,1,52.5
354,160,102099,2,0,P|326:133|301:116,1,52.5
328,25,102421,2,0,P|298:31|262:41,1,52.5
418,85,102744,1,8,0:0:0:0:
418,85,102905,1,0,0:0:0:0:
418,85,103066,1,0,0:0:0:0:
202,201,103389,6,0,P|196:256|208:332,1,105
282,224,103873,1,0,0:0:0:0:
184,171,104034,2,0,P|168:200|140:280,1,105,8|0,0:0|0:0,0:0:0:0:
296,206,104518,1,0,0:0:0:0:
393,120,104679,6,0,P|399:65|387:-11,1,105
313,97,105163,1,0,0:0:0:0:
411,150,105324,2,0,P|427:121|455:41,1,105,8|0,0:0|0:0,0:0:0:0:
275,160,105808,1,0,0:0:0:0:
363,307,105970,6,0,P|288:288|184:376,1,210,0|8,0:0|0:0,0:0:0:0:
81,300,106776,1,0,0:0:0:0:
90,291,106937,2,0,P|128:288|152:284,1,52.5
33,219,107260,2,0,P|12:156|56:48,1,157.5
171,97,107905,2,0,P|192:144|112:136,1,157.5,8|0,0:0|0:0,0:0:0:0:
151,287,108550,6,0,P|95:309|18:300,1,105
202,216,109195,1,8,0:0:0:0:
232,296,109357,2,0,L|216:368,2,52.5
316,296,109841,2,0,L|296:176,1,105
280,112,110325,1,0,0:0:0:0:
360,132,110486,2,0,P|380:168|376:232,1,105,8|0,0:0|0:0,0:0:0:0:
216,284,111131,6,0,L|232:156,1,105
108,64,111776,2,0,L|92:200,1,105,8|0,0:0|0:0,0:0:0:0:
132,244,112260,1,0,0:0:0:0:
48,248,112421,2,0,P|28:224|12:184,1,52.5
89,327,112744,2,0,P|56:336|12:328,1,52.5
181,318,113066,2,0,P|234:335|283:388,1,105,8|0,0:0|0:0,0:0:0:0:
249,247,113550,1,0,0:0:0:0:
120,374,113712,6,0,L|7:360,1,105
84,246,114195,1,0,0:0:0:0:
142,355,114357,2,0,L|28:360,1,105,8|0,0:0|0:0,0:0:0:0:
270,364,115002,2,0,P|336:368|384:340,1,105
309,270,115486,1,0,0:0:0:0:
182,352,115647,2,0,L|112:344,1,52.5,8|0,0:0|0:0,0:0:0:0:
112,264,115970,2,0,L|176:276,1,52.5
228,220,116292,5,0,0:0:0:0:
128,84,116615,2,0,L|128:16,1,52.5
201,133,116937,1,8,0:0:0:0:
84,176,117099,2,0,L|56:120,2,52.5
127,252,117583,2,0,P|108:276|76:356,1,105
254,292,118228,2,0,P|232:266|198:241,2,52.5,0|0|8,0:0|0:0|0:0,0:0:0:0:
272,376,118712,1,0,0:0:0:0:
392,317,118873,6,0,L|527:328,1,105
325,243,119518,1,8,0:0:0:0:
204,360,119841,2,0,P|200:332|200:292,1,52.5
236,232,120163,1,0,0:0:0:0:
75,198,120486,2,0,P|111:186|151:186,1,52.5
236,232,120808,1,8,0:0:0:0:
431,128,121131,2,0,P|428:109|414:73,1,52.5
396,210,121454,6,0,L|510:197,1,105
303,140,122099,1,8,0:0:0:0:
280,308,122421,2,0,P|296:328|328:352,1,52.5
197,286,122744,2,0,P|168:304|120:372,1,105
220,368,123228,1,0,0:0:0:0:
260,238,123389,2,0,L|252:156,1,52.5,8|0,0:0|0:0,0:0:0:0:
135,169,123712,2,0,L|145:243,1,52.5
31,271,124034,6,0,L|15:144,1,105,4|0,3:3|0:0,0:0:0:0:
178,313,124679,2,0,P|132:308|104:300,1,52.5,8|0,0:0|0:0,0:0:0:0:
251,288,125002,2,0,P|297:293|325:301,1,52.5
194,237,125325,2,0,P|208:188|208:120,1,105
152,76,125808,1,0,0:0:0:0:
242,15,125970,2,0,L|306:22,1,52.5,8|0,0:0|0:0,0:0:0:0:
384,114,126292,2,0,L|320:128,1,52.5
278,246,126615,6,0,P|316:272|392:296,1,105
345,197,127099,1,0,0:0:0:0:
270,334,127260,2,0,L|204:328,1,52.5,8|0,0:0|0:0,0:0:0:0:
140,216,127583,2,0,L|196:224,1,52.5
308,101,127905,2,0,P|280:68|216:20,1,105
241,148,128389,1,0,0:0:0:0:
380,64,128550,2,0,P|387:93|387:139,1,52.5,8|0,0:0|0:0,0:0:0:0:
501,194,128873,2,0,P|480:216|448:236,1,52.5
161,221,129195,6,0,P|237:204|315:213,1,157.5,4|0,3:3|0:0,0:0:0:0:
324,128,129841,2,0,P|264:96|240:56,1,105,2|0,0:0|0:0,0:0:0:0:
161,221,130486,1,0,0:0:0:0:
412,192,130808,1,0,0:0:0:0:
412,192,130970,1,0,0:0:0:0:
412,192,131131,2,0,P|388:276|392:328,1,105,2|0,0:0|0:0,0:0:0:0:
136,272,131776,2,0,L|224:268,1,52.5
244,66,132099,6,0,L|96:74,1,105,0|2,0:0|0:0,0:0:0:0:
92,144,132583,1,0,0:0:0:0:
244,216,132744,2,0,P|264:272|264:308,1,52.5
352,120,133066,2,0,P|444:144|468:160,1,105
472,232,133550,1,0,0:0:0:0:
348,344,133712,2,0,L|360:268,1,52.5,2|0,0:0|0:0,0:0:0:0:
187,192,134034,2,0,L|196:244,1,52.5
328,140,134357,6,0,P|320:56|304:24,1,105,4|0,3:3|0:0,0:0:0:0:
144,44,135002,1,2,0:0:0:0:
64,192,135325,1,0,0:0:0:0:
72,276,135486,1,0,0:0:0:0:
140,224,135647,2,0,P|208:212|224:200,1,52.5
248,156,135970,1,0,0:0:0:0:
316,264,136131,2,0,P|304:196|292:180,1,52.5,0|2,0:0|0:0,0:0:0:0:
248,156,136454,1,0,0:0:0:0:
292,84,136615,1,0,0:0:0:0:
419,280,136776,1,0,0:0:0:0:
419,280,136937,6,0,L|295:260,1,105
64,292,137583,2,0,P|128:284|156:276,1,52.5,2|0,0:0|0:0,0:0:0:0:
244,176,137905,2,0,P|300:132|304:116,1,52.5
132,92,138228,2,0,P|148:188|164:224,1,105
204,260,138712,1,0,0:0:0:0:
356,192,138873,2,0,L|436:164,1,52.5,2|0,0:0|0:0,0:0:0:0:
288,52,139195,2,0,L|368:24,1,52.5
228,180,139518,5,0,0:0:0:0:
112,196,144679,6,0,L|204:188,1,52.5
304,96,145002,2,0,L|396:88,1,52.5
428,136,145325,2,0,P|384:192|392:268,1,105,8|0,0:0|0:0,0:0:0:0:
404,304,145808,1,0,0:0:0:0:
240,260,145970,2,0,P|200:252|152:256,1,52.5
64,140,146292,2,0,L|72:200,1,52.5
48,272,146615,1,8,0:0:0:0:
256,132,146937,1,0,0:0:0:0:
400,216,147260,6,0,L|472:220,1,52.5
308,129,147583,2,0,L|256:132,1,52.5
184,172,147905,2,0,P|156:232|156:280,1,105,8|0,0:0|0:0,0:0:0:0:
204,336,148389,1,0,0:0:0:0:
372,296,148550,2,0,P|355:315|331:325,1,52.5
255,132,148873,2,0,P|279:141|296:160,1,52.5
304,244,149195,1,8,0:0:0:0:
56,192,149518,1,0,0:0:0:0:
172,68,149679,1,0,0:0:0:0:
172,68,149841,6,0,L|268:76,1,52.5
280,235,150163,2,0,L|228:240,1,52.5
396,216,150486,2,0,P|388:288|344:340,1,105,8|0,0:0|0:0,0:0:0:0:
296,348,150970,1,0,0:0:0:0:
296,348,151131,1,0,0:0:0:0:
164,192,151292,1,0,0:0:0:0:
128,268,151454,2,0,L|144:344,1,52.5
256,136,151776,2,0,L|260:0,1,105,8|0,0:0|0:0,0:0:0:0:
400,124,152260,1,0,0:0:0:0:
400,124,152421,6,0,P|452:140|480:140,1,52.5
308,232,152744,2,0,P|256:248|228:248,1,52.5
56,74,153066,2,0,P|107:87|144:124,1,105,8|0,0:0|0:0,0:0:0:0:
128,208,153550,1,0,0:0:0:0:
256,100,153712,2,0,L|264:8,1,52.5
128,208,154034,2,0,L|132:260,1,52.5
340,196,154357,2,0,P|288:202|238:217,1,105,8|0,0:0|0:0,0:0:0:0:
256,316,154841,1,0,0:0:0:0:
108,168,155002,6,0,P|52:160|8:160,1,52.5
200,132,155325,2,0,P|162:89|128:61,1,52.5
300,144,155647,2,0,B|284:92|316:92|292:16,1,105,8|0,0:0|0:0,0:0:0:0:
216,28,156131,1,0,0:0:0:0:
384,116,156292,2,0,L|472:108,2,52.5
240,208,156776,1,0,0:0:0:0:
240,208,156937,2,0,L|104:200,1,105,8|0,0:0|0:0,0:0:0:0:
80,264,157421,1,0,0:0:0:0:
308,264,157583,6,0,P|320:184|288:120,1,105
256,100,158066,1,0,0:0:0:0:
197,162,158228,2,0,P|190:213|204:264,1,105,8|0,0:0|0:0,0:0:0:0:
256,332,158712,1,0,0:0:0:0:
120,236,158873,2,0,L|48:240,2,52.5
203,263,159357,1,0,0:0:0:0:
252,104,159518,2,0,P|308:68|384:84,1,105,8|0,0:0|0:0,0:0:0:0:
324,148,160002,1,0,0:0:0:0:
76,96,160163,5,4,3:0:0:0:
199,302,161454,6,0,P|153:313|98:296,1,105
88,276,162099,1,0,0:0:0:0:
80,247,162421,1,0,0:0:0:0:
74,215,162744,6,0,L|51:378,1,157.5,4|0,3:0|0:0,0:0:0:0:
136,360,163389,2,0,L|148:256,1,105
308,204,164034,2,0,L|296:328,1,105
216,128,164679,2,0,P|240:112|276:96,1,52.5
353,116,165002,2,0,P|393:100|409:88,1,52.5
440,10,165325,5,4,3:0:0:0:
340,200,165647,1,0,0:0:0:0:
496,140,165970,1,0,0:0:0:0:
486,132,166292,2,0,L|424:136,1,52.5
356,100,166615,2,0,L|291:104,1,52.5
236,56,166937,1,0,0:0:0:0:
296,268,167260,1,0,0:0:0:0:
160,172,167583,2,0,L|100:160,1,52.5
36,200,167905,6,0,P|56:252|96:296,1,105,4|0,3:0|0:0,0:0:0:0:
252,260,168550,2,0,P|220:232|196:220,1,52.5
203,125,168873,2,0,P|235:109|263:101,1,52.5
373,189,169195,2,0,L|254:176,1,105
205,13,169841,2,0,L|344:24,1,105
311,20,170486,5,4,3:0:0:0:
420,148,170808,2,0,P|380:172|312:184,1,105
244,152,171292,2,0,L|232:92,2,52.5
192,220,171776,2,0,P|180:264|180:340,1,105
125,115,172421,2,0,P|82:99|2:99,1,105
95,183,172905,1,0,0:0:0:0:
192,69,173066,6,0,P|248:56|268:56,1,52.5,4|0,3:0|0:0,0:0:0:0:
354,126,173389,1,0,0:0:0:0:
350,138,173712,2,0,L|224:129,1,105
389,333,174357,2,0,P|432:328|460:312,2,52.5
332,272,174841,1,0,0:0:0:0:
267,352,175002,2,0,L|152:344,1,105
5,253,175647,6,0,P|-3:201|1:137,1,105,4|0,3:0|0:0,0:0:0:0:
56,88,176131,1,0,0:0:0:0:
104,156,176292,2,0,L|92:224,1,52.5
164,256,176615,2,0,L|174:195,1,52.5
180,120,176937,2,0,L|196:4,1,105
37,245,177583,2,0,L|21:361,1,105
147,193,178228,5,4,3:0:0:0:
24,80,178550,2,0,P|20:48|24:12,1,52.5
84,272,179034,2,0,P|87:298|84:340,2,52.5
40,176,179518,2,0,L|188:196,1,105
276,88,180163,2,0,L|200:80,1,52.5
246,167,180486,2,0,L|308:172,1,52.5
370,249,180808,6,0,P|332:296|268:324,1,105,4|0,3:0|0:0,0:0:0:0:
99,207,181454,1,8,0:0:0:0:
76,364,181776,2,0,L|140:356,1,52.5
196,289,182099,2,0,L|119:275,1,52.5
99,207,182421,2,0,L|168:196,1,52.5
194,119,182744,2,0,L|140:104,1,52.5,8|0,0:0|0:0,0:0:0:0:
108,28,183066,1,0,0:0:0:0:
319,112,183389,6,0,P|368:88|408:28,1,105
221,135,184034,1,8,0:0:0:0:
328,264,184357,2,0,L|332:328,1,52.5
236,356,184679,2,0,L|244:248,1,105
176,200,185163,1,0,0:0:0:0:
124,268,185325,2,0,P|144:312|156:328,1,52.5,8|0,0:0|0:0,0:0:0:0:
44,250,185647,2,0,P|24:264|0:292,1,52.5
97,178,185970,6,0,P|96:132|64:64,1,105,4|0,3:3|0:0,0:0:0:0:
26,258,186615,1,8,0:0:0:0:
198,372,186937,2,0,L|274:378,1,52.5
300,278,187260,2,0,L|230:282,1,52.5
207,175,187583,2,0,L|271:180,1,52.5
301,75,187905,2,0,L|241:81,1,52.5,8|0,0:0|0:0,0:0:0:0:
169,9,188228,1,0,0:0:0:0:
393,146,188550,6,0,P|424:104|432:48,1,105
264,258,189195,2,0,L|280:316,1,52.5,8|0,0:0|0:0,0:0:0:0:
411,350,189518,2,0,L|392:284,1,52.5
457,166,189841,2,0,P|470:123|474:35,1,105
372,7,190325,1,0,0:0:0:0:
296,137,190486,2,0,P|276:128|244:100,1,52.5,8|0,0:0|0:0,0:0:0:0:
324,224,190808,2,0,P|296:252|260:280,1,52.5
78,169,191131,6,0,P|150:198|204:256,1,157.5,4|0,3:3|0:0,0:0:0:0:
180,336,191776,2,0,L|44:348,1,105,2|0,0:0|0:0,0:0:0:0:
312,256,192421,2,0,L|400:264,1,52.5
464,187,192744,2,0,L|412:192,1,52.5
308,328,193066,2,0,L|396:336,1,52.5,2|0,0:0|0:0,0:0:0:0:
456,116,193389,2,0,L|403:120,1,52.5
236,136,193712,6,0,P|136:148|88:144,1,105
112,316,194357,1,2,0:0:0:0:
32,168,194679,1,0,0:0:0:0:
32,168,194841,1,0,0:0:0:0:
32,168,195002,2,0,P|44:104|48:60,1,105
216,32,195486,1,0,0:0:0:0:
160,188,195647,2,0,L|240:196,1,52.5,2|0,0:0|0:0,0:0:0:0:
440,160,195970,2,0,L|344:176,1,52.5
304,120,196292,6,0,P|341:245|401:256,1,157.5,4|0,3:3|0:0,0:0:0:0:
292,312,196937,2,0,P|240:336|200:336,1,52.5,2|0,0:0|0:0,0:0:0:0:
96,216,197260,2,0,P|120:224|143:239,1,52.5
268,176,197583,2,0,P|296:108|304:44,1,105
104,100,198066,1,0,0:0:0:0:
104,100,198228,2,0,L|112:192,1,52.5,2|0,0:0|0:0,0:0:0:0:
256,232,198550,2,0,L|264:324,1,52.5
366,58,198873,6,0,P|298:78|260:57,1,105,4|0,3:0|0:0,0:0:0:0:
192,28,199357,1,0,0:0:0:0:
52,124,199518,2,0,L|76:216,1,52.5,2|0,0:0|0:0,0:0:0:0:
178,78,199841,2,0,L|202:-14,1,52.5
196,196,200163,2,0,L|352:208,1,105
448,304,200647,1,0,0:0:0:0:
448,304,200808,2,0,L|395:301,1,52.5,8|0,0:0|0:0,0:0:0:0:
256,356,201131,1,0,0:0:0:0:
256,356,201292,1,0,0:0:0:0:
152,224,201454,6,0,P|112:160|140:60,1,157.5,4|0,3:3|0:0,0:0:0:0:
200,44,202099,1,2,0:0:0:0:
404,192,202421,1,0,0:0:0:0:
436,112,202583,1,0,0:0:0:0:
436,112,202744,2,0,P|440:52|436:32,1,52.5
323,175,203066,2,0,P|323:202|328:228,1,52.5
388,284,203389,1,2,0:0:0:0:
224,244,203550,1,0,0:0:0:0:
224,244,203712,2,0,L|160:232,1,52.5
48,16,204034,6,0,P|112:132|116:144,1,105
68,184,204518,1,0,0:0:0:0:
224,124,204679,2,0,P|276:96|312:92,1,52.5,2|0,0:0|0:0,0:0:0:0:
320,248,205002,2,0,P|384:240|412:244,1,52.5
228,324,205325,2,0,L|108:328,1,105
64,268,205808,1,0,0:0:0:0:
100,192,205970,2,0,P|120:136|120:96,1,52.5,2|0,0:0|0:0,0:0:0:0:
256,44,206292,2,0,P|263:69|274:92,1,52.5
412,192,206615,6,0,P|336:176|284:256,1,157.5,4|0,3:3|0:0,0:0:0:0:
256,308,207260,2,0,P|196:332|168:332,1,52.5,2|0,0:0|0:0,0:0:0:0:
120,146,207583,2,0,P|145:154|168:168,1,52.5
60,296,207905,1,0,0:0:0:0:
60,296,208066,1,0,0:0:0:0:
120,148,208228,1,0,0:0:0:0:
120,148,208389,1,0,0:0:0:0:
120,148,208550,2,0,P|144:88|136:36,1,105,2|0,0:0|0:0,0:0:0:0:
60,80,209034,1,0,0:0:0:0:
224,124,209195,6,0,B|248:136|276:124|276:124|308:136|344:116,1,105,4|0,3:0|0:0,0:0:0:0:
304,44,209679,1,0,0:0:0:0:
368,200,209841,2,0,L|348:280,1,52.5,2|0,0:0|0:0,0:0:0:0:
211,174,210163,2,0,L|224:124,1,52.5
228,292,210486,2,0,P|140:296|120:288,1,105
68,232,210970,1,0,0:0:0:0:
68,232,211131,2,0,L|72:144,1,52.5,2|0,0:0|0:0,0:0:0:0:
256,80,211454,2,0,L|260:168,1,52.5
343,263,211776,6,0,P|392:276|504:232,1,157.5,4|0,3:3|0:0,0:0:0:0:
363,183,212421,1,2,0:0:0:0:
184,356,212744,2,0,L|120:348,1,52.5
100,256,213066,2,0,P|164:236|232:244,1,105
272,284,213550,1,0,0:0:0:0:
339,171,213712,2,0,L|331:107,1,52.5,2|0,0:0|0:0,0:0:0:0:
413,214,214034,2,0,L|418:136,1,52.5
486,266,214357,6,0,L|501:154,1,105
409,339,215002,2,0,P|436:362|464:376,1,52.5,2|0,0:0|0:0,0:0:0:0:
317,322,215325,2,0,B|304:332|292:332|264:376,1,52.5
369,250,215647,2,0,L|382:146,1,105
416,68,216131,1,0,0:0:0:0:
337,43,216292,2,0,P|324:72|316:104,1,52.5,2|0,0:0|0:0,0:0:0:0:
238,189,216615,2,0,P|212:168|188:156,1,52.5
129,278,216937,6,0,P|184:280|252:256,1,105,4|0,3:3|0:0,0:0:0:0:
100,197,217421,1,0,0:0:0:0:
40,276,217583,2,0,P|54:332|56:386,1,105,2|0,0:0|0:0,0:0:0:0:
140,330,218066,1,0,0:0:0:0:
88,192,218228,1,0,0:0:0:0:
159,122,218389,2,0,L|223:126,2,52.5
127,39,218873,2,0,L|60:52,1,52.5,2|0,0:0|0:0,0:0:0:0:
267,35,219195,2,0,L|200:48,1,52.5
416,81,219518,6,0,L|299:107,1,105,4|0,3:0|0:0,0:0:0:0:
444,9,220163,1,2,0:0:0:0:
481,198,220486,2,0,P|432:184|408:172,1,52.5
411,310,220808,2,0,P|458:299|519:260,1,105
369,242,221292,1,0,0:0:0:0:
297,330,221454,2,0,L|231:325,1,52.5,2|0,0:0|0:0,0:0:0:0:
156,375,221776,2,0,L|96:368,1,52.5
256,192,222099,12,0,225970,0:0:0:0:
