osu file format v14

[General]
AudioFilename: audio.mp3
AudioLeadIn: 0
PreviewTime: 189841
Countdown: 0
SampleSet: Soft
StackLeniency: 0.7
Mode: 0
LetterboxInBreaks: 0
WidescreenStoryboard: 1

[Editor]
Bookmarks: 36292,67260,98228,129195,160163,191131,211776
DistanceSpacing: 1.6
BeatDivisor: 2
GridSize: 4
TimelineZoom: 1

[Metadata]
Title:Starboy (feat. Daft Punk)
TitleUnicode:Starboy (feat. Daft Punk)
Artist:The Weeknd
ArtistUnicode:The Weeknd
Creator:Cloudchaser
Version:Normal
Source:
Tags:Abel Tesfaye R&B
BeatmapID:1187342
BeatmapSetID:560982

[Difficulty]
HPDrainRate:3
CircleSize:3
OverallDifficulty:3
ApproachRate:4
SliderMultiplier:1.5
SliderTickRate:1

[Events]
//Background and Video events
0,0,"Starboyh.jpg",0,0
//Break Periods
2,139718,143359
//Storyboard Layer 0 (Background)
//Storyboard Layer 1 (Fail)
//Storyboard Layer 2 (Pass)
//Storyboard Layer 3 (Foreground)
Sprite,Foreground,Centre,"sb\Cloudchaser.png",320,240 M,0,5325,,182.9161,409.2903 F,0,5325,6615,0,1 F,0,6615,35002,1 F,0,35002,36292,1,0
Sprite,Foreground,Centre,"sb\Gabe.png",320,240 M,0,35002,,471.9484,410.9419 F,0,35002,36292,0,1 F,0,36292,65970,1 F,0,65970,67260,1,0
Sprite,Foreground,Centre,"sb\Cloudchaser.png",320,240 M,0,65970,,182.9161,409.2903 F,0,65970,67260,0,1 F,0,67260,96937,1 F,0,96937,98228,1,0
Sprite,Foreground,Centre,"sb\Gabe.png",320,240 F,0,96937,98227,0,1 F,0,98227,127905,1 M,0,98228,,471.9484,410.9419 F,0,127905,129195,1,0
Sprite,Foreground,Centre,"sb\Cloudchaser.png",320,240 M,0,127905,,182.9161,409.2903 F,0,127905,129195,0,1 F,0,129195,157582,1 F,0,157582,158872,1,0
Sprite,Foreground,Centre,"sb\Gabe.png",320,240 M,0,158873,,471.9484,410.9419 F,0,158873,160163,0,1 F,0,160163,189841,1 F,0,189841,191131,1,0
Sprite,Foreground,Centre,"sb\Cloudchaser.png",320,240 M,0,189841,,182.9161,409.2903 F,0,189841,191131,0,1 F,0,191131,210486,1 F,0,210486,211776,1,0
Sprite,Foreground,Centre,"sb\Gabe.png",320,240 F,0,210486,211776,0,1 M,0,211776,,471.9484,410.1161 F,0,211776,222099,1 F,0,222099,225970,1,0
//Storyboard Sound Samples

[TimingPoints]
5325,645.161290322581,4,2,1,70,1,0
67260,-100,4,2,1,70,0,1
77583,-100,4,2,1,70,0,0
129195,-100,4,2,1,70,0,1
139518,-100,4,2,1,70,0,0
191131,-100,4,2,1,70,0,1
200808,-100,4,2,1,70,0,0
201454,-100,4,2,1,70,0,1
211131,-100,4,2,1,70,0,0
211776,-100,4,2,1,70,0,1
222099,-100,4,2,1,70,0,0

[Colours]
Combo1 : 157,60,255
Combo2 : 32,104,223
Combo3 : 238,221,17
Combo4 : 255,128,0

[HitObjects]
72,128,5325,6,0,P|132:136|192:120,1,112.5,0|0,0:0|0:0,0:0:0:0:
228,84,5970,2,0,P|300:68|324:72,1,75,8|0,0:0|0:0,0:0:0:0:
376,152,6615,2,0,L|356:280,1,112.5,0|0,0:0|0:0,0:0:0:0:
324,312,7260,2,0,P|284:344|232:352,1,75,8|0,0:0|0:0,0:0:0:0:
144,268,7905,6,0,B|128:216|160:216|136:128,1,112.5,0|0,0:0|0:0,0:0:0:0:
160,100,8550,2,0,P|224:92|260:112,1,75,8|0,0:0|0:0,0:0:0:0:
352,284,9518,2,0,P|387:294|424:289,1,75,0|8,0:0|0:0,0:0:0:0:
396,172,10163,1,0,0:0:0:0:
296,224,10486,6,0,L|156:224,1,112.5,0|0,0:0|0:0,0:0:0:0:
128,200,11131,2,0,P|140:152|136:96,1,75,8|0,0:0|0:0,0:0:0:0:
368,44,12099,2,0,P|370:81|380:117,1,75,0|8,0:0|0:0,0:0:0:0:
472,196,12744,1,0,0:0:0:0:
400,292,13066,6,0,P|336:264|276:268,1,112.5,0|0,0:0|0:0,0:0:0:0:
240,288,13712,2,0,P|184:296|152:292,1,75,8|0,0:0|0:0,0:0:0:0:
116,60,14679,2,0,P|153:59|190:66,1,75,0|8,0:0|0:0,0:0:0:0:
256,168,15325,1,0,0:0:0:0:
344,88,15647,6,0,P|400:116|452:124,1,112.5,0|0,0:0|0:0,0:0:0:0:
508,128,16292,2,0,P|480:212|480:224,1,75,8|0,0:0|0:0,0:0:0:0:
480,316,16937,6,0,L|360:284,1,112.5,0|0,0:0|0:0,0:0:0:0:
312,276,17583,2,0,P|252:300|184:300,1,112.5,8|0,0:0|0:0,0:0:0:0:
156,272,18228,2,0,P|128:208|172:132,1,150,0|8,0:0|0:0,0:0:0:0:
256,64,19195,1,0,0:0:0:0:
320,164,19518,2,0,P|360:172|436:148,1,112.5,0|0,0:0|0:0,0:0:0:0:
484,136,20163,2,0,L|468:240,1,75,8|0,0:0|0:0,0:0:0:0:
396,304,20808,6,0,P|321:282|232:300,1,150,0|8,0:0|0:0,0:0:0:0:
140,332,21776,1,0,0:0:0:0:
124,212,22099,6,0,P|136:156|124:68,1,112.5,0|0,0:0|0:0,0:0:0:0:
136,40,22744,2,0,L|236:32,1,75,8|0,0:0|0:0,0:0:0:0:
312,100,23389,2,0,L|432:104,1,112.5,0|0,0:0|0:0,0:0:0:0:
484,108,24034,2,0,P|468:152|464:208,1,75,8|0,0:0|0:0,0:0:0:0:
476,300,24679,6,0,P|432:276|336:276,1,112.5,0|0,0:0|0:0,0:0:0:0:
312,288,25325,2,0,P|260:304|204:304,1,75,8|0,0:0|0:0,0:0:0:0:
136,248,25970,6,0,L|136:96,1,150,0|8,0:0|0:0,0:0:0:0:
256,76,26937,1,0,0:0:0:0:
332,168,27260,2,0,P|372:184|472:192,1,112.5,0|0,0:0|0:0,0:0:0:0:
468,248,27905,2,0,L|444:356,1,75,8|0,0:0|0:0,0:0:0:0:
332,332,28550,2,0,B|288:344|256:336|256:336|220:348|160:328,1,150,0|8,0:0|0:0,0:0:0:0:
220,220,29518,1,0,0:0:0:0:
104,184,29841,6,0,P|132:136|192:100,1,112.5,0|0,0:0|0:0,0:0:0:0:
236,84,30486,2,0,P|276:92|328:92,1,75,8|0,0:0|0:0,0:0:0:0:
428,116,31131,2,0,B|404:192|452:192|416:288,1,150,0|8,0:0|0:0,0:0:0:0:
328,336,32099,1,0,0:0:0:0:
212,308,32421,2,0,P|188:288|104:260,1,112.5,0|0,0:0|0:0,0:0:0:0:
52,256,33066,2,0,P|28:204|28:168,1,75,8|0,0:0|0:0,0:0:0:0:
52,68,33712,6,0,L|204:84,1,150,0|8,0:0|0:0,0:0:0:0:
256,192,34679,1,0,0:0:0:0:
376,192,35002,2,0,P|396:264|376:312,1,112.5,0|0,0:0|0:0,0:0:0:0:
332,324,35647,2,0,L|244:324,1,75,8|0,0:0|0:0,0:0:0:0:
157,256,36292,6,0,P|135:185|159:115,1,150,0|8,0:0|0:0,0:0:0:0:
227,16,37260,1,0,0:0:0:0:
334,69,37583,2,0,P|421:45|440:42,1,75,0|0,0:0|0:0,0:0:0:0:
472,148,38228,2,0,P|496:235|499:254,1,75,8|0,0:0|0:0,0:0:0:0:
482,339,38873,1,0,0:0:0:0:
482,339,39518,6,0,L|401:347,1,75,8|0,0:0|0:0,0:0:0:0:
317,266,40163,2,0,L|391:258,1,75,0|0,0:0|0:0,0:0:0:0:
465,163,40808,2,0,L|384:171,2,75,8|0|0,0:0|0:0|0:0,0:0:0:0:
256,44,42099,6,0,P|196:32|112:72,1,150,8|0,0:0|0:0,0:0:0:0:
60,172,43066,2,0,L|36:248,2,75,0|8|0,0:0|0:0|0:0,0:0:0:0:
176,144,44034,6,0,L|220:272,1,112.5,0|0,0:0|0:0,0:0:0:0:
228,276,44679,2,0,B|260:296|260:296|304:292,1,75,8|0,0:0|0:0,0:0:0:0:
404,328,45325,2,0,B|424:296|424:296|420:258,1,75,0|0,0:0|0:0,0:0:0:0:
460,144,45970,2,0,B|428:124|428:124|390:127,2,75,8|0|0,0:0|0:0|0:0,0:0:0:0:
232,68,47260,6,0,L|140:84,1,75,8|0,0:0|0:0,0:0:0:0:
64,152,47905,1,0,0:0:0:0:
128,256,48228,2,0,L|201:268,2,75,0|8|0,0:0|0:0|0:0,0:0:0:0:
64,152,49195,1,0,0:0:0:0:
300,188,49841,5,8,0:0:0:0:
392,268,50163,2,0,P|420:216|420:184,1,75,0|0,0:0|0:0,0:0:0:0:
376,92,50808,2,0,P|383:55|405:25,2,75,0|8|0,0:0|0:0|0:0,0:0:0:0:
496,104,51776,1,0,0:0:0:0:
496,104,52421,6,0,P|488:196|468:256,1,150,8|0,0:0|0:0,0:0:0:0:
396,344,53389,1,0,0:0:0:0:
276,356,53712,2,0,L|192:344,1,75,8|0,0:0|0:0,0:0:0:0:
104,272,54357,6,0,P|68:212|48:136,1,150,0|8,0:0|0:0,0:0:0:0:
64,16,55325,1,0,0:0:0:0:
160,84,55647,2,0,P|223:73|292:12,1,150,0|0,0:0|0:0,0:0:0:0:
468,176,56937,6,0,L|480:268,1,75,0|0,0:0|0:0,0:0:0:0:
360,224,57583,2,0,L|328:304,1,75,8|0,0:0|0:0,0:0:0:0:
224,240,58228,2,0,L|60:260,1,150,0|8,0:0|0:0,0:0:0:0:
16,24,59518,6,0,P|60:56|112:48,1,75,0|0,0:0|0:0,0:0:0:0:
192,100,60163,2,0,L|292:84,1,75,8|0,0:0|0:0,0:0:0:0:
380,44,60808,2,0,P|424:96|412:180,1,150,0|8,0:0|0:0,0:0:0:0:
228,320,62099,6,0,L|300:368,2,75,0|0|8,0:0|0:0|0:0,0:0:0:0:
132,252,63066,1,0,0:0:0:0:
32,184,63389,2,0,B|12:252|12:252|32:328,1,150,0|8,0:0|0:0,0:0:0:0:
160,128,64679,6,0,L|208:56,1,75,0|0,0:0|0:0,0:0:0:0:
308,120,65325,2,0,L|376:88,1,75,8|0,0:0|0:0,0:0:0:0:
460,176,65970,2,0,B|500:224|500:224|464:256|480:312,1,150,0|8,0:0|0:0,0:0:0:0:
296,148,67260,6,0,P|224:176|148:192,1,150,4|2,3:3|0:0,0:0:0:0:
44,140,68228,1,0,0:0:0:0:
112,40,68550,2,0,L|200:48,1,75,0|0,0:0|0:0,0:0:0:0:
292,104,69195,2,0,L|456:80,1,150,2|0,0:0|0:0,0:0:0:0:
496,188,70163,5,0,0:0:0:0:
444,296,70486,2,0,L|368:280,1,75,2|0,0:0|0:0,0:0:0:0:
252,256,71131,2,0,P|200:280|100:304,1,150,0|0,0:0|0:0,0:0:0:0:
52,196,72099,1,0,0:0:0:0:
140,116,72421,6,0,P|196:92|256:160,1,150,4|2,3:3|0:0,0:0:0:0:
252,268,73389,1,0,0:0:0:0:
364,224,73712,2,0,P|380:148|388:64,1,150,0|2,0:0|0:0,0:0:0:0:
276,28,74679,1,0,0:0:0:0:
200,120,75002,6,0,L|120:124,2,75,0|0|2,0:0|0:0|0:0,0:0:0:0:
276,28,75970,1,0,0:0:0:0:
387,76,76292,2,0,P|368:124|360:164,1,75,0|0,0:0|0:0,0:0:0:0:
336,264,76937,2,0,L|248:260,1,75,2|0,0:0|0:0,0:0:0:0:
144,236,77583,6,0,P|120:184|152:80,1,150,4|8,3:3|0:0,0:0:0:0:
256,64,78550,1,0,0:0:0:0:
373,96,78873,2,0,P|432:112|472:112,2,75,0|0|8,0:0|0:0|0:0,0:0:0:0:
256,64,79841,1,0,0:0:0:0:
256,184,80163,6,0,B|228:256|276:256|248:336,1,150,0|8,0:0|0:0,0:0:0:0:
140,288,81131,1,0,0:0:0:0:
144,168,81454,2,0,P|164:128|168:84,1,75,0|0,0:0|0:0,0:0:0:0:
256,16,82099,2,0,L|344:32,1,75,8|0,0:0|0:0,0:0:0:0:
448,36,82744,6,0,P|432:92|444:204,1,150,0|8,0:0|0:0,0:0:0:0:
480,296,83712,1,0,0:0:0:0:
364,264,84034,2,0,P|284:252|260:256,1,75,0|0,0:0|0:0,0:0:0:0:
172,272,84679,2,0,P|136:292|80:292,1,75,8|0,0:0|0:0,0:0:0:0:
24,204,85325,6,0,P|12:148|68:68,1,150,0|8,0:0|0:0,0:0:0:0:
176,48,86292,1,0,0:0:0:0:
256,136,86615,2,0,L|348:124,1,75,0|0,0:0|0:0,0:0:0:0:
452,116,87260,2,0,P|432:188|432:204,1,75,8|0,0:0|0:0,0:0:0:0:
452,308,87905,6,0,L|292:296,1,150,0|8,0:0|0:0,0:0:0:0:
204,228,88873,1,0,0:0:0:0:
88,264,89195,2,0,P|76:312|72:356,2,75,0|0|8,0:0|0:0|0:0,0:0:0:0:
204,228,90163,1,0,0:0:0:0:
304,164,90486,6,0,P|380:144|424:64,1,150,0|8,0:0|0:0,0:0:0:0:
308,44,91454,1,0,0:0:0:0:
208,112,91776,2,0,P|200:160|212:212,1,75,0|0,0:0|0:0,0:0:0:0:
296,264,92421,2,0,P|298:301|291:337,1,75,8|0,0:0|0:0,0:0:0:0:
176,368,93066,6,0,L|24:372,1,150,0|8,0:0|0:0,0:0:0:0:
88,268,94034,1,0,0:0:0:0:
40,156,94357,2,0,P|36:96|44:68,1,75,0|0,0:0|0:0,0:0:0:0:
148,32,95002,2,0,L|252:24,1,75,8|0,0:0|0:0,0:0:0:0:
316,104,95647,6,0,L|464:136,1,150,0|8,0:0|0:0,0:0:0:0:
500,252,96615,1,0,0:0:0:0:
388,292,96937,2,0,P|316:316|292:320,1,75,0|0,0:0|0:0,0:0:0:0:
208,264,97583,2,0,P|160:248|120:232,1,75,8|0,0:0|0:0,0:0:0:0:
72,140,98228,6,0,P|136:128|204:60,1,150,0|8,0:0|0:0,0:0:0:0:
300,12,99195,1,0,0:0:0:0:
408,64,99518,2,0,P|456:68|488:84,1,75,0|0,0:0|0:0,0:0:0:0:
396,168,100163,2,0,P|348:144|332:124,1,75,8|0,0:0|0:0,0:0:0:0:
300,12,100809,1,0,0:0:0:0:
84,116,101454,6,0,L|76:190,1,75,8|0,0:0|0:0,0:0:0:0:
168,272,102099,2,0,L|176:198,1,75,0|0,0:0|0:0,0:0:0:0:
284,144,102744,2,0,L|276:218,2,75,8|0|0,0:0|0:0|0:0,0:0:0:0:
484,280,104035,6,0,P|418:313|345:302,1,150,8|0,0:0|0:0,0:0:0:0:
224,312,105002,2,0,L|200:388,2,75,0|8|0,0:0|0:0|0:0,0:0:0:0:
168,204,105970,6,0,L|124:76,1,112.5,0|0,0:0|0:0,0:0:0:0:
136,68,106615,2,0,B|168:48|168:48|212:52,1,75,8|0,0:0|0:0,0:0:0:0:
308,116,107261,2,0,B|340:136|340:136|378:132,1,75,0|0,0:0|0:0,0:0:0:0:
492,104,107906,2,0,B|472:188,2,75,8|0|0,0:0|0:0|0:0,0:0:0:0:
256,52,109196,6,0,L|164:68,1,75,8|0,0:0|0:0,0:0:0:0:
128,172,109841,1,0,0:0:0:0:
80,280,110164,2,0,L|7:292,2,75,0|8|0,0:0|0:0|0:0,0:0:0:0:
168,364,111131,1,0,0:0:0:0:
336,192,111777,5,8,0:0:0:0:
424,272,112099,2,0,P|452:220|452:188,1,75,0|0,0:0|0:0,0:0:0:0:
336,192,112744,2,0,P|308:244|308:276,2,75,0|8|0,0:0|0:0|0:0,0:0:0:0:
408,96,113712,1,0,0:0:0:0:
200,216,114357,6,0,P|108:208|48:188,1,150,8|0,0:0|0:0,0:0:0:0:
8,80,115325,1,0,0:0:0:0:
116,28,115648,2,0,L|190:38,1,75,8|0,0:0|0:0,0:0:0:0:
280,120,116293,6,0,P|316:180|336:256,1,150,0|8,0:0|0:0,0:0:0:0:
256,348,117261,1,0,0:0:0:0:
168,268,117583,2,0,P|105:279|36:340,1,150,0|0,0:0|0:0,0:0:0:0:
280,308,118873,6,0,L|292:216,1,75,0|0,0:0|0:0,0:0:0:0:
408,224,119519,2,0,L|440:144,1,75,8|0,0:0|0:0,0:0:0:0:
384,48,120164,2,0,L|220:68,1,150,0|8,0:0|0:0,0:0:0:0:
96,260,121454,6,0,P|59:268|32:293,1,75,0|0,0:0|0:0,0:0:0:0:
124,372,122099,2,0,L|224:356,1,75,8|0,0:0|0:0,0:0:0:0:
280,276,122744,2,0,P|337:231|345:158,1,150,0|8,0:0|0:0,0:0:0:0:
132,48,124035,6,0,L|60:96,2,75,4|0|8,3:3|0:0|0:0,0:0:0:0:
240,100,125002,1,0,0:0:0:0:
346,159,125325,2,0,B|366:227|366:227|346:303,1,150,0|8,0:0|0:0,0:0:0:0:
112,348,126615,6,0,P|80:320|68:280,1,75,0|0,0:0|0:0,0:0:0:0:
112,176,127261,2,0,L|180:144,1,75,8|0,0:0|0:0,0:0:0:0:
300,156,127905,2,0,L|440:76,1,150,0|8,0:0|0:0,0:0:0:0:
348,308,129195,6,0,B|292:320|268:256|268:256|240:288|208:288,1,150,4|2,3:3|0:0,0:0:0:0:
180,176,130163,1,0,0:0:0:0:
252,80,130486,2,0,L|428:84,1,150,0|2,0:0|0:0,0:0:0:0:
456,188,131454,1,0,0:0:0:0:
356,252,131776,2,0,B|280:228|276:264|192:240,1,150,0|2,0:0|0:0,0:0:0:0:
152,140,132744,1,0,0:0:0:0:
52,208,133066,2,0,L|64:300,2,75,0|0|2,0:0|0:0|0:0,0:0:0:0:
252,76,134357,6,0,B|300:88|348:64|348:64|332:96|340:128,1,150,4|2,3:3|0:0,0:0:0:0:
424,200,135325,1,0,0:0:0:0:
352,296,135647,2,0,P|236:272|180:288,1,150,0|2,0:0|0:0,0:0:0:0:
104,336,136615,1,0,0:0:0:0:
84,216,136937,2,0,P|144:184|176:112,1,150,0|2,0:0|0:0,0:0:0:0:
244,12,137905,1,0,0:0:0:0:
344,80,138228,2,0,B|416:64|416:64|520:76,1,150,0|2,0:0|0:0,0:0:0:0:
404,296,139518,1,0,0:0:0:0:
68,160,144679,6,0,P|132:140|224:148,1,150,0|8,0:0|0:0,0:0:0:0:
324,196,145647,1,0,0:0:0:0:
384,92,145970,2,0,P|401:62|408:8,2,75,0|0|8,0:0|0:0|0:0,0:0:0:0:
288,20,146937,1,0,0:0:0:0:
192,92,147260,6,0,P|188:168|140:232,1,150,0|8,0:0|0:0,0:0:0:0:
28,236,148228,1,0,0:0:0:0:
56,120,148550,2,0,P|40:91|44:36,2,75,0|0|8,0:0|0:0|0:0,0:0:0:0:
160,60,149518,1,0,0:0:0:0:
236,152,149841,6,0,B|284:160|312:144|312:144|340:160|400:152,1,150,0|8,0:0|0:0,0:0:0:0:
472,76,150808,1,0,0:0:0:0:
372,12,151131,2,0,P|292:12|208:32,1,150,0|8,0:0|0:0,0:0:0:0:
72,212,152421,6,0,L|84:308,1,75,0|0,0:0|0:0,0:0:0:0:
188,344,153066,2,0,P|252:348|292:336,1,75,8|0,0:0|0:0,0:0:0:0:
364,280,153712,2,0,P|376:224|452:160,1,150,0|8,0:0|0:0,0:0:0:0:
240,36,155002,6,0,P|200:76|184:88,1,75,0|0,0:0|0:0,0:0:0:0:
84,152,155647,2,0,P|100:216|112:244,1,75,8|0,0:0|0:0,0:0:0:0:
224,228,156292,2,0,P|288:204|344:256,1,150,0|8,0:0|0:0,0:0:0:0:
424,344,157260,1,0,0:0:0:0:
456,228,157583,2,0,P|412:140|360:88,1,150,0|8,0:0|0:0,0:0:0:0:
256,96,158550,1,0,0:0:0:0:
134,102,158873,2,0,P|86:159|56:228,1,150,0|8,0:0|0:0,0:0:0:0:
256,360,160163,6,0,L|256:204,1,150,4|0,3:0|0:0,0:0:0:0:
304,100,161130,1,0,0:0:0:0:
420,68,161453,2,0,P|468:72|500:88,1,75,0|0,0:0|0:0,0:0:0:0:
462,200,162099,2,0,P|424:198|389:185,1,75,0|0,0:0|0:0,0:0:0:0:
304,100,162744,1,4,3:0:0:0:
68,51,163389,6,0,L|60:125,1,75,0|0,0:0|0:0,0:0:0:0:
179,116,164034,2,0,L|171:190,1,75,0|0,0:0|0:0,0:0:0:0:
72,258,164679,2,0,L|64:332,2,75,0|0|4,0:0|0:0|3:0,0:0:0:0:
276,132,165970,6,0,P|349:120|415:153,1,150,0|0,0:0|0:0,0:0:0:0:
469,260,166937,2,0,L|493:336,2,75,0|0|0,0:0|0:0|0:0,0:0:0:0:
356,218,167905,6,0,L|237:224,1,112.5,4|0,3:0|0:0,0:0:0:0:
197,262,168550,2,0,B|200:224|200:224|180:192,1,75,0|0,0:0|0:0,0:0:0:0:
63,219,169195,2,0,B|43:187|43:187|46:149,1,75,0|0,0:0|0:0,0:0:0:0:
138,72,169841,2,0,B|210:89,2,75,0|0|4,0:0|0:0|3:0,0:0:0:0:
377,52,171131,6,0,L|450:39,1,75,0|0,0:0|0:0,0:0:0:0:
510,143,171776,1,0,0:0:0:0:
485,260,172099,2,0,L|412:272,2,75,0|0|0,0:0|0:0|0:0,0:0:0:0:
510,143,173066,1,4,3:0:0:0:
274,192,173712,5,0,0:0:0:0:
155,206,174034,2,0,P|162:242|184:272,1,75,0|0,0:0|0:0,0:0:0:0:
303,258,174679,2,0,P|295:221|273:191,2,75,0|0|0,0:0|0:0|0:0,0:0:0:0:
254,368,175647,1,4,3:0:0:0:
62,222,176292,6,0,P|70:130|90:70,1,150,0|0,0:0|0:0,0:0:0:0:
193,18,177260,1,0,0:0:0:0:
300,70,177583,2,0,L|374:80,1,75,0|0,0:0|0:0,0:0:0:0:
455,168,178228,6,0,P|491:228|511:304,1,150,4|0,3:0|0:0,0:0:0:0:
410,371,179196,1,0,0:0:0:0:
297,328,179518,2,0,P|234:317|165:256,1,150,0|0,0:0|0:0,0:0:0:0:
92,35,180808,6,0,L|184:47,1,75,4|0,3:0|0:0,0:0:0:0:
251,129,181454,2,0,L|343:141,1,75,8|0,0:0|0:0,0:0:0:0:
401,231,182099,2,0,L|237:251,1,150,0|8,0:0|0:0,0:0:0:0:
44,369,183389,6,0,P|19:341|11:305,1,75,0|0,0:0|0:0,0:0:0:0:
84,210,184034,2,0,L|184:194,1,75,8|0,0:0|0:0,0:0:0:0:
266,146,184679,2,0,P|323:101|331:28,1,150,0|8,0:0|0:0,0:0:0:0:
91,44,185970,6,0,L|19:92,2,75,4|0|8,3:3|0:0|0:0,0:0:0:0:
210,41,186937,1,0,0:0:0:0:
266,146,187260,2,0,B|324:215|294:288,1,150,0|8,0:0|0:0,0:0:0:0:
60,333,188550,6,0,L|33:264,1,75,0|0,0:0|0:0,0:0:0:0:
82,153,189196,2,0,P|108:131|148:127,1,75,8|0,0:0|0:0,0:0:0:0:
266,146,189840,2,0,L|406:66,1,150,0|8,0:0|0:0,0:0:0:0:
436,308,191131,6,0,P|364:336|288:352,1,150,4|2,3:3|0:0,0:0:0:0:
204,272,192099,1,0,0:0:0:0:
160,160,192421,2,0,L|248:168,1,75,0|0,0:0|0:0,0:0:0:0:
320,84,193066,2,0,L|484:60,1,150,2|0,0:0|0:0,0:0:0:0:
492,180,194034,5,0,0:0:0:0:
448,292,194357,2,0,L|372:276,1,75,2|0,0:0|0:0,0:0:0:0:
256,260,195002,2,0,P|204:284|104:308,1,150,0|2,0:0|0:0,0:0:0:0:
52,204,195970,1,0,0:0:0:0:
136,120,196292,6,0,P|192:96|252:164,1,150,4|2,3:3|0:0,0:0:0:0:
256,272,197260,1,0,0:0:0:0:
368,224,197583,2,0,P|384:148|392:64,1,150,0|2,0:0|0:0,0:0:0:0:
280,28,198550,1,0,0:0:0:0:
204,120,198873,6,0,L|124:124,2,75,4|0|2,3:0|0:0|0:0,0:0:0:0:
280,28,199841,1,0,0:0:0:0:
391,76,200163,2,0,P|372:124|364:164,1,75,0|0,0:0|0:0,0:0:0:0:
340,264,200808,2,0,L|252:260,1,75,8|0,0:0|0:0,0:0:0:0:
148,228,201454,6,0,B|140:172|140:172|156:136|156:136|132:40,1,150,4|2,3:3|0:0,0:0:0:0:
28,52,202421,1,0,0:0:0:0:
24,172,202744,2,0,L|52:308,1,75,0|0,0:0|0:0,0:0:0:0:
132,320,203389,2,0,P|208:300|240:272,1,75,2|0,0:0|0:0,0:0:0:0:
292,220,204034,6,0,P|352:152|464:156,1,150,0|2,0:0|0:0,0:0:0:0:
508,208,205002,1,0,0:0:0:0:
392,240,205325,2,0,L|276:64,1,150,0|2,0:0|0:0,0:0:0:0:
236,20,206292,1,0,0:0:0:0:
132,80,206615,6,0,P|93:84|40:64,2,75,4|0|2,3:3|0:0|0:0,0:0:0:0:
236,20,207583,1,0,0:0:0:0:
308,116,207905,2,0,B|276:208|276:208|292:272,1,150,0|2,0:0|0:0,0:0:0:0:
376,344,208873,1,0,0:0:0:0:
428,236,209195,2,0,P|456:168|436:80,1,150,4|2,3:0|0:0,0:0:0:0:
336,44,210163,1,0,0:0:0:0:
228,92,210486,2,0,L|40:140,1,150,0|2,0:0|0:0,0:0:0:0:
276,272,211776,6,0,L|464:320,1,150,4|2,3:3|0:0,0:0:0:0:
512,228,212744,1,0,0:0:0:0:
444,128,213066,2,0,L|452:40,1,75,0|0,0:0|0:0,0:0:0:0:
336,88,213712,2,0,L|329:162,1,75,2|0,0:0|0:0,0:0:0:0:
260,260,214357,6,0,P|188:300|116:280,1,150,0|2,0:0|0:0,0:0:0:0:
44,200,215325,1,0,0:0:0:0:
60,80,215647,2,0,P|88:48|120:40,1,75,0|0,0:0|0:0,0:0:0:0:
240,36,216292,2,0,P|281:47|302:72,1,75,2|0,0:0|0:0,0:0:0:0:
364,172,216937,6,0,L|372:328,1,150,4|2,3:3|0:0,0:0:0:0:
272,252,217905,1,0,0:0:0:0:
260,372,218228,2,0,L|108:352,1,150,0|2,0:0|0:0,0:0:0:0:
48,120,219518,6,0,B|119:110|119:110|168:48,1,150,4|2,3:0|0:0,0:0:0:0:
280,12,220486,1,0,0:0:0:0:
364,96,220808,2,0,P|392:184|380:208,1,75,0|0,0:0|0:0,0:0:0:0:
280,196,221454,2,0,P|252:108|264:84,1,75,2|0,0:0|0:0,0:0:0:0:
280,12,222099,5,0,0:0:0:0:
