osu file format v14

[General]
AudioFilename: audio.mp3
AudioLeadIn: 0
PreviewTime: 189841
Countdown: 0
SampleSet: Soft
StackLeniency: 0.7
Mode: 0
LetterboxInBreaks: 0
WidescreenStoryboard: 1

[Editor]
Bookmarks: 36292,67260,98228,129195,160163,175647,191131,211776
DistanceSpacing: 1.6
BeatDivisor: 4
GridSize: 4
TimelineZoom: 1

[Metadata]
Title:Starboy (feat. Daft Punk)
TitleUnicode:Starboy (feat. Daft Punk)
Artist:The Weeknd
ArtistUnicode:The Weeknd
Creator:Cloudchaser
Version:Hard
Source:
Tags:Abel Tesfaye R&B
BeatmapID:1186268
BeatmapSetID:560982

[Difficulty]
HPDrainRate:5
CircleSize:4
OverallDifficulty:6
ApproachRate:8
SliderMultiplier:1.8
SliderTickRate:1

[Events]
//Background and Video events
0,0,"Starboyh.jpg",0,0
//Break Periods
2,139718,143929
//Storyboard Layer 0 (Background)
//Storyboard Layer 1 (Fail)
//Storyboard Layer 2 (Pass)
//Storyboard Layer 3 (Foreground)
//Storyboard Sound Samples

[TimingPoints]
5325,645.161290322581,4,2,1,70,1,0
67260,-100,4,2,1,70,0,1
77583,-100,4,2,1,70,0,0
129195,-100,4,2,1,70,0,1
139518,-100,4,2,1,70,0,0
179195,-100,4,2,1,20,0,0
180486,-100,4,2,1,70,0,0
191131,-100,4,2,1,70,0,1
200808,-100,4,2,1,70,0,0
201454,-100,4,2,1,70,0,1
211131,-100,4,2,1,70,0,0
211776,-100,4,2,1,70,0,1
222099,-100,4,2,1,70,0,0
225970,-100,4,2,1,5,0,0

[Colours]
Combo1 : 157,60,255
Combo2 : 32,104,223
Combo3 : 238,221,17
Combo4 : 255,128,0

[HitObjects]
100,284,5325,6,0,P|156:276|204:276,1,90,0|0,0:0|0:0,0:0:0:0:
256,296,5808,1,0,0:0:0:0:
304,244,5970,2,0,L|312:168,1,45,8|0,0:0|0:0,0:0:0:0:
368,160,6292,2,0,L|376:84,1,45
332,56,6615,1,0,0:0:0:0:
188,40,6937,1,0,0:0:0:0:
124,76,7099,1,0,0:0:0:0:
92,140,7260,2,0,P|100:180|100:216,1,45,8|0,0:0|0:0,0:0:0:0:
216,272,7583,2,0,P|208:312|208:348,1,45,0|0,0:0|0:0,0:0:0:0:
280,308,7905,6,0,P|352:320|392:304,1,90,0|0,0:0|0:0,0:0:0:0:
388,188,8550,2,0,P|360:144|360:116,1,45,8|0,0:0|0:0,0:0:0:0:
457,96,8873,2,0,P|447:116|432:132,1,45,0|0,0:0|0:0,0:0:0:0:
288,108,9195,2,0,P|224:92|172:96,1,90,0|0,0:0|0:0,0:0:0:0:
164,156,9679,1,0,0:0:0:0:
164,156,9841,2,0,L|96:164,1,45,8|0,0:0|0:0,0:0:0:0:
124,232,10163,2,0,L|56:240,1,45,0|0,0:0|0:0,0:0:0:0:
172,348,10486,6,0,P|232:312|280:300,1,90,0|0,0:0|0:0,0:0:0:0:
364,244,11131,2,0,P|376:184|368:168,1,45,8|0,0:0|0:0,0:0:0:0:
448,188,11454,2,0,P|420:144|404:132,1,45,0|0,0:0|0:0,0:0:0:0:
356,128,11776,2,0,L|232:132,1,90,0|0,0:0|0:0,0:0:0:0:
132,188,12421,2,0,P|156:236|160:292,1,90,8|0,0:0|0:0,0:0:0:0:
140,340,12905,1,0,0:0:0:0:
212,324,13066,6,0,P|272:312|336:312,1,90,0|0,0:0|0:0,0:0:0:0:
440,344,13712,2,0,L|428:280,1,45,8|0,0:0|0:0,0:0:0:0:
472,240,14034,2,0,L|460:176,1,45,0|0,0:0|0:0,0:0:0:0:
428,132,14357,2,0,P|376:104|328:104,1,90,0|0,0:0|0:0,0:0:0:0:
272,100,14841,1,0,0:0:0:0:
212,140,15002,2,0,P|140:156|96:160,1,90,8|0,0:0|0:0,0:0:0:0:
36,272,15647,6,0,P|88:280|136:320,1,90,0|0,0:0|0:0,0:0:0:0:
156,360,16131,1,0,0:0:0:0:
204,308,16292,2,0,L|216:240,1,45,8|0,0:0|0:0,0:0:0:0:
264,212,16615,2,0,P|288:200|344:192,1,45,0|0,0:0|0:0,0:0:0:0:
376,208,16937,2,0,P|436:192|456:144,1,90
452,100,17421,1,0,0:0:0:0:
392,60,17583,2,0,L|260:80,1,90,8|0,0:0|0:0,0:0:0:0:
84,180,18228,6,0,P|168:192|192:216,1,90,0|0,0:0|0:0,0:0:0:0:
192,264,18712,1,0,0:0:0:0:
256,296,18873,2,0,P|340:284|364:260,1,90,8|0,0:0|0:0,0:0:0:0:
388,148,19518,2,0,P|404:104|420:88,2,45,0|0|0,0:0|0:0|0:0,0:0:0:0:
424,208,20002,1,0,0:0:0:0:
320,188,20163,2,0,P|248:204|208:208,1,90,8|0,0:0|0:0,0:0:0:0:
100,148,20808,6,0,P|124:184|128:264,1,90,0|0,0:0|0:0,0:0:0:0:
44,344,21454,1,8,0:0:0:0:
44,344,21615,1,0,0:0:0:0:
112,320,21776,2,0,P|188:312|196:312,1,45,0|0,0:0|0:0,0:0:0:0:
252,204,22099,2,0,P|344:212|376:204,1,90,0|0,0:0|0:0,0:0:0:0:
408,188,22583,1,0,0:0:0:0:
440,124,22744,2,0,P|448:32|440:0,1,90,8|0,0:0|0:0,0:0:0:0:
304,36,23389,6,0,B|232:16|232:48|160:28,1,135,0|0,0:0|0:0,0:0:0:0:
100,28,24034,2,0,P|84:88|76:108,1,45,8|0,0:0|0:0,0:0:0:0:
136,128,24357,2,0,P|160:188|156:248,1,90,0|0,0:0|0:0,0:0:0:0:
156,284,24841,1,0,0:0:0:0:
228,284,25002,2,0,L|308:260,1,45
332,228,25325,2,0,L|340:128,1,90,8|0,0:0|0:0,0:0:0:0:
488,196,25970,6,0,L|495:285,1,90,0|0,0:0|0:0,0:0:0:0:
364,340,26615,1,8,0:0:0:0:
296,312,26776,1,0,0:0:0:0:
224,324,26937,2,0,P|168:336|144:340,1,45,0|0,0:0|0:0,0:0:0:0:
116,304,27260,2,0,P|96:240|112:184,1,90,0|0,0:0|0:0,0:0:0:0:
136,80,27905,2,0,P|112:40|104:32,2,45,8|0|0,0:0|0:0|0:0,0:0:0:0:
200,116,28389,1,0,0:0:0:0:
272,100,28550,6,0,L|368:92,1,90,0|0,0:0|0:0,0:0:0:0:
460,196,29195,2,0,P|436:252|432:272,1,45,8|0,0:0|0:0,0:0:0:0:
408,300,29518,2,0,L|280:288,1,90,0|0,0:0|0:0,0:0:0:0:
256,252,30002,1,0,0:0:0:0:
196,292,30163,2,0,P|152:328|136:336,1,45,0|0,0:0|0:0,0:0:0:0:
92,304,30486,2,0,P|84:224|88:180,1,90,8|0,0:0|0:0,0:0:0:0:
248,162,31131,6,0,P|256:242|252:286,1,90,0|0,0:0|0:0,0:0:0:0:
156,148,31776,2,0,P|148:68|152:24,1,90,8|0,0:0|0:0,0:0:0:0:
216,32,32260,1,0,0:0:0:0:
284,60,32421,2,0,P|336:72|360:68,1,45,0|0,0:0|0:0,0:0:0:0:
396,56,32744,1,0,0:0:0:0:
440,192,33066,1,8,0:0:0:0:
396,56,33389,1,0,0:0:0:0:
280,140,33712,6,0,P|272:188|236:248,1,90,0|0,0:0|0:0,0:0:0:0:
116,268,34357,2,0,P|92:259|56:260,2,45,8|0|0,0:0|0:0|0:0,0:0:0:0:
184,292,34841,1,0,0:0:0:0:
256,280,35002,2,0,P|304:244|336:236,1,90,0|0,0:0|0:0,0:0:0:0:
404,244,35486,1,0,0:0:0:0:
456,192,35647,2,0,L|440:68,1,90,8|0,0:0|0:0,0:0:0:0:
312,44,36292,6,0,P|248:88|216:104,1,90,0|0,0:0|0:0,0:0:0:0:
132,192,36937,2,0,P|99:195|60:184,2,45,8|0|0,0:0|0:0|0:0,0:0:0:0:
200,168,37421,1,0,0:0:0:0:
256,216,37583,2,0,L|244:288,1,45,0|0,0:0|0:0,0:0:0:0:
320,268,37905,2,0,L|327:223,1,45,0|0,0:0|0:0,0:0:0:0:
372,164,38228,2,0,P|416:132|468:112,1,90,8|0,0:0|0:0,0:0:0:0:
512,80,38712,1,0,0:0:0:0:
512,80,38873,6,0,L|312:92,1,180,0|8,0:0|0:0,0:0:0:0:
264,112,39679,1,0,0:0:0:0:
200,80,39841,2,0,P|180:56|180:20,1,45,0|0,0:0|0:0,0:0:0:0:
104,44,40163,2,0,P|96:65|80:80,1,45,0|0,0:0|0:0,0:0:0:0:
16,116,40486,2,0,L|40:192,1,45
84,204,40808,2,0,P|88:256|76:328,1,90,8|0,0:0|0:0,0:0:0:0:
52,360,41292,1,0,0:0:0:0:
204,300,41454,6,0,P|292:280|356:284,1,135,0|0,0:0|0:0,0:0:0:0:
408,276,42099,2,0,L|412:216,1,45,8|0,0:0|0:0,0:0:0:0:
472,192,42421,2,0,L|476:132,1,45,0|0,0:0|0:0,0:0:0:0:
436,88,42744,2,0,P|384:96|296:64,1,135,0|0,0:0|0:0,0:0:0:0:
256,20,43389,1,8,0:0:0:0:
256,20,43550,1,0,0:0:0:0:
196,56,43712,2,0,P|176:72|124:88,1,45,0|0,0:0|0:0,0:0:0:0:
44,164,44034,6,0,P|128:176|172:192,1,90,0|0,0:0|0:0,0:0:0:0:
184,228,44518,1,0,0:0:0:0:
184,228,44679,2,0,L|188:296,1,45,8|0,0:0|0:0,0:0:0:0:
260,268,45002,2,0,L|262:223,1,45,0|0,0:0|0:0,0:0:0:0:
328,96,45325,2,0,P|368:60|424:44,1,90,0|0,0:0|0:0,0:0:0:0:
472,60,45808,1,0,0:0:0:0:
500,128,45970,2,0,L|496:196,1,45,8|0,0:0|0:0,0:0:0:0:
428,192,46292,2,0,L|432:260,1,45,0|0,0:0|0:0,0:0:0:0:
296,288,46615,6,0,P|232:280|188:280,1,90,0|0,0:0|0:0,0:0:0:0:
140,304,47099,1,0,0:0:0:0:
96,248,47260,2,0,P|88:176|104:136,1,90,8|0,0:0|0:0,0:0:0:0:
144,108,47744,1,0,0:0:0:0:
216,112,47905,2,0,L|296:108,1,45,0|0,0:0|0:0,0:0:0:0:
316,64,48228,2,0,L|360:61,1,45,0|0,0:0|0:0,0:0:0:0:
432,76,48550,2,0,P|448:128|448:148,1,45,8|0,0:0|0:0,0:0:0:0:
396,168,48873,2,0,P|380:220|380:240,1,45,0|0,0:0|0:0,0:0:0:0:
436,260,49195,6,0,B|416:308|448:308|416:380,1,90,0|0,0:0|0:0,0:0:0:0:
216,308,49841,2,0,L|136:320,1,45,8|0,0:0|0:0,0:0:0:0:
104,296,50163,1,0,0:0:0:0:
104,296,50325,1,0,0:0:0:0:
64,236,50486,2,0,P|40:176|68:120,1,90,0|0,0:0|0:0,0:0:0:0:
104,112,50970,1,0,0:0:0:0:
120,180,51131,2,0,L|208:176,1,45,8|0,0:0|0:0,0:0:0:0:
212,124,51454,1,0,0:0:0:0:
336,196,51776,6,0,L|344:320,1,90,0|0,0:0|0:0,0:0:0:0:
396,332,52260,1,0,0:0:0:0:
412,264,52421,2,0,L|406:174,1,90,8|0,0:0|0:0,0:0:0:0:
440,112,52905,1,0,0:0:0:0:
440,112,53066,2,0,P|408:72|392:24,1,90,0|0,0:0|0:0,0:0:0:0:
324,28,53550,1,0,0:0:0:0:
268,72,53712,2,0,L|180:80,1,45,8|0,0:0|0:0,0:0:0:0:
156,104,54034,1,0,0:0:0:0:
88,232,54357,6,0,P|160:264|196:288,1,90,0|0,0:0|0:0,0:0:0:0:
208,332,54841,1,0,0:0:0:0:
208,332,55002,1,8,0:0:0:0:
372,192,55325,2,0,L|364:140,1,45,0|0,0:0|0:0,0:0:0:0:
432,124,55647,2,0,L|376:44,1,90,0|0,0:0|0:0,0:0:0:0:
308,40,56131,1,0,0:0:0:0:
236,48,56292,2,0,P|203:49|164:40,2,45,0|0|8,0:0|0:0|0:0,0:0:0:0:
256,252,56937,6,0,P|200:280|144:288,1,90,0|0,0:0|0:0,0:0:0:0:
64,192,57583,1,8,0:0:0:0:
152,80,57905,1,0,0:0:0:0:
152,80,58228,1,0,0:0:0:0:
252,184,58550,2,0,P|288:196|328:196,1,45,0|0,0:0|0:0,0:0:0:0:
360,324,59034,2,0,P|408:296|416:284,1,45,0|0,0:0|0:0,0:0:0:0:
432,240,59357,1,0,0:0:0:0:
432,240,59518,5,0,0:0:0:0:
312,60,59841,2,0,P|240:80|192:84,1,90,0|8,0:0|0:0,0:0:0:0:
84,120,60486,2,0,L|144:148,1,45,0|0,0:0|0:0,0:0:0:0:
124,212,60808,2,0,L|252:200,1,90,0|0,0:0|0:0,0:0:0:0:
360,204,61454,2,0,P|372:248|368:272,1,45,8|0,0:0|0:0,0:0:0:0:
332,308,61776,1,0,0:0:0:0:
196,256,61937,1,0,0:0:0:0:
196,256,62099,6,0,P|108:228|80:224,1,90,0|0,0:0|0:0,0:0:0:0:
36,352,62744,1,8,0:0:0:0:
112,228,63066,2,0,P|124:196|120:160,1,45,0|0,0:0|0:0,0:0:0:0:
196,188,63389,2,0,P|180:128|152:84,1,90,0|0,0:0|0:0,0:0:0:0:
184,32,63873,1,0,0:0:0:0:
184,32,64034,1,8,0:0:0:0:
260,56,64195,2,0,P|312:72|344:64,1,45,0|0,0:0|0:0,0:0:0:0:
372,68,64518,1,0,0:0:0:0:
448,192,64679,6,0,P|424:248|420:316,1,90,0|0,0:0|0:0,0:0:0:0:
288,332,65325,2,0,L|280:264,1,45,8|0,0:0|0:0,0:0:0:0:
216,260,65647,2,0,L|208:192,1,45,0|0,0:0|0:0,0:0:0:0:
168,156,65970,2,0,P|116:140|72:144,1,90,0|0,0:0|0:0,0:0:0:0:
44,204,66454,1,0,0:0:0:0:
44,204,66615,2,0,L|64:316,1,90,8|0,0:0|0:0,0:0:0:0:
192,348,67099,1,0,0:0:0:0:
192,348,67260,6,0,P|260:312|308:304,1,90,4|0,3:3|0:0,0:0:0:0:
356,192,67905,2,0,P|360:144|348:96,1,90,2|0,0:0|0:0,0:0:0:0:
212,72,68550,1,0,0:0:0:0:
132,192,68873,1,0,0:0:0:0:
132,192,69034,1,0,0:0:0:0:
132,192,69195,2,0,P|112:132|116:108,1,45,2|0,0:0|0:0,0:0:0:0:
184,136,69518,2,0,P|192:88|212:68,1,45,0|0,0:0|0:0,0:0:0:0:
324,140,69841,6,0,P|328:196|316:256,1,90,0|0,0:0|0:0,0:0:0:0:
204,308,70486,2,0,L|120:300,1,45,2|0,0:0|0:0,0:0:0:0:
144,232,70808,2,0,L|248:244,1,90,0|0,0:0|0:0,0:0:0:0:
352,340,71454,1,0,0:0:0:0:
352,196,71776,2,0,P|344:148|348:120,1,45,0|0,1:0|0:0,0:0:0:0:
388,96,72099,1,0,0:0:0:0:
420,160,72260,1,0,0:0:0:0:
352,196,72421,6,0,L|252:192,1,90,4|0,3:3|0:0,0:0:0:0:
148,276,73066,1,2,0:0:0:0:
84,148,73389,2,0,P|56:100|56:68,1,45,0|0,0:0|0:0,0:0:0:0:
68,40,73712,2,0,P|112:16|176:24,1,90,0|0,0:0|0:0,0:0:0:0:
208,60,74195,1,0,0:0:0:0:
208,60,74357,2,0,P|252:84|316:76,1,90,2|0,0:0|0:0,0:0:0:0:
432,56,75002,5,0,0:0:0:0:
392,196,75325,2,0,L|376:272,1,45,0|0,0:0|0:0,0:0:0:0:
428,296,75647,2,0,L|400:336,1,45,2|0,0:0|0:0,0:0:0:0:
332,348,75970,2,0,P|248:336|204:336,1,90,0|0,0:0|0:0,0:0:0:0:
104,344,76615,1,0,0:0:0:0:
104,344,76776,1,0,0:0:0:0:
64,284,76937,2,0,B|79:242|55:242|67:194,1,90,2|0,0:0|0:0,0:0:0:0:
80,124,77421,1,0,0:0:0:0:
128,68,77583,6,0,P|196:48|240:60,1,90,4|0,3:3|0:0,0:0:0:0:
200,192,78228,2,0,L|212:252,1,45,8|0,0:0|0:0,0:0:0:0:
280,240,78550,2,0,L|260:320,1,45
308,344,78873,2,0,P|356:348|380:340,1,45,0|0,0:0|0:0,0:0:0:0:
424,364,79195,2,0,P|461:334|473:311,1,45,0|0,0:0|0:0,0:0:0:0:
476,268,79518,2,0,L|464:168,1,90,8|0,0:0|0:0,0:0:0:0:
328,128,80163,6,0,L|317:217,1,90,0|0,0:0|0:0,0:0:0:0:
256,260,80647,1,0,0:0:0:0:
184,244,80808,2,0,P|132:232|104:232,1,45,8|0,0:0|0:0,0:0:0:0:
72,256,81131,2,0,P|50:262|28:267,1,45,0|0,0:0|0:0,0:0:0:0:
100,144,81454,2,0,P|176:120|220:116,1,90,0|0,0:0|0:0,0:0:0:0:
256,148,81937,1,0,0:0:0:0:
320,116,82099,2,0,L|400:120,1,45,8|0,0:0|0:0,0:0:0:0:
408,176,82421,2,0,L|452:173,1,45,0|0,0:0|0:0,0:0:0:0:
360,284,82744,6,0,L|248:272,1,90,0|0,0:0|0:0,0:0:0:0:
128,288,83389,2,0,P|112:232|116:208,1,45,8|0,0:0|0:0,0:0:0:0:
164,196,83712,2,0,P|176:140|184:128,1,45,0|0,0:0|0:0,0:0:0:0:
168,80,84034,2,0,P|120:48|56:56,1,90,0|0,0:0|0:0,0:0:0:0:
36,96,84518,1,0,0:0:0:0:
22,249,84679,2,0,L|122:245,1,90,8|0,0:0|0:0,0:0:0:0:
212,352,85325,6,0,L|301:355,1,90,0|0,0:0|0:0,0:0:0:0:
364,316,85808,1,0,0:0:0:0:
352,244,85970,2,0,P|336:200|336:164,2,45,8|0|0,0:0|0:0|0:0,0:0:0:0:
420,264,86454,1,0,0:0:0:0:
384,124,86615,2,0,P|308:112|268:128,1,90,0|0,0:0|0:0,0:0:0:0:
244,164,87099,1,0,0:0:0:0:
176,148,87260,2,0,P|112:92|104:88,1,90,8|0,0:0|0:0,0:0:0:0:
52,224,87905,6,0,P|116:280|124:284,1,90,0|0,0:0|0:0,0:0:0:0:
192,296,88389,1,0,0:0:0:0:
192,296,88550,2,0,L|232:372,1,45,8|0,0:0|0:0,0:0:0:0:
299,335,88873,2,0,L|320:296,1,45,0|0,0:0|0:0,0:0:0:0:
380,260,89195,2,0,P|372:200|392:144,1,90,0|0,0:0|0:0,0:0:0:0:
416,108,89679,1,0,0:0:0:0:
360,64,89841,2,0,L|248:68,1,90,8|0,0:0|0:0,0:0:0:0:
160,160,90486,6,0,L|272:164,1,90,0|0,0:0|0:0,0:0:0:0:
304,208,90970,1,0,0:0:0:0:
276,272,91131,2,0,P|228:312|208:316,1,45,8|0,0:0|0:0,0:0:0:0:
176,292,91454,2,0,P|124:316|96:328,1,45,0|0,0:0|0:0,0:0:0:0:
74,176,91776,2,0,P|138:156|178:168,1,90,0|0,0:0|0:0,0:0:0:0:
224,188,92260,1,0,0:0:0:0:
272,136,92421,2,0,L|292:40,1,90,8|0,0:0|0:0,0:0:0:0:
432,64,93066,6,0,L|450:152,1,90,0|0,0:0|0:0,0:0:0:0:
444,224,93550,1,0,0:0:0:0:
396,280,93712,2,0,P|360:268|324:272,1,45,8|0,0:0|0:0,0:0:0:0:
332,200,94034,2,0,P|288:236|280:256,1,45,0|0,0:0|0:0,0:0:0:0:
256,284,94357,1,0,0:0:0:0:
188,268,94518,1,0,0:0:0:0:
116,280,94679,2,0,L|56:284,1,45,0|0,0:0|0:0,0:0:0:0:
36,220,95002,2,0,P|32:156|56:104,1,90,8|0,0:0|0:0,0:0:0:0:
172,72,95647,6,0,L|296:80,1,90,0|0,0:0|0:0,0:0:0:0:
332,84,96131,1,0,0:0:0:0:
332,84,96292,2,0,L|348:12,1,45,8|0,0:0|0:0,0:0:0:0:
404,80,96615,2,0,L|416:8,1,45,0|0,0:0|0:0,0:0:0:0:
484,24,96937,2,0,L|464:124,1,90,0|0,0:0|0:0,0:0:0:0:
420,168,97421,1,0,0:0:0:0:
356,204,97583,2,0,P|368:276|372:288,1,45,8|0,0:0|0:0,0:0:0:0:
332,316,97905,1,0,0:0:0:0:
180,300,98228,6,0,P|96:284|16:280,1,135,0|0,0:0|0:0,0:0:0:0:
48,208,98873,2,0,L|72:124,1,45,8|0,0:0|0:0,0:0:0:0:
132,164,99195,2,0,L|156:80,1,45,0|0,0:0|0:0,0:0:0:0:
204,80,99518,2,0,P|268:68|328:80,1,90,0|0,0:0|0:0,0:0:0:0:
348,116,100002,1,0,0:0:0:0:
348,116,100163,2,0,L|336:168,1,45,8|0,0:0|0:0,0:0:0:0:
396,200,100486,2,0,L|384:252,1,45,0|0,0:0|0:0,0:0:0:0:
256,308,100808,6,0,P|184:344|152:340,1,90,0|0,0:0|0:0,0:0:0:0:
164,204,101454,2,0,P|124:204|88:196,1,45,8|0,0:0|0:0,0:0:0:0:
64,156,101776,2,0,L|52:84,1,45,0|0,0:0|0:0,0:0:0:0:
116,72,102099,2,0,L|104:0,2,45,0|0|0,0:0|0:0|0:0,0:0:0:0:
184,96,102583,1,0,0:0:0:0:
256,80,102744,2,0,L|328:72,1,45,8|0,0:0|0:0,0:0:0:0:
368,100,103066,1,0,0:0:0:0:
416,236,103389,6,0,P|364:248|304:236,1,90,0|0,0:0|0:0,0:0:0:0:
183,244,104034,2,0,P|139:247|96:236,1,90,8|0,0:0|0:0,0:0:0:0:
36,196,104518,1,0,0:0:0:0:
36,196,104679,1,0,0:0:0:0:
52,124,104841,2,0,L|72:24,1,90,0|0,0:0|0:0,0:0:0:0:
140,20,105325,2,0,P|156:44|176:64,1,45,8|0,0:0|0:0,0:0:0:0:
236,76,105647,1,0,0:0:0:0:
380,72,105970,6,0,L|484:76,1,90,0|0,0:0|0:0,0:0:0:0:
484,148,106454,1,0,0:0:0:0:
484,148,106615,2,0,P|464:192|468:228,1,45,8|0,0:0|0:0,0:0:0:0:
400,220,106937,2,0,P|408:264|416:288,1,45,0|0,0:0|0:0,0:0:0:0:
388,332,107260,2,0,L|288:320,1,90,0|0,0:0|0:0,0:0:0:0:
156,296,107905,2,0,P|117:298|72:312,2,45,8|0|0,0:0|0:0|0:0,0:0:0:0:
256,192,108550,6,0,P|264:128|244:88,1,90,0|0,0:0|0:0,0:0:0:0:
124,164,109195,2,0,L|132:252,1,45,8|0,0:0|0:0,0:0:0:0:
192,244,109518,2,0,L|200:332,1,45,0|0,0:0|0:0,0:0:0:0:
256,328,109841,2,0,P|336:344|384:332,1,90,0|0,0:0|0:0,0:0:0:0:
400,300,110325,1,0,0:0:0:0:
400,300,110486,2,0,P|388:244|392:224,1,45,8|0,0:0|0:0,0:0:0:0:
408,188,110808,1,0,0:0:0:0:
292,100,111131,6,0,B|248:76|248:116|168:72,2,90,0|0|8,0:0|0:0|0:0,0:0:0:0:
252,240,112099,2,0,P|192:244|180:240,1,45,0|0,0:0|0:0,0:0:0:0:
140,228,112421,2,0,P|88:224|24:236,1,90,0|0,0:0|0:0,0:0:0:0:
20,292,112905,1,0,0:0:0:0:
60,352,113066,2,0,L|144:348,1,45,8|0,0:0|0:0,0:0:0:0:
172,324,113389,2,0,L|256:320,1,45,0|0,0:0|0:0,0:0:0:0:
352,276,113712,6,0,L|360:148,2,90,0|0|8,0:0|0:0|0:0,0:0:0:0:
468,192,114679,2,0,L|460:112,1,45,0|0,0:0|0:0,0:0:0:0:
400,116,115002,2,0,P|388:71|384:-8,1,90,0|0,0:0|0:0,0:0:0:0:
312,16,115486,1,0,0:0:0:0:
312,16,115647,2,0,P|272:40|236:48,1,45,8|0,0:0|0:0,0:0:0:0:
204,28,115970,1,0,0:0:0:0:
80,100,116292,6,0,P|124:101|169:108,1,90,0|0,0:0|0:0,0:0:0:0:
256,224,116937,2,0,P|260:272|248:296,2,45,8|0|0,0:0|0:0|0:0,0:0:0:0:
192,256,117421,1,0,0:0:0:0:
220,324,117583,2,0,P|280:336|324:296,1,90,0|0,0:0|0:0,0:0:0:0:
336,260,118066,1,0,0:0:0:0:
420,144,118228,2,0,P|484:136|500:140,2,45,0|0|8,0:0|0:0|0:0,0:0:0:0:
204,120,118873,6,0,L|88:136,2,90,0|0|8,0:0|0:0|0:0,0:0:0:0:
332,56,119841,1,0,0:0:0:0:
356,196,120163,1,0,0:0:0:0:
152,268,120486,1,0,0:0:0:0:
152,268,120647,1,0,0:0:0:0:
152,268,120808,2,0,L|168:188,1,45,8|0,0:0|0:0,0:0:0:0:
232,216,121131,2,0,L|220:156,1,45,0|0,0:0|0:0,0:0:0:0:
324,68,121454,6,0,P|384:32|428:32,1,90,0|0,0:0|0:0,0:0:0:0:
416,172,122099,2,0,L|396:252,1,45,8|0,0:0|0:0,0:0:0:0:
332,220,122421,2,0,L|340:288,1,45,0|0,0:0|0:0,0:0:0:0:
336,336,122744,2,0,L|224:320,1,90,0|0,0:0|0:0,0:0:0:0:
160,208,123389,2,0,L|108:212,2,45,8|0|0,0:0|0:0|0:0,0:0:0:0:
232,192,123873,1,0,0:0:0:0:
256,124,124034,6,0,P|260:48|244:0,1,90,4|0,3:3|0:0,0:0:0:0:
120,76,124679,1,8,0:0:0:0:
256,124,125002,2,0,L|316:132,1,45,0|0,0:0|0:0,0:0:0:0:
436,172,125325,2,0,L|308:192,1,90,0|0,0:0|0:0,0:0:0:0:
312,248,125808,1,0,0:0:0:0:
256,296,125970,2,0,L|128:316,1,90,8|0,0:0|0:0,0:0:0:0:
88,192,126615,5,0,0:0:0:0:
180,84,126937,1,0,0:0:0:0:
324,88,127260,2,0,P|332:32|332:0,1,45,8|0,0:0|0:0,0:0:0:0:
252,164,127583,2,0,P|254:186|259:208,1,45,0|0,0:0|0:0,0:0:0:0:
180,84,127905,2,0,L|60:84,1,90,0|0,0:0|0:0,0:0:0:0:
40,136,128389,1,0,0:0:0:0:
92,188,128550,2,0,L|182:188,1,90,8|0,0:0|0:0,0:0:0:0:
252,164,129034,1,0,0:0:0:0:
376,240,129195,6,0,P|384:292|316:344,1,135,4|0,3:3|0:0,0:0:0:0:
256,324,129841,2,0,P|192:308|136:308,1,90,2|0,0:0|0:0,0:0:0:0:
32,360,130486,1,0,0:0:0:0:
24,216,130808,1,0,0:0:0:0:
24,216,130970,1,0,0:0:0:0:
24,216,131131,2,0,L|92:228,1,45,2|0,0:0|0:0,0:0:0:0:
128,184,131454,2,0,L|196:196,1,45,0|0,0:0|0:0,0:0:0:0:
244,180,131776,6,0,P|268:108|268:60,1,90,0|0,0:0|0:0,0:0:0:0:
372,192,132421,2,0,P|354:233|346:277,1,90,2|0,0:0|0:0,0:0:0:0:
380,344,132905,1,0,0:0:0:0:
380,344,133066,2,0,P|320:344|272:296,1,90,0|0,0:0|0:0,0:0:0:0:
256,272,133550,1,0,0:0:0:0:
184,272,133712,2,0,L|120:276,1,45,2|0,0:0|0:0,0:0:0:0:
92,220,134034,2,0,L|28:224,1,45,0|0,0:0|0:0,0:0:0:0:
132,108,134357,6,0,P|188:72|248:60,1,90,4|0,3:3|0:0,0:0:0:0:
348,104,135002,1,2,0:0:0:0:
332,248,135325,2,0,P|308:296|296:312,1,45,0|0,0:0|0:0,0:0:0:0:
256,332,135647,2,0,L|136:344,1,90,0|0,0:0|0:0,0:0:0:0:
108,300,136131,1,0,0:0:0:0:
108,300,136292,2,0,P|120:244|108:184,1,90,2|0,0:0|0:0,0:0:0:0:
40,88,136937,6,0,P|96:96|156:96,1,90,0|0,0:0|0:0,0:0:0:0:
256,28,137583,1,2,0:0:0:0:
256,28,137905,2,0,L|248:112,1,45,0|0,0:0|0:0,0:0:0:0:
316,108,138228,2,0,P|304:184|304:236,1,90,0|0,0:0|0:0,0:0:0:0:
336,260,138712,1,0,0:0:0:0:
404,288,138873,2,0,P|380:320|324:332,1,90,2|0,0:0|0:0,0:0:0:0:
336,260,139357,1,0,0:0:0:0:
120,288,139518,5,0,0:0:0:0:
72,120,144679,6,0,P|128:108|148:104,1,45,0|0,0:0|0:0,0:0:0:0:
176,148,145002,2,0,P|232:148|252:144,1,45,0|0,0:0|0:0,0:0:0:0:
284,116,145325,2,0,P|344:100|408:96,1,90,8|0,0:0|0:0,0:0:0:0:
436,128,145808,1,0,0:0:0:0:
436,128,145970,2,0,L|428:240,1,90,0|0,0:0|0:0,0:0:0:0:
312,300,146615,2,0,P|228:296|192:300,1,90,8|0,0:0|0:0,0:0:0:0:
120,196,147260,6,0,L|48:216,2,45,0|0|0,0:0|0:0|0:0,0:0:0:0:
172,144,147744,1,0,0:0:0:0:
172,144,147905,2,0,P|192:80|188:40,1,90,8|0,0:0|0:0,0:0:0:0:
252,20,148389,1,0,0:0:0:0:
312,56,148550,2,0,L|392:64,1,45,0|0,0:0|0:0,0:0:0:0:
392,124,148873,2,0,L|472:112,1,45,0|0,0:0|0:0,0:0:0:0:
496,160,149195,2,0,P|484:252|472:284,1,90,8|0,0:0|0:0,0:0:0:0:
344,284,149841,6,0,L|272:296,1,45,0|0,0:0|0:0,0:0:0:0:
236,260,150163,1,0,0:0:0:0:
96,228,150486,2,0,P|112:156|116:108,1,90,8|0,0:0|0:0,0:0:0:0:
124,68,150970,1,0,0:0:0:0:
124,68,151131,2,0,P|188:84|224:72,1,90,0|0,0:0|0:0,0:0:0:0:
280,56,151615,1,0,0:0:0:0:
348,28,151776,2,0,P|412:12|448:24,1,90,8|0,0:0|0:0,0:0:0:0:
468,160,152421,6,0,L|456:256,1,90,0|0,0:0|0:0,0:0:0:0:
408,304,152905,1,0,0:0:0:0:
336,292,153066,2,0,P|288:284|224:284,1,90,8|0,0:0|0:0,0:0:0:0:
180,312,153550,1,0,0:0:0:0:
180,312,153712,2,0,L|176:212,1,90,0|0,0:0|0:0,0:0:0:0:
280,124,154357,2,0,L|284:224,1,90,8|0,0:0|0:0,0:0:0:0:
420,260,155002,6,0,P|440:216|436:192,1,45,0|0,0:0|0:0,0:0:0:0:
408,156,155325,2,0,P|400:120|400:88,1,45,0|0,0:0|0:0,0:0:0:0:
412,40,155647,2,0,L|300:24,1,90,8|0,0:0|0:0,0:0:0:0:
256,60,156131,1,0,0:0:0:0:
192,28,156292,2,0,L|72:40,1,90,0|0,0:0|0:0,0:0:0:0:
32,48,156776,1,0,0:0:0:0:
32,48,156937,2,0,P|48:92|44:148,1,90,8|0,0:0|0:0,0:0:0:0:
32,204,157421,1,0,0:0:0:0:
80,260,157583,6,0,P|128:265|192:248,1,90,0|0,0:0|0:0,0:0:0:0:
216,204,158066,1,0,0:0:0:0:
216,204,158228,2,0,P|252:144|280:128,1,90,8|0,0:0|0:0,0:0:0:0:
336,108,158712,1,0,0:0:0:0:
396,148,158873,2,0,P|448:160|500:120,1,90,0|0,0:0|0:0,0:0:0:0:
436,88,159357,1,0,0:0:0:0:
396,28,159518,2,0,L|280:36,1,90,8|0,0:0|0:0,0:0:0:0:
160,196,160163,5,4,3:0:0:0:
440,132,161131,6,0,L|432:212,1,45,0|0,0:0|0:0,0:0:0:0:
364,164,161454,2,0,L|372:236,1,45,0|0,0:0|0:0,0:0:0:0:
296,212,161776,2,0,L|316:272,1,45,0|0,0:0|0:0,0:0:0:0:
284,320,162099,2,0,P|236:328|180:312,1,90,0|0,0:0|0:0,0:0:0:0:
112,224,162744,6,0,L|104:104,1,90,4|0,3:0|0:0,0:0:0:0:
272,108,163389,2,0,P|244:116|188:112,1,45,0|0,0:0|0:0,0:0:0:0:
220,44,163712,2,0,P|248:36|304:40,1,45,0|0,0:0|0:0,0:0:0:0:
332,56,164034,2,0,P|360:64|416:60,1,45,0|0,0:0|0:0,0:0:0:0:
444,88,164357,2,0,L|432:144,1,45,0|0,0:0|0:0,0:0:0:0:
400,196,164679,2,0,P|384:264|384:304,1,90,0|0,0:0|0:0,0:0:0:0:
256,348,165325,6,0,L|124:356,2,90,4|0|0,3:0|0:0|0:0,0:0:0:0:
200,216,166292,2,0,P|180:172|180:148,1,45,0|0,0:0|0:0,0:0:0:0:
208,108,166615,1,0,0:0:0:0:
208,108,166776,2,0,P|232:48|236:16,1,90,0|0,0:0|0:0,0:0:0:0:
308,16,167260,2,0,L|376:28,1,45,0|0,0:0|0:0,0:0:0:0:
376,92,167583,2,0,L|428:80,1,45,0|0,0:0|0:0,0:0:0:0:
492,80,167905,6,0,P|484:140|488:204,1,90,4|0,3:0|0:0,0:0:0:0:
480,312,168550,2,0,L|420:276,1,45,0|0,0:0|0:0,0:0:0:0:
372,312,168873,2,0,L|352:272,1,45,0|0,0:0|0:0,0:0:0:0:
292,232,169195,2,0,P|228:228|180:240,1,90,0|0,0:0|0:0,0:0:0:0:
72,296,169841,2,0,L|72:236,1,45,0|0,0:0|0:0,0:0:0:0:
72,180,170163,1,0,0:0:0:0:
168,72,170486,6,0,B|212:56|212:88|276:60,1,90,4|0,3:0|0:0,0:0:0:0:
396,28,171131,2,0,P|384:76|384:88,1,45,0|0,0:0|0:0,0:0:0:0:
448,108,171454,2,0,P|440:148|440:168,1,45,0|0,0:0|0:0,0:0:0:0:
460,220,171776,2,0,P|440:260|428:312,1,90,0|0,0:0|0:0,0:0:0:0:
376,356,172260,1,0,0:0:0:0:
308,336,172421,2,0,L|256:324,1,45,0|0,0:0|0:0,0:0:0:0:
228,264,172744,1,0,0:0:0:0:
104,336,173066,6,0,L|-8:356,2,90,4|0|0,3:0|0:0|0:0,0:0:0:0:
128,196,174034,1,0,0:0:0:0:
256,132,174357,2,0,P|308:140|336:136,1,45,0|0,0:0|0:0,0:0:0:0:
368,116,174679,2,0,P|400:104|436:104,1,45,0|0,0:0|0:0,0:0:0:0:
464,148,175002,2,0,L|448:248,1,90,0|0,0:0|0:0,0:0:0:0:
344,332,175647,6,0,B|299:319|299:343|255:327,1,90,4|0,3:0|0:0,0:0:0:0:
132,252,176292,1,0,0:0:0:0:
132,252,176454,1,0,0:0:0:0:
132,252,176615,2,0,L|136:184,1,45,0|0,0:0|0:0,0:0:0:0:
196,172,176937,2,0,L|184:76,1,90,0|0,0:0|0:0,0:0:0:0:
256,64,177421,1,0,0:0:0:0:
327,82,177583,2,0,P|380:108|400:112,1,45,0|0,0:0|0:0,0:0:0:0:
440,100,177905,1,0,0:0:0:0:
368,224,178228,6,0,L|340:324,1,90,4|0,3:0|0:0,0:0:0:0:
256,192,179195,12,0,180485,0:0:0:0:
128,192,180808,5,4,3:0:0:0:
256,128,181131,2,0,P|268:64|244:20,1,90,0|8,0:0|0:0,0:0:0:0:
120,80,181776,1,0,0:0:0:0:
168,216,182099,1,0,0:0:0:0:
304,268,182421,2,0,L|356:264,1,45,0|0,0:0|0:0,0:0:0:0:
408,220,182744,2,0,L|460:216,1,45,8|0,0:0|0:0,0:0:0:0:
504,164,183066,2,0,P|452:120|440:68,1,90,0|0,0:0|0:0,0:0:0:0:
308,52,183712,5,0,0:0:0:0:
176,112,184034,2,0,P|160:172|144:192,1,45,8|0,0:0|0:0,0:0:0:0:
116,208,184357,2,0,P|132:268|148:288,1,45,0|0,0:0|0:0,0:0:0:0:
168,308,184679,2,0,P|236:300|296:304,1,90,0|0,0:0|0:0,0:0:0:0:
384,232,185325,2,0,P|396:180|400:152,1,45,8|0,0:0|0:0,0:0:0:0:
340,140,185647,2,0,P|324:92|324:76,1,45,0|0,0:0|0:0,0:0:0:0:
256,76,185970,6,0,L|132:84,1,90,4|0,3:3|0:0,0:0:0:0:
28,116,186615,2,0,L|48:168,1,45,8|0,0:0|0:0,0:0:0:0:
100,204,186937,2,0,L|96:324,1,90,0|0,0:0|0:0,0:0:0:0:
232,340,187583,2,0,L|288:332,1,45,0|0,0:0|0:0,0:0:0:0:
340,296,187905,2,0,L|396:288,1,45,8|0,0:0|0:0,0:0:0:0:
444,332,188228,1,0,0:0:0:0:
484,192,188550,6,0,P|460:152|444:108,1,90
316,48,189195,2,0,P|300:90|288:116,1,45,8|0,0:0|0:0,0:0:0:0:
228,100,189518,2,0,P|224:128|220:160,1,45,0|0,0:0|0:0,0:0:0:0:
176,200,189841,2,0,P|112:216|60:220,1,90
20,192,190325,1,0,0:0:0:0:
20,192,190486,2,0,P|32:144|24:80,1,90,8|0,0:0|0:0,0:0:0:0:
24,32,190970,1,0,0:0:0:0:
160,80,191131,6,0,B|256:52|244:116|368:64,1,180,4|2,3:3|0:0,0:0:0:0:
472,20,192099,1,0,0:0:0:0:
472,20,192421,2,0,L|448:80,1,45,0|0,0:0|0:0,0:0:0:0:
416,124,192744,2,0,L|392:184,1,45,0|0,0:0|0:0,0:0:0:0:
356,224,193066,2,0,P|304:204|252:204,1,90,2|0,0:0|0:0,0:0:0:0:
98,342,193712,6,0,P|142:337|184:320,1,90
270,201,194357,2,0,L|260:120,1,45,2|0,0:0|0:0,0:0:0:0:
196,132,194679,2,0,L|204:88,1,45,0|0,0:0|0:0,0:0:0:0:
156,36,195002,2,0,P|108:24|56:32,1,90,0|0,0:0|0:0,0:0:0:0:
100,168,195647,2,0,P|116:212|124:240,1,45,2|0,0:0|0:0,0:0:0:0:
188,216,195970,2,0,P|176:264|164:284,1,45
168,332,196292,6,0,P|224:340|288:360,1,90,4|0,3:3|0:0,0:0:0:0:
384,280,196937,2,0,L|372:204,1,45,2|0,0:0|0:0,0:0:0:0:
432,188,197260,2,0,L|420:112,1,45,0|0,0:0|0:0,0:0:0:0:
396,76,197583,2,0,P|328:88|276:80,1,90,0|0,0:0|0:0,0:0:0:0:
256,36,198066,1,0,0:0:0:0:
256,36,198228,2,0,L|184:48,1,45,2|0,0:0|0:0,0:0:0:0:
168,100,198550,2,0,L|96:112,1,45,0|0,0:0|0:0,0:0:0:0:
64,148,198873,6,0,B|64:208|64:208|84:244,1,90,4|0,3:0|0:0,0:0:0:0:
200,312,199518,2,0,L|209:267,1,45,2|0,0:0|0:0,0:0:0:0:
302,267,199841,2,0,L|312:312,1,45
209,267,200163,2,0,L|228:176,1,90
292,144,200647,1,0,0:0:0:0:
292,144,200808,2,0,P|280:92|328:44,1,90,2|0,0:0|0:0,0:0:0:0:
364,36,201292,1,0,0:0:0:0:
220,44,201454,6,0,B|127:84|139:20|43:48,1,180,4|2,3:3|0:0,0:0:0:0:
84,188,202421,1,0,0:0:0:0:
84,188,202744,2,0,P|92:140|84:120,1,45,0|0,0:0|0:0,0:0:0:0:
164,148,203066,2,0,P|164:170|172:191,1,45,0|0,0:0|0:0,0:0:0:0:
244,204,203389,2,0,L|368:208,1,90,2|0,0:0|0:0,0:0:0:0:
441,66,204034,6,0,L|352:64,1,90
216,116,204679,2,0,P|212:152|204:172,1,45,2|0,0:0|0:0,0:0:0:0:
140,188,205002,2,0,P|144:232|160:260,1,45,0|0,0:0|0:0,0:0:0:0:
172,300,205325,2,0,P|232:324|284:308,1,90,0|0,0:0|0:0,0:0:0:0:
364,224,205970,2,0,P|376:188|396:168,1,45,2|0,0:0|0:0,0:0:0:0:
448,160,206292,1,0,0:0:0:0:
348,56,206615,6,0,L|232:68,1,90,4|0,3:3|0:0,0:0:0:0:
188,76,207099,1,0,0:0:0:0:
188,76,207260,2,0,P|172:32|176:4,1,45,2|0,0:0|0:0,0:0:0:0:
108,68,207583,2,0,P|103:89|92:109,1,45,0|0,0:0|0:0,0:0:0:0:
36,156,207905,2,0,L|64:244,1,90,0|0,0:0|0:0,0:0:0:0:
84,312,208389,1,0,0:0:0:0:
156,312,208550,2,0,P|208:276|248:272,1,90,2|0,0:0|0:0,0:0:0:0:
376,256,209195,6,0,B|412:236|412:236|424:176,1,90,4|0,3:0|0:0,0:0:0:0:
304,104,209841,2,0,B|268:124|268:124|256:184,1,90,2|0,0:0|0:0,0:0:0:0:
256,316,210486,1,0,0:0:0:0:
80,192,210808,1,0,0:0:0:0:
80,192,210970,1,0,0:0:0:0:
80,192,211131,2,0,P|88:144|84:88,1,90,2|0,0:0|0:0,0:0:0:0:
136,52,211615,1,0,0:0:0:0:
264,116,211776,6,0,B|312:144|352:104|352:104|408:136|384:188,1,180,4|2,3:3|0:0,0:0:0:0:
304,288,212744,1,0,0:0:0:0:
168,248,213066,2,0,P|140:192|136:152,1,90,0|0,0:0|0:0,0:0:0:0:
160,96,213550,1,0,0:0:0:0:
160,96,213712,2,0,P|164:72|164:44,1,45,2|0,0:0|0:0,0:0:0:0:
92,64,214034,2,0,P|88:88|88:116,1,45,0|0,0:0|0:0,0:0:0:0:
136,165,214357,6,0,P|192:164|224:136,1,90
344,72,215002,2,0,L|340:128,1,45,2|0,0:0|0:0,0:0:0:0:
408,144,215325,2,0,L|392:208,1,45,0|0,0:0|0:0,0:0:0:0:
400,260,215647,2,0,P|328:276|312:284,1,90,0|0,0:0|0:0,0:0:0:0:
256,376,216292,2,0,L|240:328,1,45,2|0,0:0|0:0,0:0:0:0:
184,288,216615,2,0,P|152:304|112:316,1,45,0|0,0:0|0:0,0:0:0:0:
76,280,216937,6,0,P|60:232|72:188,1,90,4|0,3:3|0:0,0:0:0:0:
256,88,217583,2,0,P|272:136|260:180,1,90,2|0,0:0|0:0,0:0:0:0:
204,216,218066,1,0,0:0:0:0:
204,216,218228,2,0,L|80:224,1,90,0|0,0:0|0:0,0:0:0:0:
56,264,218712,1,0,0:0:0:0:
48,192,218873,2,0,P|52:148|48:128,1,45,2|0,0:0|0:0,0:0:0:0:
124,132,219195,2,0,P|128:88|140:64,1,45,0|0,0:0|0:0,0:0:0:0:
196,60,219518,6,0,L|296:68,1,90,4|0,3:0|0:0,0:0:0:0:
356,192,220163,2,0,L|456:184,2,90,2|0|0,0:0|0:0|0:0,0:0:0:0:
256,296,221131,1,0,0:0:0:0:
256,296,221292,1,0,0:0:0:0:
256,296,221454,2,0,P|184:280|152:264,1,90,2|0,0:0|0:0,0:0:0:0:
124,216,221937,1,0,0:0:0:0:
156,152,222099,5,0,0:0:0:0:
256,192,222260,12,0,225970,0:0:0:0:
