osu file format v14

[General]
AudioFilename: audio.mp3
AudioLeadIn: 0
PreviewTime: -1
Countdown: 0
SampleSet: None
StackLeniency: 0.5
Mode: 0
LetterboxInBreaks: 0
WidescreenStoryboard: 0

[Editor]
Bookmarks: 36070,60070,84070
DistanceSpacing: 1.8
BeatDivisor: 4
GridSize: 4
TimelineZoom: 2.1

[Metadata]
Title:Reminder
TitleUnicode:Reminder
Artist:The Weeknd
ArtistUnicode:The Weeknd
Creator:Bullhax
Version:Teen Choice
Source:
Tags:god damn bitch i am not a teen choice
BeatmapID:1632551
BeatmapSetID:777052

[Difficulty]
HPDrainRate:6
CircleSize:4.5
OverallDifficulty:9
ApproachRate:9
SliderMultiplier:1.8
SliderTickRate:2

[Events]
//Background and Video events
0,0,"qpj3rwra56l01.jpg",0,0
//Break Periods
//Storyboard Layer 0 (Background)
//Storyboard Layer 1 (Fail)
//Storyboard Layer 2 (Pass)
//Storyboard Layer 3 (Foreground)
//Storyboard Sound Samples

[TimingPoints]
70,375,4,2,2,100,1,0
10570,-200,4,2,2,100,0,0
13382,-133.333333333333,4,2,2,100,0,0
15070,-200,4,2,2,100,0,0
16382,-133.333333333333,4,2,2,100,0,0
18070,-200,4,2,2,100,0,0
18445,-100,4,2,2,100,0,0
18820,-133.333333333333,4,2,2,100,0,0
21070,-200,4,2,2,100,0,0
22382,-133.333333333333,4,2,2,100,0,0
24820,-200,4,2,2,100,0,0
25570,-133.333333333333,4,2,2,100,0,0
27070,-200,4,2,3,100,0,0
28570,-133.333333333333,4,2,2,100,0,0
29695,-200,4,2,2,100,0,0
31382,-133.333333333333,4,2,2,100,0,0
33070,-200,4,2,2,100,0,0
34382,-133.333333333333,4,2,2,100,0,0

[HitObjects]
226,107,10570,6,0,L|225:116,1,5.625,2|0,0:0|0:0,0:0:0:0:
307,116,10757,2,0,L|306:125,1,5.625,2|0,0:0|0:0,0:0:0:0:
258,190,10945,2,0,L|257:199,1,5.625,2|0,0:0|0:0,0:0:0:0:
339,199,11132,2,0,L|338:208,1,5.625,2|0,0:0|0:0,0:0:0:0:
290,269,11320,2,0,L|289:278,1,5.625,2|0,0:0|0:0,0:0:0:0:
290,269,11695,1,0,0:0:0:0:
226,107,11882,1,0,0:0:0:0:
201,340,12070,6,0,L|294:353,1,90,4|0,0:0|0:0,0:0:0:0:
364,314,12632,1,0,0:0:0:0:
113,275,12820,2,0,L|202:262,1,90,8|0,0:0|0:0,0:0:0:0:
29,183,13382,2,0,L|95:191,2,67.5000025749208,4|0|0,0:0|0:0|0:0,0:0:0:0:
353,243,13945,2,0,L|286:251,1,67.5000025749208,4|0,0:0|0:0,0:0:0:0:
359,60,14320,1,8,0:0:0:0:
202,262,14507,2,0,L|135:270,1,67.5000025749208,4|0,0:0|0:0,0:0:0:0:
445,232,14882,1,4,0:0:0:0:
286,251,15070,6,0,L|298:340,1,90,4|0,0:0|0:0,0:0:0:0:
381,359,15632,1,0,0:0:0:0:
214,172,15820,2,0,L|201:261,1,90,8|0,0:0|0:0,0:0:0:0:
295,101,16382,1,4,0:0:0:0:
353,171,16570,2,0,L|361:233,2,33.7500012874604
159,20,16945,2,0,L|147:106,1,67.5000025749208,4|0,0:0|0:0,0:0:0:0:
416,17,17320,1,8,0:0:0:0:
448,239,17507,2,0,L|460:325,2,67.5000025749208,4|0|4,0:0|0:0|0:0,0:0:0:0:
121,273,18070,6,0,L|120:282,1,5.625,6|0,0:0|0:0,0:0:0:0:
107,359,18257,2,0,L|107:353,1,5.625,2|0,0:0|0:0,0:0:0:0:
155,81,18445,2,0,P|200:109|283:98,1,135,10|0,0:3|0:0,0:0:0:0:
155,81,18820,2,0,B|221:65|221:65|278:100,1,135,10|0,0:3|0:0,0:0:0:0:
203,161,19382,1,12,0:0:0:0:
375,186,19570,2,0,L|309:177,1,67.5000025749208
34,137,19945,2,0,L|100:146,1,67.5000025749208,4|0,0:0|0:0,0:0:0:0:
475,206,20320,1,8,0:0:0:0:
141,236,20507,1,4,0:0:0:0:
231,254,20695,1,0,0:0:0:0:
219,38,20882,1,4,0:0:0:0:
318,278,21070,6,0,L|319:273,1,5.625,6|0,0:0|0:0,0:0:0:0:
230,259,21257,2,0,L|231:254,1,5.625,2|0,0:0|0:0,0:0:0:0:
140,241,21445,2,0,L|141:236,1,5.625,2|0,0:0|0:0,0:0:0:0:
51,218,21632,2,0,L|51:212,1,5.625,2|0,0:0|0:0,0:0:0:0:
302,94,21820,2,0,L|289:183,1,90,8|0,0:0|0:0,0:0:0:0:
82,53,22382,1,4,0:0:0:0:
163,17,22570,2,0,L|172:77,2,33.7500012874604
150,308,22945,2,0,L|139:241,1,67.5000025749208,4|0,0:0|0:0,0:0:0:0:
163,17,23320,1,8,0:0:0:0:
318,278,23507,2,0,L|319:273,1,5.625,6|0,0:0|0:0,0:0:0:0:
230,259,23695,2,0,L|231:254,1,5.625,6|0,0:0|0:0,0:0:0:0:
140,241,23882,2,0,L|141:236,1,5.625,2|0,0:0|0:0,0:0:0:0:
365,178,24070,6,0,L|457:167,1,67.5000025749208,4|0,0:0|0:0,0:0:0:0:
298,187,24445,2,0,L|390:176,1,67.5000025749208,4|0,0:0|0:0,0:0:0:0:
144,122,24820,2,0,L|233:132,1,90,12|4,0:0|0:0,0:0:0:0:
196,31,25382,1,4,0:0:0:0:
94,211,25570,2,0,L|186:200,1,67.5000025749208,4|0,0:0|0:0,0:0:0:0:
365,178,25945,2,0,L|297:186,1,67.5000025749208,4|0,0:0|0:0,0:0:0:0:
94,211,26320,1,6,0:0:0:0:
231,196,26507,1,4,0:0:0:0:
118,132,26695,1,12,0:0:0:0:
338,258,26882,1,12,0:0:0:0:
37,149,27070,6,0,L|47:59,1,90,6|0,0:0|0:0,0:0:0:0:
129,24,27632,1,0,0:0:0:0:
127,221,27820,2,0,L|117:131,1,90,8|0,0:0|0:0,0:0:0:0:
21,286,28382,1,4,0:0:0:0:
217,283,28570,2,0,L|222:238,2,33.7500012874604
112,371,28945,2,0,L|102:281,1,67.5000025749208,4|0,0:0|0:0,0:0:0:0:
345,348,29320,1,8,0:0:0:0:
104,303,29507,1,4,0:0:0:0:
336,270,29695,6,0,L|336:264,1,5.625,2|0,0:0|0:0,0:0:0:0:
143,226,29882,2,0,L|143:220,1,5.625,6|0,0:0|0:0,0:0:0:0:
357,60,30070,6,0,L|365:165,1,90,4|0,0:0|0:0,0:0:0:0:
433,216,30632,1,0,0:0:0:0:
461,39,30820,2,0,L|453:144,1,90,8|0,0:0|0:0,0:0:0:0:
336,310,31382,2,0,L|341:242,2,67.5000025749208,4|0|0,0:0|0:0|0:0,0:0:0:0:
262,106,31945,2,0,L|267:173,1,67.5000025749208,4|0,0:0|0:0,0:0:0:0:
234,354,32320,1,8,0:0:0:0:
155,115,32507,1,4,0:0:0:0:
196,236,32695,1,0,0:0:0:0:
117,9,32882,1,4,0:0:0:0:
404,126,33070,6,0,L|314:136,1,90,4|0,0:0|0:0,0:0:0:0:
477,205,33632,1,0,0:0:0:0:
284,225,33820,2,0,L|374:235,1,90,8|0,0:0|0:0,0:0:0:0:
155,115,34382,1,4,0:0:0:0:
269,53,34570,2,0,L|316:47,2,33.7500012874604
196,236,34945,2,0,L|128:228,1,67.5000025749208,4|0,0:0|0:0,0:0:0:0:
373,234,35320,1,8,0:0:0:0:
256,192,36070,5,4,0:0:0:0:
166,77,36445,2,0,P|171:128|193:158,1,67.5000025749208
400,171,36820,2,0,P|353:150|316:154,1,67.5000025749208,8|0,0:0|0:0,0:0:0:0:
201,327,37195,2,0,P|243:297|258:263,1,67.5000025749208,0|4,0:0|0:0,0:0:0:0:
260,94,37570,1,0,0:0:0:0:
377,65,37757,1,0,0:0:0:0:
481,127,37945,1,4,0:0:0:0:
471,6,38132,1,0,0:0:0:0:
471,248,38320,2,0,P|424:269|387:265,1,67.5000025749208,8|4,0:0|0:0,0:0:0:0:
201,327,38695,2,0,P|248:306|285:310,1,67.5000025749208,0|4,0:0|0:0,0:0:0:0:
178,141,39070,1,0,0:0:0:0:
