osu file format v14

[General]
AudioFilename: audio.mp3
AudioLeadIn: 0
PreviewTime: -1
Countdown: 0
SampleSet: None
StackLeniency: 0.6
Mode: 1
LetterboxInBreaks: 0
WidescreenStoryboard: 0

[Editor]
Bookmarks: 122041
DistanceSpacing: 1.8
BeatDivisor: 4
GridSize: 4
TimelineZoom: 0.5

[Metadata]
Title:I Feel It Coming (ft. Daft Punk)
TitleUnicode:I Feel It Coming (ft. Daft Punk)
Artist:The Weeknd
ArtistUnicode:The Weeknd
Creator:genialpokemon
Version:taiko dificil
Source:
Tags:tags tags XD
BeatmapID:1511847
BeatmapSetID:712240

[Difficulty]
HPDrainRate:4
CircleSize:3
OverallDifficulty:3
ApproachRate:3
SliderMultiplier:0.7
SliderTickRate:1

[Events]
//Background and Video events
//Break Periods
2,166137,182595
//Storyboard Layer 0 (Background)
//Storyboard Layer 1 (Fail)
//Storyboard Layer 2 (Pass)
//Storyboard Layer 3 (Foreground)
//Storyboard Sound Samples

[TimingPoints]
20257.9130434783,326.086956521739,4,1,0,100,1,0

[Colours]
Combo1 : 0,0,255
Combo2 : 5,240,5
Combo3 : 5,5,240
Combo4 : 240,5,5
Combo5 : 240,240,0
Combo6 : 236,244,244
Combo7 : 255,249,225

[HitObjects]
256,192,21562,5,4,0:0:0:0:
256,192,22132,1,4,0:0:0:0:
256,192,22703,1,4,0:0:0:0:
256,192,23355,1,4,0:0:0:0:
256,192,24007,1,12,0:0:0:0:
256,192,24578,1,12,0:0:0:0:
256,192,25393,1,8,0:0:0:0:
256,192,26127,1,0,0:0:0:0:
256,192,26698,1,4,0:0:0:0:
256,192,27431,1,12,0:0:0:0:
256,192,28084,1,8,0:0:0:0:
256,192,28736,1,0,0:0:0:0:
256,192,28980,1,0,0:0:0:0:
256,192,29225,1,0,0:0:0:0:
256,192,30203,1,4,0:0:0:0:
256,192,30448,1,4,0:0:0:0:
256,192,30774,1,4,0:0:0:0:
256,192,31100,1,4,0:0:0:0:
256,192,31997,1,12,0:0:0:0:
256,192,32323,1,12,0:0:0:0:
256,192,32567,1,12,0:0:0:0:
256,192,32893,1,12,0:0:0:0:
256,192,33138,1,12,0:0:0:0:
256,192,33464,1,12,0:0:0:0:
256,192,33709,1,12,0:0:0:0:
260,196,34768,1,8,0:0:0:0:
260,196,35094,1,8,0:0:0:0:
260,196,35339,1,8,0:0:0:0:
256,192,36073,1,8,0:0:0:0:
256,192,36480,1,8,0:0:0:0:
256,192,36643,1,8,0:0:0:0:
252,192,39007,1,4,0:0:0:0:
252,192,39578,1,4,0:0:0:0:
252,192,40719,1,0,0:0:0:0:
252,192,41045,1,0,0:0:0:0:
252,192,41372,1,0,0:0:0:0:
252,192,41698,1,0,0:0:0:0:
252,192,42187,1,8,0:0:0:0:
252,192,42757,1,8,0:0:0:0:
252,192,43491,1,12,0:0:0:0:
252,192,44306,1,4,0:0:0:0:
252,192,44632,1,4,0:0:0:0:
252,192,45855,1,0,0:0:0:0:
252,192,46507,1,8,0:0:0:0:
252,192,47241,1,12,0:0:0:0:
252,192,49442,1,0,0:0:0:0:
252,192,49850,1,0,0:0:0:0:
252,192,51073,1,4,0:0:0:0:
252,192,51399,1,4,0:0:0:0:
252,192,51643,1,4,0:0:0:0:
252,192,51888,1,4,0:0:0:0:
252,192,52458,1,8,0:0:0:0:
252,192,53029,1,8,0:0:0:0:
252,192,53681,1,8,0:0:0:0:
252,192,53926,1,8,0:0:0:0:
252,192,54170,1,8,0:0:0:0:
252,192,54497,1,8,0:0:0:0:
252,192,54904,1,8,0:0:0:0:
252,192,55067,1,8,0:0:0:0:
252,192,56208,1,12,0:0:0:0:
252,192,56616,1,12,0:0:0:0:
252,192,57757,1,0,0:0:0:0:
252,192,58165,1,0,0:0:0:0:
252,192,58491,1,0,0:0:0:0:
252,192,58736,1,0,0:0:0:0:
252,192,58899,1,0,0:0:0:0:
256,192,60040,12,0,60366,0:0:0:0:
256,192,60774,12,0,61100,0:0:0:0:
256,192,61426,12,0,61589,0:0:0:0:
272,192,62730,5,0,0:0:0:0:
272,192,63301,1,0,0:0:0:0:
272,192,64035,1,8,0:0:0:0:
272,192,64361,1,8,0:0:0:0:
264,192,64768,1,8,0:0:0:0:
264,192,65013,1,8,0:0:0:0:
264,192,67132,1,0,0:0:0:0:
264,192,67458,1,0,0:0:0:0:
264,192,67622,1,0,0:0:0:0:
264,192,67948,1,0,0:0:0:0:
264,192,69333,1,4,0:0:0:0:
264,192,69660,1,4,0:0:0:0:
264,192,70882,1,12,0:0:0:0:
264,192,71208,1,12,0:0:0:0:
264,192,71535,1,12,0:0:0:0:
264,192,72268,1,4,0:0:0:0:
264,192,72594,1,4,0:0:0:0:
264,192,72757,1,4,0:0:0:0:
264,192,73654,1,12,0:0:0:0:
264,192,73817,1,12,0:0:0:0:
264,192,74225,1,12,0:0:0:0:
264,192,74958,1,4,0:0:0:0:
264,192,75285,1,4,0:0:0:0:
264,192,75448,1,4,0:0:0:0:
264,192,75937,1,4,0:0:0:0:
252,192,76752,1,12,0:0:0:0:
252,192,77160,1,12,0:0:0:0:
252,192,77486,1,12,0:0:0:0:
252,192,77730,1,12,0:0:0:0:
252,192,78382,1,4,0:0:0:0:
252,192,78627,1,4,0:0:0:0:
252,192,79605,1,0,0:0:0:0:
252,192,79850,1,0,0:0:0:0:
252,192,80502,1,8,0:0:0:0:
252,192,80747,1,8,0:0:0:0:
252,192,81480,1,8,0:0:0:0:
252,192,83029,1,4,0:0:0:0:
252,192,83437,1,4,0:0:0:0:
252,192,83681,1,4,0:0:0:0:
252,192,84089,1,4,0:0:0:0:
252,192,84741,1,12,0:0:0:0:
252,192,84904,1,12,0:0:0:0:
252,192,85230,1,12,0:0:0:0:
252,192,85393,1,12,0:0:0:0:
252,192,86045,1,4,0:0:0:0:
252,192,86372,1,4,0:0:0:0:
256,192,87187,1,4,0:0:0:0:
256,192,87431,1,4,0:0:0:0:
256,192,88083,1,12,0:0:0:0:
256,192,88328,1,12,0:0:0:0:
256,192,88654,1,12,0:0:0:0:
256,192,89225,1,8,0:0:0:0:
256,192,90285,1,0,0:0:0:0:
256,192,91263,1,4,0:0:0:0:
256,192,92160,1,12,0:0:0:0:
256,192,92404,1,12,0:0:0:0:
256,192,92649,1,12,0:0:0:0:
256,192,92812,1,12,0:0:0:0:
256,192,92975,1,12,0:0:0:0:
256,192,93953,1,8,0:0:0:0:
256,192,95420,1,0,0:0:0:0:
256,192,95747,1,0,0:0:0:0:
256,192,95991,1,0,0:0:0:0:
256,192,96154,1,0,0:0:0:0:
256,192,96317,1,0,0:0:0:0:
256,192,96888,1,4,0:0:0:0:
256,192,97051,1,4,0:0:0:0:
256,192,97295,1,4,0:0:0:0:
256,192,97540,1,4,0:0:0:0:
256,192,97785,1,4,0:0:0:0:
256,192,97948,1,4,0:0:0:0:
256,192,99333,1,12,0:0:0:0:
256,192,99578,1,12,0:0:0:0:
256,192,99904,1,12,0:0:0:0:
256,192,100230,1,12,0:0:0:0:
256,192,100475,1,12,0:0:0:0:
256,192,100801,1,12,0:0:0:0:
256,192,101372,1,12,0:0:0:0:
272,224,102757,1,12,0:0:0:0:
272,172,103410,1,12,0:0:0:0:
256,192,104306,12,12,105203,0:0:0:0:
256,192,106263,12,0,106507,0:0:0:0:
144,152,108138,5,0,0:0:0:0:
144,172,108464,1,0,0:0:0:0:
172,180,108627,1,0,0:0:0:0:
208,184,108953,1,0,0:0:0:0:
228,188,109279,1,0,0:0:0:0:
252,196,110339,1,4,0:0:0:0:
252,196,110583,1,4,0:0:0:0:
252,196,110910,1,4,0:0:0:0:
252,196,111236,1,4,0:0:0:0:
252,196,111725,1,12,0:0:0:0:
252,196,112051,1,12,0:0:0:0:
252,196,113192,1,4,0:0:0:0:
252,196,113437,1,4,0:0:0:0:
252,196,113763,1,4,0:0:0:0:
252,196,114089,1,4,0:0:0:0:
252,196,114741,1,12,0:0:0:0:
252,196,115067,1,12,0:0:0:0:
252,196,115719,1,8,0:0:0:0:
252,196,116208,1,0,0:0:0:0:
252,196,116616,1,4,0:0:0:0:
252,196,117024,1,12,0:0:0:0:
252,196,118165,1,8,0:0:0:0:
252,196,118410,1,8,0:0:0:0:
252,196,118736,1,8,0:0:0:0:
252,196,118980,1,8,0:0:0:0:
252,196,119306,1,8,0:0:0:0:
252,196,119958,1,12,0:0:0:0:
252,196,120774,1,12,0:0:0:0:
252,196,121507,5,12,0:0:0:0:
252,196,122812,1,0,0:0:0:0:
252,196,123382,1,8,0:0:0:0:
248,192,124687,1,8,0:0:0:0:
248,192,125420,1,12,0:0:0:0:
248,192,126073,1,4,0:0:0:0:
248,192,126806,1,0,0:0:0:0:
248,192,127295,1,8,0:0:0:0:
248,192,127785,1,12,0:0:0:0:
248,192,128518,1,4,0:0:0:0:
248,192,129170,1,0,0:0:0:0:
248,192,129741,1,8,0:0:0:0:
248,192,130230,1,12,0:0:0:0:
248,192,130964,1,4,0:0:0:0:
248,192,131616,1,8,0:0:0:0:
248,192,132187,1,8,0:0:0:0:
248,192,132920,1,8,0:0:0:0:
248,192,133573,1,12,0:0:0:0:
248,192,134225,1,4,0:0:0:0:
248,192,134958,1,4,0:0:0:0:
248,192,135692,1,0,0:0:0:0:
248,192,136589,1,8,0:0:0:0:
248,192,137078,1,8,0:0:0:0:
248,192,137323,1,8,0:0:0:0:
248,192,137649,1,8,0:0:0:0:
248,192,138464,1,12,0:0:0:0:
248,192,138790,1,12,0:0:0:0:
248,192,139198,1,12,0:0:0:0:
248,192,139850,1,4,0:0:0:0:
248,192,140094,1,4,0:0:0:0:
248,192,140339,1,4,0:0:0:0:
248,192,141073,1,4,0:0:0:0:
248,192,141480,1,4,0:0:0:0:
248,192,141888,1,12,0:0:0:0:
248,192,142132,1,12,0:0:0:0:
248,192,142377,1,12,0:0:0:0:
248,192,142866,1,8,0:0:0:0:
248,192,143111,1,8,0:0:0:0:
248,192,143274,1,8,0:0:0:0:
252,192,144986,1,4,0:0:0:0:
252,192,145312,1,4,0:0:0:0:
252,192,145801,1,4,0:0:0:0:
252,192,146616,1,4,0:0:0:0:
252,192,146861,1,4,0:0:0:0:
252,192,147105,1,4,0:0:0:0:
252,192,147431,1,4,0:0:0:0:
252,192,147594,1,4,0:0:0:0:
80,220,149388,2,4,L|468:80,6,402.5
268,188,162431,1,4,0:0:0:0:
268,188,162676,1,4,0:0:0:0:
268,188,163002,1,4,0:0:0:0:
268,188,163165,1,4,0:0:0:0:
268,188,163491,1,4,0:0:0:0:
256,192,164714,12,4,165937,0:0:0:0:
256,192,184035,12,0,186480,0:0:0:0:
296,196,187948,5,0,0:0:0:0:
272,184,188274,1,0,0:0:0:0:
264,192,188600,1,0,0:0:0:0:
264,192,188763,1,0,0:0:0:0:
264,192,188926,1,0,0:0:0:0:
264,192,189333,1,0,0:0:0:0:
264,192,190067,1,8,0:0:0:0:
264,192,190230,1,8,0:0:0:0:
264,192,190556,1,8,0:0:0:0:
264,192,191535,1,4,0:0:0:0:
264,192,191698,1,4,0:0:0:0:
264,192,191861,1,4,0:0:0:0:
264,192,192594,1,12,0:0:0:0:
264,192,192757,1,12,0:0:0:0:
264,192,193002,1,12,0:0:0:0:
264,192,193491,1,8,0:0:0:0:
264,192,193736,1,8,0:0:0:0:
264,192,194143,1,0,0:0:0:0:
264,192,194632,1,4,0:0:0:0:
264,192,194958,1,12,0:0:0:0:
264,192,195285,1,8,0:0:0:0:
264,192,195692,1,4,0:0:0:0:
264,192,196100,1,12,0:0:0:0:
264,192,196589,1,0,0:0:0:0:
264,192,196997,1,4,0:0:0:0:
264,192,197323,1,12,0:0:0:0:
264,192,197567,1,0,0:0:0:0:
264,192,197975,1,4,0:0:0:0:
264,192,198301,1,8,0:0:0:0:
264,192,198627,1,0,0:0:0:0:
264,192,198872,1,4,0:0:0:0:
264,192,199116,1,12,0:0:0:0:
264,192,199524,1,0,0:0:0:0:
264,192,199768,1,4,0:0:0:0:
264,192,200094,1,12,0:0:0:0:
264,192,200339,1,0,0:0:0:0:
264,192,200583,1,4,0:0:0:0:
264,192,200828,1,8,0:0:0:0:
264,192,200991,1,4,0:0:0:0:
264,192,201236,1,12,0:0:0:0:
264,192,201399,1,0,0:0:0:0:
264,192,201643,1,12,0:0:0:0:
264,192,201888,1,8,0:0:0:0:
268,216,205393,1,0,0:0:0:0:
268,216,205556,1,0,0:0:0:0:
264,184,205964,1,0,0:0:0:0:
264,184,206453,1,0,0:0:0:0:
264,184,206779,1,0,0:0:0:0:
264,184,207350,5,0,0:0:0:0:
264,184,207513,1,0,0:0:0:0:
264,184,207757,1,0,0:0:0:0:
264,184,207920,1,0,0:0:0:0:
264,184,208980,1,4,0:0:0:0:
264,184,209469,1,4,0:0:0:0:
264,184,209632,1,4,0:0:0:0:
264,184,210122,1,12,0:0:0:0:
264,184,210366,1,12,0:0:0:0:
264,184,210611,1,12,0:0:0:0:
264,184,210855,1,12,0:0:0:0:
264,184,211670,1,4,0:0:0:0:
264,184,211833,1,4,0:0:0:0:
264,184,212078,1,4,0:0:0:0:
264,184,212812,1,4,0:0:0:0:
264,184,213056,1,4,0:0:0:0:
264,184,213627,1,12,0:0:0:0:
264,184,213872,1,12,0:0:0:0:
264,184,214035,1,12,0:0:0:0:
264,184,215094,1,4,0:0:0:0:
264,184,215257,1,4,0:0:0:0:
264,184,215420,1,4,0:0:0:0:
264,184,215910,1,12,0:0:0:0:
264,184,216073,1,12,0:0:0:0:
264,184,216806,1,4,0:0:0:0:
264,184,217132,1,4,0:0:0:0:
264,184,217785,1,12,0:0:0:0:
264,184,218029,1,12,0:0:0:0:
264,184,218192,1,12,0:0:0:0:
264,184,218600,1,12,0:0:0:0:
264,184,218763,1,12,0:0:0:0:
264,184,218926,1,12,0:0:0:0:
264,184,219904,1,4,0:0:0:0:
264,184,220149,1,4,0:0:0:0:
264,184,220556,1,4,0:0:0:0:
264,184,221208,1,12,0:0:0:0:
264,184,221535,1,12,0:0:0:0:
264,184,222187,1,4,0:0:0:0:
264,184,222431,1,4,0:0:0:0:
264,184,222920,1,4,0:0:0:0:
264,184,223247,1,4,0:0:0:0:
264,184,223573,1,4,0:0:0:0:
264,184,223736,1,4,0:0:0:0:
264,184,224469,1,12,0:0:0:0:
264,184,224877,1,12,0:0:0:0:
264,184,225040,1,12,0:0:0:0:
264,184,225448,1,12,0:0:0:0:
264,184,227812,1,12,0:0:0:0:
264,184,230502,1,4,0:0:0:0:
264,184,233111,1,12,0:0:0:0:
264,184,234578,1,12,0:0:0:0:
264,184,234904,1,12,0:0:0:0:
264,184,235312,1,12,0:0:0:0:
264,184,235393,1,12,0:0:0:0:
264,184,235801,1,12,0:0:0:0:
264,184,238247,1,4,0:0:0:0:
264,184,240855,1,12,0:0:0:0:
264,184,243464,1,4,0:0:0:0:
256,192,245747,12,4,248518,0:0:0:0:
