osu file format v14

[General]
AudioFilename: audio.mp3
AudioLeadIn: 0
PreviewTime: -1
Countdown: 0
SampleSet: Normal
StackLeniency: 0.6
Mode: 0
LetterboxInBreaks: 0
WidescreenStoryboard: 0

[Editor]
Bookmarks: 122041,18089,19057
DistanceSpacing: 1.8
BeatDivisor: 3
GridSize: 4
TimelineZoom: 0.5

[Metadata]
Title:I Feel It Coming (ft. Daft Punk)
TitleUnicode:I Feel It Coming (ft. Daft Punk)
Artist:The Weeknd
ArtistUnicode:The Weeknd
Creator:genialpokemon
Version:extremo
Source:
Tags:tags tags XD
BeatmapID:1510883
BeatmapSetID:712240

[Difficulty]
HPDrainRate:6
CircleSize:5
OverallDifficulty:6
ApproachRate:5
SliderMultiplier:1.4
SliderTickRate:1

[Events]
//Background and Video events
//Break Periods
2,166142,182798
//Storyboard Layer 0 (Background)
//Storyboard Layer 1 (Fail)
//Storyboard Layer 2 (Pass)
//Storyboard Layer 3 (Foreground)
//Storyboard Sound Samples

[TimingPoints]
20248.5,555.555555555556,4,1,0,100,1,0
62683,-100,4,1,0,100,0,1
83723,-100,4,1,0,100,0,0
124572,-100,4,1,0,100,0,1
144186,-100,4,1,0,100,0,0
187733,-100,4,1,0,100,0,1
226935,-100,4,1,0,100,0,0

[Colours]
Combo1 : 0,0,255
Combo2 : 5,240,5
Combo3 : 5,5,240
Combo4 : 240,5,5
Combo5 : 240,240,0
Combo6 : 236,244,244
Combo7 : 255,249,225

[HitObjects]
200,248,21359,5,4,3:0:0:0:
240,248,21637,1,4,3:0:0:0:
300,248,22054,1,4,3:0:0:0:
344,248,22331,1,4,3:0:0:0:
184,252,23026,1,8,0:0:0:0:
352,252,23859,1,8,0:0:0:0:
176,264,25248,1,8,3:0:0:0:
264,172,25665,1,8,3:0:0:0:
372,264,25942,1,8,3:0:0:0:
264,272,26498,1,8,3:0:0:0:
188,272,27748,5,2,0:0:0:0:
372,272,28026,1,2,0:0:0:0:
188,220,28304,1,2,0:0:0:0:
372,224,28720,1,2,0:0:0:0:
184,164,29137,1,2,0:0:0:0:
356,196,30665,1,8,2:0:0:0:
312,200,31081,1,8,2:0:0:0:
256,200,31359,5,8,2:0:0:0:
152,200,31637,1,8,2:0:0:0:
256,196,32887,1,0,0:0:0:0:
172,188,33304,1,0,0:0:0:0:
256,136,33581,1,0,0:0:0:0:
328,180,33998,1,0,0:0:0:0:
256,196,34554,1,0,0:0:0:0:
192,184,34970,1,8,0:0:0:0:
316,208,35526,5,8,2:0:0:0:
232,148,35942,1,8,2:0:0:0:
160,136,36220,1,8,2:0:0:0:
156,184,36637,2,8,P|180:260|352:272,1,245,8|8,2:0|2:0,2:0:0:0:
176,188,38165,2,0,P|360:260|376:228,1,280
392,148,40665,1,2,3:0:0:0:
396,268,41081,1,2,3:0:0:0:
132,264,41359,1,2,3:0:0:0:
64,304,41637,1,2,3:0:0:0:
156,324,42054,6,2,L|328:228,2,175,2|2|2,3:0|3:0|3:0,3:0:0:0:
160,324,43998,1,6,2:0:0:0:
244,280,44276,1,6,2:0:0:0:
400,264,44554,1,6,2:0:0:0:
412,264,45942,5,8,0:0:0:0:
272,256,46220,1,8,0:0:0:0:
136,272,46498,1,8,0:0:0:0:
80,232,46776,1,8,0:0:0:0:
72,216,47192,2,8,L|344:160,1,245
96,200,48720,1,4,2:0:0:0:
252,204,48998,1,4,2:0:0:0:
392,260,49276,1,4,2:0:0:0:
288,288,49415,1,4,2:0:0:0:
224,264,49831,1,4,2:0:0:0:
224,264,50109,1,4,2:0:0:0:
192,276,51081,1,0,0:0:0:0:
412,272,51359,5,0,0:0:0:0:
196,224,51776,1,0,0:0:0:0:
412,220,52054,1,0,0:0:0:0:
284,168,52331,1,0,0:0:0:0:
252,188,53026,1,0,0:0:0:0:
448,216,53720,1,0,0:0:0:0:
300,240,54276,1,0,0:0:0:0:
192,220,54692,1,0,0:0:0:0:
144,200,54970,1,0,0:0:0:0:
144,200,55109,1,0,0:0:0:0:
316,160,56220,1,4,2:0:0:0:
244,204,56637,1,4,2:0:0:0:
188,232,56915,1,4,2:0:0:0:
156,260,57192,1,4,2:0:0:0:
144,144,57609,2,4,P|332:276|372:224,1,350,4|4,2:0|2:0,2:0:0:0:
140,208,59415,1,4,2:0:0:0:
396,212,59692,1,4,2:0:0:0:
296,236,60109,1,4,2:0:0:0:
236,240,60248,1,4,2:0:0:0:
256,192,60526,12,4,60942,2:0:0:0:
256,192,61220,12,4,61637,2:0:0:0:
256,192,61915,12,4,62192,2:0:0:0:
160,200,62748,5,4,2:0:0:0:
284,204,63026,1,4,2:0:0:0:
292,260,63442,1,4,2:0:0:0:
180,260,63581,1,4,2:0:0:0:
180,260,64554,1,4,2:0:0:0:
332,264,64692,1,4,2:0:0:0:
328,236,64970,1,4,2:0:0:0:
332,204,65248,2,4,L|384:104,1,105,4|4,2:0|2:0,2:0:0:0:
288,184,66915,1,2,2:0:0:0:
440,212,67192,1,2,2:0:0:0:
404,264,67470,1,2,2:0:0:0:
352,272,67748,1,2,2:0:0:0:
240,288,68026,1,2,2:0:0:0:
112,264,69276,5,2,2:0:0:0:
296,236,69554,1,2,2:0:0:0:
364,248,69970,1,2,2:0:0:0:
372,264,70109,1,2,2:0:0:0:
360,304,70526,2,2,L|208:280,1,140,2|2,2:0|2:0,2:0:0:0:
244,200,71776,1,2,2:0:0:0:
364,196,72331,1,0,0:0:0:0:
276,264,73026,1,0,0:0:0:0:
164,232,73720,1,0,0:0:0:0:
260,184,74276,1,0,0:0:0:0:
344,184,74831,1,0,0:0:0:0:
308,256,75526,1,0,0:0:0:0:
244,268,76220,5,0,0:0:0:0:
128,248,76915,1,0,0:0:0:0:
100,200,77470,1,0,0:0:0:0:
128,160,78165,1,0,0:0:0:0:
220,148,78720,1,0,0:0:0:0:
304,160,79415,1,0,0:0:0:0:
364,184,80109,1,0,0:0:0:0:
368,236,80804,1,0,0:0:0:0:
288,276,81359,1,0,0:0:0:0:
84,192,81915,1,0,0:0:0:0:
272,60,82609,1,0,0:0:0:0:
444,192,83304,1,0,0:0:0:0:
256,292,84692,1,0,0:0:0:0:
56,180,85248,1,0,0:0:0:0:
256,64,85942,1,0,0:0:0:0:
388,132,87192,1,0,0:0:0:0:
384,216,87887,1,0,0:0:0:0:
392,312,88442,1,0,0:0:0:0:
120,180,89692,2,0,P|180:244|400:256,1,315
424,196,92331,5,0,0:0:0:0:
280,208,93026,1,0,0:0:0:0:
128,196,93720,1,0,0:0:0:0:
148,96,94970,1,0,0:0:0:0:
280,300,95665,1,0,0:0:0:0:
384,140,96220,1,0,0:0:0:0:
120,160,97609,1,0,0:0:0:0:
272,184,98165,1,0,0:0:0:0:
380,148,98859,1,0,0:0:0:0:
248,316,100109,1,0,0:0:0:0:
132,172,100665,1,0,0:0:0:0:
256,60,101359,1,0,0:0:0:0:
396,184,102748,1,0,0:0:0:0:
376,240,103026,1,0,0:0:0:0:
328,276,103442,1,0,0:0:0:0:
280,292,103720,1,0,0:0:0:0:
200,288,104137,1,0,0:0:0:0:
96,248,105248,1,0,0:0:0:0:
132,192,105804,5,0,0:0:0:0:
208,152,106081,1,0,0:0:0:0:
300,168,106359,1,0,0:0:0:0:
400,252,107887,1,0,0:0:0:0:
356,304,108165,1,0,0:0:0:0:
272,312,108581,1,0,0:0:0:0:
216,304,108859,1,0,0:0:0:0:
168,288,109137,1,0,0:0:0:0:
120,228,109692,1,0,0:0:0:0:
148,168,110526,1,0,0:0:0:0:
256,184,110804,1,0,0:0:0:0:
284,200,111081,1,0,0:0:0:0:
376,272,111915,1,0,0:0:0:0:
376,272,112054,1,0,0:0:0:0:
268,300,113026,1,0,0:0:0:0:
204,296,113442,1,0,0:0:0:0:
144,256,113720,1,0,0:0:0:0:
136,232,113998,1,0,0:0:0:0:
136,168,114415,1,0,0:0:0:0:
260,152,114970,1,0,0:0:0:0:
292,180,115665,5,0,0:0:0:0:
396,220,116081,1,0,0:0:0:0:
416,260,116220,1,0,0:0:0:0:
400,288,116498,1,0,0:0:0:0:
364,300,116915,1,0,0:0:0:0:
364,300,117054,1,0,0:0:0:0:
72,256,118165,1,0,0:0:0:0:
152,228,118581,1,0,0:0:0:0:
264,232,118859,1,0,0:0:0:0:
180,252,119554,2,0,P|400:252|424:188,1,315
256,192,122054,12,0,122609,0:0:0:0:
256,192,122748,12,0,123304,0:0:0:0:
256,192,123304,12,0,123859,0:0:0:0:
180,168,124692,5,0,0:0:0:0:
384,272,125248,1,0,0:0:0:0:
164,300,125942,1,0,0:0:0:0:
376,164,126498,1,0,0:0:0:0:
144,156,127192,1,0,0:0:0:0:
348,296,127887,1,0,0:0:0:0:
152,284,128442,1,0,0:0:0:0:
404,152,129137,1,0,0:0:0:0:
176,160,129692,1,0,0:0:0:0:
176,276,130526,1,0,0:0:0:0:
176,276,131220,1,0,0:0:0:0:
328,280,131498,1,0,0:0:0:0:
100,152,131776,1,0,0:0:0:0:
380,156,132054,1,0,0:0:0:0:
240,88,132470,1,0,0:0:0:0:
200,172,133442,2,0,P|208:112|260:220,1,350
188,300,135526,2,0,L|420:196,1,245
420,196,137054,2,0,L|288:196,1,105
316,196,137748,2,0,L|148:200,1,140
256,144,138442,2,0,P|160:240|260:144,1,595
236,152,141776,1,0,0:0:0:0:
84,232,142054,1,0,0:0:0:0:
396,248,142331,1,0,0:0:0:0:
236,64,142748,5,0,0:0:0:0:
236,240,143026,1,0,0:0:0:0:
364,156,143304,1,0,0:0:0:0:
136,148,143581,1,0,0:0:0:0:
248,72,143859,1,0,0:0:0:0:
244,236,144137,1,0,0:0:0:0:
352,140,144415,1,0,0:0:0:0:
380,236,144554,5,0,0:0:0:0:
220,264,144970,1,0,0:0:0:0:
120,208,145248,1,0,0:0:0:0:
188,112,145387,1,0,0:0:0:0:
300,128,145526,1,0,0:0:0:0:
428,232,145804,1,0,0:0:0:0:
148,240,146776,1,0,0:0:0:0:
248,180,147192,1,0,0:0:0:0:
384,192,147331,1,0,0:0:0:0:
336,256,147609,1,0,0:0:0:0:
164,240,147887,1,0,0:0:0:0:
144,144,149276,1,0,0:0:0:0:
368,160,149554,1,0,0:0:0:0:
376,232,149970,1,0,0:0:0:0:
352,256,150109,1,0,0:0:0:0:
276,276,150526,1,0,0:0:0:0:
256,264,151915,5,0,0:0:0:0:
136,232,152192,1,0,0:0:0:0:
108,176,152470,1,0,0:0:0:0:
180,156,152609,1,0,0:0:0:0:
328,160,153026,1,0,0:0:0:0:
376,204,154554,1,0,0:0:0:0:
328,240,154692,1,0,0:0:0:0:
276,256,155109,1,0,0:0:0:0:
228,244,155248,1,0,0:0:0:0:
144,248,155665,1,0,0:0:0:0:
92,204,157054,1,0,0:0:0:0:
116,168,157331,1,0,0:0:0:0:
160,144,157609,1,0,0:0:0:0:
236,152,157748,1,0,0:0:0:0:
240,148,158026,2,0,L|428:196,1,175
176,168,159692,2,0,L|436:236,1,245
288,192,161498,1,0,0:0:0:0:
172,232,162054,1,0,0:0:0:0:
224,224,162192,1,0,0:0:0:0:
376,252,162470,1,0,0:0:0:0:
308,284,162887,1,0,0:0:0:0:
264,284,163026,1,0,0:0:0:0:
180,264,163442,1,0,0:0:0:0:
472,120,164554,5,0,0:0:0:0:
240,220,164831,1,0,0:0:0:0:
472,220,165248,1,0,0:0:0:0:
236,144,165665,1,0,0:0:0:0:
368,144,165942,1,0,0:0:0:0:
256,192,183998,12,0,185248,0:0:0:0:
184,260,186637,5,0,0:0:0:0:
392,268,187331,1,0,0:0:0:0:
188,128,187887,1,0,0:0:0:0:
392,156,188442,1,0,0:0:0:0:
244,260,189137,1,0,0:0:0:0:
164,220,189692,1,0,0:0:0:0:
320,144,190387,1,0,0:0:0:0:
364,260,190942,1,0,0:0:0:0:
200,272,191776,1,0,0:0:0:0:
272,152,192331,1,0,0:0:0:0:
368,268,192887,1,0,0:0:0:0:
300,212,193026,1,0,0:0:0:0:
272,208,193581,1,0,0:0:0:0:
192,212,193859,1,0,0:0:0:0:
168,252,194137,1,0,0:0:0:0:
292,320,194415,1,0,0:0:0:0:
312,300,195248,2,0,P|224:172|188:192,1,210
176,240,196637,2,0,L|448:160,1,280
252,304,198304,2,0,B|256:64|192:64|328:68,2,280
184,232,201359,2,0,L|396:184,1,210
432,156,203026,6,0,B|432:312|340:288|300:248,2,210
136,272,205248,2,0,B|336:144|336:188|320:164,2,210
380,168,207192,1,0,0:0:0:0:
288,236,207470,1,0,0:0:0:0:
136,236,207748,1,0,0:0:0:0:
132,140,208026,1,0,0:0:0:0:
344,132,208304,1,0,0:0:0:0:
416,216,208581,1,0,0:0:0:0:
64,272,209415,2,0,B|400:228|380:256|404:252,2,280
144,168,211915,2,0,B|196:104|216:144|224:88|244:184|248:108|268:160|264:92|276:176|276:88|288:184|324:104|324:160|360:108|368:184|344:232,1,280
112,100,213859,2,0,B|416:96|424:108|412:340|108:316,1,630
120,304,216637,1,0,0:0:0:0:
280,256,216915,1,0,0:0:0:0:
408,220,217192,1,0,0:0:0:0:
344,208,217470,1,0,0:0:0:0:
216,164,217748,1,0,0:0:0:0:
356,128,218026,1,0,0:0:0:0:
432,176,218304,1,0,0:0:0:0:
352,248,218581,1,0,0:0:0:0:
292,268,218859,1,0,0:0:0:0:
268,292,220248,1,0,0:0:0:0:
304,260,220804,1,0,0:0:0:0:
240,236,221359,1,0,0:0:0:0:
292,188,221915,1,0,0:0:0:0:
328,196,222748,5,0,0:0:0:0:
208,240,223304,1,0,0:0:0:0:
96,168,223859,1,0,0:0:0:0:
364,108,224692,1,0,0:0:0:0:
136,172,225804,2,0,P|316:224|400:176,1,280
224,216,227748,1,0,0:0:0:0:
256,192,230526,1,0,0:0:0:0:
256,292,233026,1,0,0:0:0:0:
252,88,235526,1,0,0:0:0:0:
232,100,235804,1,0,0:0:0:0:
124,192,238304,5,0,0:0:0:0:
256,312,240804,1,0,0:0:0:0:
424,192,243304,1,0,0:0:0:0:
256,192,244970,12,0,250804,0:0:0:0:
