osu file format v14

[General]
AudioFilename: audio.mp3
AudioLeadIn: 0
PreviewTime: -1
Countdown: 0
SampleSet: None
StackLeniency: 0.6
Mode: 0
LetterboxInBreaks: 0
SkinPreference:Geometry Dash Skin
WidescreenStoryboard: 0

[Editor]
Bookmarks: 122041
DistanceSpacing: 1.8
BeatDivisor: 4
GridSize: 4
TimelineZoom: 0.5

[Metadata]
Title:I Feel It Coming (ft. Daft Punk)
TitleUnicode:I Feel It Coming (ft. Daft Punk)
Artist:The Weeknd
ArtistUnicode:The Weeknd
Creator:genialpokemon
Version:Normal
Source:
Tags:tags tags XD
BeatmapID:1510125
BeatmapSetID:712240

[Difficulty]
HPDrainRate:4
CircleSize:3
OverallDifficulty:3
ApproachRate:3
SliderMultiplier:0.5
SliderTickRate:2

[Events]
//Background and Video events
//Break Periods
2,166119,182423
//Storyboard Layer 0 (Background)
//Storyboard Layer 1 (Fail)
//Storyboard Layer 2 (Pass)
//Storyboard Layer 3 (Foreground)
//Storyboard Sound Samples

[TimingPoints]
20125.2523364486,560.747663551402,4,1,0,100,1,0

[Colours]
Combo1 : 255,249,225
Combo2 : 5,240,5
Combo3 : 5,5,240
Combo4 : 240,5,5
Combo5 : 240,240,0
Combo6 : 236,244,244

[HitObjects]
168,204,20826,5,0,0:0:0:0:
180,200,22648,1,0,0:0:0:0:
336,184,23349,1,0,0:0:0:0:
240,152,23910,1,0,0:0:0:0:
400,156,25171,1,0,0:0:0:0:
276,156,25872,1,0,0:0:0:0:
368,152,26573,1,0,0:0:0:0:
192,152,27555,1,0,0:0:0:0:
336,160,27975,1,0,0:0:0:0:
416,160,28396,1,0,0:0:0:0:
380,244,28676,1,0,0:0:0:0:
288,256,29237,1,0,0:0:0:0:
160,212,30358,1,0,0:0:0:0:
208,184,30919,1,0,0:0:0:0:
332,164,31760,1,0,0:0:0:0:
160,160,33022,5,0,0:0:0:0:
328,164,33583,1,0,0:0:0:0:
160,212,34284,1,0,0:0:0:0:
424,192,35545,5,0,0:0:0:0:
204,208,36106,1,0,0:0:0:0:
368,252,36807,1,0,0:0:0:0:
100,204,38069,1,0,0:0:0:0:
312,160,38629,1,0,0:0:0:0:
124,136,39471,1,0,0:0:0:0:
332,156,40872,5,0,0:0:0:0:
196,192,41293,1,0,0:0:0:0:
104,168,41994,1,0,0:0:0:0:
228,136,42695,1,0,0:0:0:0:
160,180,44237,2,0,P|324:176|344:172,1,175
216,200,47181,2,0,L|400:100,1,200
92,116,49844,2,0,L|292:264,1,237.5
48,176,53629,1,0,0:0:0:0:
396,152,54611,1,0,0:0:0:0:
256,148,55031,1,0,0:0:0:0:
416,188,56153,1,0,0:0:0:0:
224,192,57555,1,0,0:0:0:0:
372,140,59097,5,0,0:0:0:0:
216,168,59377,1,0,0:0:0:0:
184,164,59798,1,0,0:0:0:0:
136,172,60218,1,0,0:0:0:0:
96,240,61760,2,0,P|328:184|344:140,1,312.5
120,64,65545,2,0,L|312:64,1,187.5
76,252,68910,2,0,P|288:252|296:220,1,300
84,284,74237,2,0,L|236:116,1,225
160,100,77321,2,0,L|340:252,1,225
256,192,80826,12,0,81947,0:0:0:0:
148,172,83349,5,0,0:0:0:0:
332,188,83910,1,0,0:0:0:0:
168,284,84611,1,0,0:0:0:0:
316,236,85312,1,0,0:0:0:0:
228,176,85872,1,0,0:0:0:0:
260,140,87134,5,0,0:0:0:0:
124,168,87835,1,0,0:0:0:0:
344,208,88396,1,0,0:0:0:0:
224,196,90218,5,0,0:0:0:0:
404,96,91059,1,0,0:0:0:0:
188,224,92321,1,0,0:0:0:0:
236,216,92601,1,0,0:0:0:0:
248,208,93022,1,0,0:0:0:0:
312,188,93302,1,0,0:0:0:0:
340,188,93583,1,0,0:0:0:0:
72,216,94844,2,0,L|324:168,1,250
312,168,97928,1,0,0:0:0:0:
136,192,99891,1,0,0:0:0:0:
200,192,100592,1,0,0:0:0:0:
144,156,101433,1,0,0:0:0:0:
256,192,103957,12,0,104517,0:0:0:0:
212,184,106200,5,0,0:0:0:0:
452,180,106480,1,0,0:0:0:0:
124,208,107882,1,0,0:0:0:0:
256,192,109143,12,0,110545,0:0:0:0:
160,172,111807,5,0,0:0:0:0:
364,168,112928,1,0,0:0:0:0:
136,216,113349,1,0,0:0:0:0:
216,168,113629,1,0,0:0:0:0:
284,156,114050,1,0,0:0:0:0:
396,160,115592,5,0,0:0:0:0:
272,180,115872,1,0,0:0:0:0:
208,184,116153,1,0,0:0:0:0:
184,164,116573,1,0,0:0:0:0:
212,128,116994,1,0,0:0:0:0:
360,192,118115,1,0,0:0:0:0:
196,224,118676,1,0,0:0:0:0:
348,128,119377,1,0,0:0:0:0:
148,156,120639,1,0,0:0:0:0:
256,192,121760,12,0,124844,0:0:0:0:
196,152,126246,5,0,0:0:0:0:
380,168,126947,1,0,0:0:0:0:
116,228,127368,1,0,0:0:0:0:
404,148,128629,5,0,0:0:0:0:
248,156,128910,1,0,0:0:0:0:
128,172,129471,1,0,0:0:0:0:
264,216,129891,1,0,0:0:0:0:
240,232,131153,5,0,0:0:0:0:
204,216,131573,1,0,0:0:0:0:
324,176,132134,1,0,0:0:0:0:
228,176,132555,1,0,0:0:0:0:
144,232,134657,5,0,0:0:0:0:
324,124,135078,1,0,0:0:0:0:
324,284,137181,5,0,0:0:0:0:
196,144,137742,1,0,0:0:0:0:
144,268,139844,2,0,L|364:120,1,262.5
360,120,143069,1,0,0:0:0:0:
152,248,145312,5,0,0:0:0:0:
444,252,146714,1,0,0:0:0:0:
176,168,147555,1,0,0:0:0:0:
404,144,147975,1,0,0:0:0:0:
256,192,149517,12,0,152882,0:0:0:0:
44,240,154985,6,0,P|432:224|472:200,1,437.5
256,192,164517,12,0,165919,0:0:0:0:
256,192,183863,12,0,185265,0:0:0:0:
180,160,186527,5,0,0:0:0:0:
388,168,187087,1,0,0:0:0:0:
232,208,187788,1,0,0:0:0:0:
364,160,189050,1,0,0:0:0:0:
204,152,189751,1,0,0:0:0:0:
436,184,190312,1,0,0:0:0:0:
156,228,191573,1,0,0:0:0:0:
384,208,192274,1,0,0:0:0:0:
164,188,192975,1,0,0:0:0:0:
400,176,194237,5,0,0:0:0:0:
160,200,194938,1,0,0:0:0:0:
392,172,195499,1,0,0:0:0:0:
148,280,196900,2,0,L|336:188,1,200
92,148,199985,1,0,0:0:0:0:
408,144,200966,1,0,0:0:0:0:
260,220,202087,1,0,0:0:0:0:
104,144,203069,1,0,0:0:0:0:
432,168,204611,5,0,0:0:0:0:
216,196,205031,1,0,0:0:0:0:
184,144,205732,1,0,0:0:0:0:
256,192,207134,12,0,208536,0:0:0:0:
56,260,210779,6,0,P|288:160|284:152,1,400
92,164,217508,1,0,0:0:0:0:
292,68,218069,1,0,0:0:0:0:
216,216,218770,1,0,0:0:0:0:
24,168,220031,1,0,0:0:0:0:
492,152,221153,1,0,0:0:0:0:
248,188,222414,1,0,0:0:0:0:
96,136,223115,1,0,0:0:0:0:
388,124,223676,1,0,0:0:0:0:
264,240,224517,1,0,0:0:0:0:
124,184,225919,5,0,0:0:0:0:
256,112,226900,1,0,0:0:0:0:
332,180,227882,1,0,0:0:0:0:
72,264,229564,2,0,L|256:172,1,200
252,176,233069,1,0,0:0:0:0:
148,128,234330,1,0,0:0:0:0:
352,148,235031,1,0,0:0:0:0:
500,240,235732,1,0,0:0:0:0:
260,176,238115,1,0,0:0:0:0:
88,280,239798,2,0,P|300:156|308:228,1,487.5
180,208,246246,1,0,0:0:0:0:
320,232,247087,1,0,0:0:0:0:
