osu file format v14

[General]
AudioFilename: audio.mp3
AudioLeadIn: 0
PreviewTime: -1
Countdown: 0
SampleSet: Normal
StackLeniency: 0.5
Mode: 0
LetterboxInBreaks: 0
WidescreenStoryboard: 0

[Editor]
Bookmarks: 122041
DistanceSpacing: 1.8
BeatDivisor: 3
GridSize: 4
TimelineZoom: 0.5

[Metadata]
Title:I Feel It Coming (ft. Daft Punk)
TitleUnicode:I Feel It Coming (ft. Daft Punk)
Artist:The Weeknd
ArtistUnicode:The Weeknd
Creator:genialpokemon
Version:Insane
Source:
Tags:tags tags XD
BeatmapID:1510110
BeatmapSetID:712240

[Difficulty]
HPDrainRate:6
CircleSize:4
OverallDifficulty:4
ApproachRate:5
SliderMultiplier:0.8
SliderTickRate:1

[Events]
//Background and Video events
//Break Periods
//Storyboard Layer 0 (Background)
//Storyboard Layer 1 (Fail)
//Storyboard Layer 2 (Pass)
//Storyboard Layer 3 (Foreground)
//Storyboard Sound Samples

[TimingPoints]
20073.8629441624,304.568527918782,4,1,0,100,1,0

[Colours]
Combo1 : 225,254,255
Combo2 : 5,240,5
Combo3 : 5,5,240
Combo4 : 240,5,5
Combo5 : 240,240,0
Combo6 : 128,128,255

[HitObjects]
80,212,21444,5,0,0:0:0:0:
152,236,21596,1,0,0:0:0:0:
216,232,21825,1,0,0:0:0:0:
264,184,22053,1,0,0:0:0:0:
284,152,22358,1,0,0:0:0:0:
256,120,22814,1,0,0:0:0:0:
248,120,22967,1,0,0:0:0:0:
200,136,23195,1,0,0:0:0:0:
160,196,23347,1,0,0:0:0:0:
212,220,23728,1,0,0:0:0:0:
304,228,24490,5,0,0:0:0:0:
228,152,25327,1,0,0:0:0:0:
336,144,25556,1,0,0:0:0:0:
336,220,25784,1,0,0:0:0:0:
236,240,26165,1,0,0:0:0:0:
176,224,26393,1,0,0:0:0:0:
212,168,26774,1,0,0:0:0:0:
368,224,27688,5,0,0:0:0:0:
312,208,27916,1,0,0:0:0:0:
392,184,28144,1,0,0:0:0:0:
368,180,28525,1,0,0:0:0:0:
336,204,28754,1,0,0:0:0:0:
296,224,29210,1,0,0:0:0:0:
200,200,30581,1,0,0:0:0:0:
208,180,30733,1,0,0:0:0:0:
260,152,30886,1,0,0:0:0:0:
300,172,31114,1,0,0:0:0:0:
308,240,31419,1,0,0:0:0:0:
308,240,31647,1,0,0:0:0:0:
116,208,32332,1,0,0:0:0:0:
100,228,33627,1,0,0:0:0:0:
424,176,34084,1,0,0:0:0:0:
116,216,34540,1,0,0:0:0:0:
392,112,35073,1,0,0:0:0:0:
208,208,35682,1,0,0:0:0:0:
264,204,35835,1,0,0:0:0:0:
304,216,36063,1,0,0:0:0:0:
328,236,36215,1,0,0:0:0:0:
300,288,36444,1,0,0:0:0:0:
248,292,36672,1,0,0:0:0:0:
168,256,36901,1,0,0:0:0:0:
68,232,38043,2,0,L|148:204,2,80
164,208,40175,2,0,L|276:152,3,120
196,172,43373,1,0,0:0:0:0:
296,224,43754,1,0,0:0:0:0:
292,296,43982,1,0,0:0:0:0:
192,284,44287,1,0,0:0:0:0:
272,156,44591,1,0,0:0:0:0:
364,224,46038,5,0,0:0:0:0:
196,152,46266,1,0,0:0:0:0:
340,96,46647,1,0,0:0:0:0:
324,192,46952,1,0,0:0:0:0:
168,176,47637,2,0,L|340:56,1,200
164,152,49693,1,0,0:0:0:0:
320,172,49997,1,0,0:0:0:0:
320,268,51063,1,0,0:0:0:0:
176,192,51368,1,0,0:0:0:0:
352,96,51672,1,0,0:0:0:0:
404,204,51901,1,0,0:0:0:0:
308,320,52205,1,0,0:0:0:0:
148,236,52738,2,0,L|396:64,1,300
64,104,54946,2,0,L|232:232,1,200
60,320,57535,2,0,L|328:136,1,320
256,192,60276,12,0,61799,0:0:0:0:
148,200,62561,5,0,0:0:0:0:
324,160,62941,1,0,0:0:0:0:
288,240,63246,1,0,0:0:0:0:
260,252,63474,1,0,0:0:0:0:
176,232,63703,1,0,0:0:0:0:
440,192,64236,5,0,0:0:0:0:
352,228,64540,1,0,0:0:0:0:
232,224,64921,1,0,0:0:0:0:
388,76,65150,1,0,0:0:0:0:
424,172,65606,1,0,0:0:0:0:
128,240,66292,5,0,0:0:0:0:
232,80,66672,1,0,0:0:0:0:
384,152,66977,1,0,0:0:0:0:
272,260,67281,1,0,0:0:0:0:
120,228,67738,1,0,0:0:0:0:
320,64,68043,1,0,0:0:0:0:
112,264,69794,6,0,P|352:192|292:120,1,480
56,156,72459,2,0,L|324:180,1,260
148,192,74439,1,0,0:0:0:0:
376,212,74743,1,0,0:0:0:0:
232,288,75429,1,0,0:0:0:0:
132,168,75809,1,0,0:0:0:0:
260,104,76266,1,0,0:0:0:0:
376,200,76647,1,0,0:0:0:0:
260,320,76952,1,0,0:0:0:0:
188,176,77637,5,0,0:0:0:0:
304,176,77941,1,0,0:0:0:0:
368,264,78246,1,0,0:0:0:0:
32,252,79464,2,0,L|240:180,1,220
216,176,81215,1,0,0:0:0:0:
344,212,82281,1,0,0:0:0:0:
256,196,82814,5,0,0:0:0:0:
168,104,83347,1,0,0:0:0:0:
384,132,83957,1,0,0:0:0:0:
180,232,84337,1,0,0:0:0:0:
116,168,84642,1,0,0:0:0:0:
220,124,84946,1,0,0:0:0:0:
296,168,85099,1,0,0:0:0:0:
292,244,85403,1,0,0:0:0:0:
224,232,85708,1,0,0:0:0:0:
116,184,85936,1,0,0:0:0:0:
236,116,86393,1,0,0:0:0:0:
376,192,87231,5,0,0:0:0:0:
300,232,87535,1,0,0:0:0:0:
208,208,87764,1,0,0:0:0:0:
200,176,88068,1,0,0:0:0:0:
248,120,88373,1,0,0:0:0:0:
48,212,89743,2,0,L|208:188,3,160
140,148,92561,1,0,0:0:0:0:
280,176,92865,1,0,0:0:0:0:
312,192,93170,1,0,0:0:0:0:
284,252,93551,1,0,0:0:0:0:
220,176,94997,1,0,0:0:0:0:
320,204,95378,1,0,0:0:0:0:
208,240,95987,5,0,0:0:0:0:
164,184,96368,1,0,0:0:0:0:
180,176,97586,1,0,0:0:0:0:
256,212,97738,1,0,0:0:0:0:
292,236,97967,1,0,0:0:0:0:
280,284,98195,1,0,0:0:0:0:
180,272,98424,1,0,0:0:0:0:
164,268,98652,1,0,0:0:0:0:
40,284,99946,2,0,L|352:88,1,360
256,208,102688,1,0,0:0:0:0:
336,224,103373,1,0,0:0:0:0:
160,224,103982,5,0,0:0:0:0:
136,132,104667,1,0,0:0:0:0:
296,72,105276,1,0,0:0:0:0:
272,280,105657,1,0,0:0:0:0:
168,284,105886,1,0,0:0:0:0:
268,128,106266,1,0,0:0:0:0:
360,168,106647,1,0,0:0:0:0:
280,280,107865,5,0,0:0:0:0:
112,288,108474,1,0,0:0:0:0:
308,56,109160,1,0,0:0:0:0:
300,288,109845,1,0,0:0:0:0:
200,288,110378,1,0,0:0:0:0:
204,224,110683,1,0,0:0:0:0:
284,216,111139,1,0,0:0:0:0:
152,168,111825,6,0,L|224:144,1,60
84,184,112967,5,0,0:0:0:0:
204,172,113347,1,0,0:0:0:0:
60,160,113957,1,0,0:0:0:0:
152,168,114185,1,0,0:0:0:0:
256,152,114413,1,0,0:0:0:0:
324,128,115023,1,0,0:0:0:0:
168,188,115556,1,0,0:0:0:0:
320,144,115936,1,0,0:0:0:0:
336,240,116165,1,0,0:0:0:0:
224,288,116469,1,0,0:0:0:0:
172,252,116774,1,0,0:0:0:0:
80,184,117078,1,0,0:0:0:0:
92,164,117231,1,0,0:0:0:0:
308,228,118221,1,0,0:0:0:0:
252,220,118525,1,0,0:0:0:0:
148,192,118754,1,0,0:0:0:0:
204,132,119058,1,0,0:0:0:0:
232,136,119287,1,0,0:0:0:0:
380,144,119515,1,0,0:0:0:0:
188,196,120886,5,0,0:0:0:0:
260,144,121190,1,0,0:0:0:0:
392,172,121495,1,0,0:0:0:0:
308,264,121875,1,0,0:0:0:0:
144,192,122180,1,0,0:0:0:0:
324,136,122713,1,0,0:0:0:0:
372,232,123322,1,0,0:0:0:0:
372,232,123855,1,0,0:0:0:0:
116,220,124236,1,0,0:0:0:0:
132,200,124464,1,0,0:0:0:0:
308,160,124693,1,0,0:0:0:0:
320,240,125226,1,0,0:0:0:0:
168,256,125911,1,0,0:0:0:0:
280,196,126215,1,0,0:0:0:0:
352,188,126520,1,0,0:0:0:0:
336,252,126825,1,0,0:0:0:0:
296,268,127205,1,0,0:0:0:0:
228,212,127738,1,0,0:0:0:0:
228,212,127967,1,0,0:0:0:0:
284,168,128347,1,0,0:0:0:0:
340,148,128576,1,0,0:0:0:0:
376,168,128804,1,0,0:0:0:0:
216,244,129413,5,0,0:0:0:0:
208,248,129642,1,0,0:0:0:0:
192,180,129946,1,0,0:0:0:0:
332,136,130403,1,0,0:0:0:0:
368,284,131012,1,0,0:0:0:0:
252,132,131850,1,0,0:0:0:0:
352,176,132231,1,0,0:0:0:0:
296,268,132535,1,0,0:0:0:0:
80,176,133601,2,0,L|424:120,1,340
52,184,135581,1,0,0:0:0:0:
428,216,136266,1,0,0:0:0:0:
112,232,137485,2,0,L|296:164,1,180
80,236,139312,6,0,L|464:60,1,420
52,156,141748,1,0,0:0:0:0:
192,176,142281,1,0,0:0:0:0:
392,200,142662,1,0,0:0:0:0:
280,244,144185,5,0,0:0:0:0:
280,244,144413,1,0,0:0:0:0:
280,244,144718,1,0,0:0:0:0:
280,244,144946,1,0,0:0:0:0:
280,244,145099,1,0,0:0:0:0:
280,244,145403,1,0,0:0:0:0:
88,248,146622,1,0,0:0:0:0:
368,136,146926,1,0,0:0:0:0:
132,304,147155,1,0,0:0:0:0:
380,4,147535,1,0,0:0:0:0:
328,160,147992,1,0,0:0:0:0:
168,236,150226,2,0,L|388:104,1,240
100,272,152865,6,0,L|384:64,1,346.666666666667
96,64,155403,2,0,L|480:352,1,480
148,128,157941,1,0,0:0:0:0:
312,152,158347,1,0,0:0:0:0:
244,240,158754,1,0,0:0:0:0:
136,220,158957,1,0,0:0:0:0:
160,160,159261,1,0,0:0:0:0:
288,180,159566,1,0,0:0:0:0:
296,248,159870,1,0,0:0:0:0:
256,192,160987,12,0,165860,0:0:0:0:
364,184,167281,5,0,0:0:0:0:
216,248,168195,1,0,0:0:0:0:
112,188,168703,1,0,0:0:0:0:
360,172,169718,1,0,0:0:0:0:
292,232,170023,1,0,0:0:0:0:
188,252,170327,1,0,0:0:0:0:
156,200,170632,1,0,0:0:0:0:
284,116,170936,1,0,0:0:0:0:
336,272,171748,1,0,0:0:0:0:
136,232,172256,1,0,0:0:0:0:
248,112,172561,1,0,0:0:0:0:
368,184,172865,1,0,0:0:0:0:
324,260,173170,1,0,0:0:0:0:
240,292,173474,1,0,0:0:0:0:
104,212,174084,5,0,0:0:0:0:
364,180,175099,1,0,0:0:0:0:
324,264,175302,1,0,0:0:0:0:
184,260,175708,1,0,0:0:0:0:
56,208,176012,1,0,0:0:0:0:
236,120,176317,1,0,0:0:0:0:
392,212,177535,1,0,0:0:0:0:
292,264,177840,1,0,0:0:0:0:
284,168,178144,1,0,0:0:0:0:
440,144,178551,1,0,0:0:0:0:
324,340,179058,5,0,0:0:0:0:
96,164,180175,1,0,0:0:0:0:
364,296,180886,5,0,0:0:0:0:
500,120,181596,5,0,0:0:0:0:
88,208,182104,1,0,0:0:0:0:
256,192,184134,12,0,185962,0:0:0:0:
180,172,187992,5,0,0:0:0:0:
268,160,188398,1,0,0:0:0:0:
240,208,188804,1,0,0:0:0:0:
156,216,189210,1,0,0:0:0:0:
336,160,189617,1,0,0:0:0:0:
348,216,189921,1,0,0:0:0:0:
288,260,190124,1,0,0:0:0:0:
216,240,190530,1,0,0:0:0:0:
184,184,190835,1,0,0:0:0:0:
328,152,191241,1,0,0:0:0:0:
320,264,191545,1,0,0:0:0:0:
204,288,193068,2,0,L|368:144,1,213.333333333333
76,280,194896,6,0,L|264:192,1,186.666666666667
152,136,196114,2,0,L|496:324,1,373.333333333333
116,304,198043,2,0,L|272:88,1,266.666666666667
384,108,199363,2,0,L|244:348,1,266.666666666667
72,320,200784,2,0,L|264:24,1,346.666666666667
152,184,203119,1,0,0:0:0:0:
368,128,203525,1,0,0:0:0:0:
280,216,203830,1,0,0:0:0:0:
164,224,204134,1,0,0:0:0:0:
188,184,204337,1,0,0:0:0:0:
280,148,204743,1,0,0:0:0:0:
216,136,205962,5,0,0:0:0:0:
244,216,206266,1,0,0:0:0:0:
248,224,206469,1,0,0:0:0:0:
184,264,207281,1,0,0:0:0:0:
272,84,207891,1,0,0:0:0:0:
296,256,208297,1,0,0:0:0:0:
392,120,209007,1,0,0:0:0:0:
232,304,209921,1,0,0:0:0:0:
196,288,211342,1,0,0:0:0:0:
352,180,211647,1,0,0:0:0:0:
356,204,212155,1,0,0:0:0:0:
116,204,212561,1,0,0:0:0:0:
256,148,212865,1,0,0:0:0:0:
336,148,213373,1,0,0:0:0:0:
344,160,213474,1,0,0:0:0:0:
356,220,213779,1,0,0:0:0:0:
288,272,214084,1,0,0:0:0:0:
188,240,214388,1,0,0:0:0:0:
216,220,214896,5,0,0:0:0:0:
340,172,215200,1,0,0:0:0:0:
392,196,215606,1,0,0:0:0:0:
352,288,215809,1,0,0:0:0:0:
320,316,216012,1,0,0:0:0:0:
256,320,216317,1,0,0:0:0:0:
248,212,216622,1,0,0:0:0:0:
200,320,217231,5,0,0:0:0:0:
136,220,217637,1,0,0:0:0:0:
364,120,217941,1,0,0:0:0:0:
364,120,218043,1,0,0:0:0:0:
364,120,218246,1,0,0:0:0:0:
364,120,218652,1,0,0:0:0:0:
364,120,218754,1,0,0:0:0:0:
364,120,218957,1,0,0:0:0:0:
312,228,219566,5,0,0:0:0:0:
224,228,219870,1,0,0:0:0:0:
240,152,220175,1,0,0:0:0:0:
352,176,220479,1,0,0:0:0:0:
340,224,220784,1,0,0:0:0:0:
200,252,221089,1,0,0:0:0:0:
144,212,221495,1,0,0:0:0:0:
192,140,221799,1,0,0:0:0:0:
312,168,222104,1,0,0:0:0:0:
336,224,222408,1,0,0:0:0:0:
240,284,222713,1,0,0:0:0:0:
168,192,223221,1,0,0:0:0:0:
128,212,224845,6,0,L|412:32,1,320
452,28,227078,2,0,P|432:256|68:180,1,693.333333333333
92,112,230429,2,0,P|440:200|472:92,1,560
188,76,233068,2,0,P|100:264|352:216,1,560
256,192,236012,12,0,248195,0:0:0:0:
