osu file format v14

[General]
AudioFilename: audio.mp3
AudioLeadIn: 0
PreviewTime: -1
Countdown: 0
SampleSet: None
StackLeniency: 0.6
Mode: 0
LetterboxInBreaks: 0
WidescreenStoryboard: 0

[Editor]
DistanceSpacing: 1.8
BeatDivisor: 4
GridSize: 4
TimelineZoom: 0.5

[Metadata]
Title:I Feel It Coming (ft. Daft Punk)
TitleUnicode:I Feel It Coming (ft. Daft Punk)
Artist:The Weeknd
ArtistUnicode:The Weeknd
Creator:genialpokemon
Version:Easy
Source:
Tags:tags tags XD
BeatmapID:1505673
BeatmapSetID:712240

[Difficulty]
HPDrainRate:4
CircleSize:3
OverallDifficulty:3
ApproachRate:3
SliderMultiplier:0.5
SliderTickRate:2

[Events]
//Background and Video events
//Break Periods
2,165330,182481
//Storyboard Layer 0 (Background)
//Storyboard Layer 1 (Fail)
//Storyboard Layer 2 (Pass)
//Storyboard Layer 3 (Foreground)
//Storyboard Sound Samples

[TimingPoints]
19416.3186813187,659.340659340659,4,1,0,100,1,0

[Colours]
Combo1 : 255,249,225
Combo2 : 5,240,5
Combo3 : 5,5,240
Combo4 : 240,5,5
Combo5 : 240,240,0
Combo6 : 236,244,244

[HitObjects]
240,220,20734,5,0,0:0:0:0:
404,152,21394,1,0,0:0:0:0:
112,132,22713,1,0,0:0:0:0:
248,216,23866,1,0,0:0:0:0:
416,136,25185,1,0,0:0:0:0:
184,136,25844,1,0,0:0:0:0:
372,88,26504,1,0,0:0:0:0:
232,220,27658,1,0,0:0:0:0:
156,192,28317,1,0,0:0:0:0:
320,132,29141,1,0,0:0:0:0:
284,180,30295,1,0,0:0:0:0:
136,196,31614,1,0,0:0:0:0:
80,152,32932,1,0,0:0:0:0:
232,144,33592,1,0,0:0:0:0:
344,168,34416,1,0,0:0:0:0:
64,104,36229,2,0,L|168:168,1,112.5
104,136,39361,2,0,L|336:116,1,225
324,132,43317,1,0,0:0:0:0:
188,156,44306,1,0,0:0:0:0:
200,168,44471,1,0,0:0:0:0:
284,176,45789,1,0,0:0:0:0:
216,136,46449,1,0,0:0:0:0:
124,152,50899,5,0,0:0:0:0:
184,160,51229,1,0,0:0:0:0:
228,160,51724,1,0,0:0:0:0:
244,160,52053,1,0,0:0:0:0:
256,152,52383,1,0,0:0:0:0:
92,88,56174,2,0,L|280:176,1,200
256,192,59965,12,0,62438,0:0:0:0:
144,180,65075,5,0,0:0:0:0:
312,160,65405,1,0,0:0:0:0:
72,60,67548,2,0,L|256:172,1,212.5
100,144,71833,5,0,0:0:0:0:
396,196,72658,1,0,0:0:0:0:
300,144,73152,1,0,0:0:0:0:
268,144,75295,1,0,0:0:0:0:
212,172,75789,1,0,0:0:0:0:
44,120,77767,2,0,L|160:148,1,112.5
256,192,80405,12,0,81724,0:0:0:0:
132,160,83207,5,0,0:0:0:0:
288,168,83866,1,0,0:0:0:0:
356,172,84526,1,0,0:0:0:0:
264,200,85185,1,0,0:0:0:0:
184,184,86174,1,0,0:0:0:0:
256,172,86504,1,0,0:0:0:0:
104,116,88317,2,0,L|240:180,1,150
116,168,93592,1,8,0:0:0:0:
292,176,94251,1,8,0:0:0:0:
224,168,94910,1,8,0:0:0:0:
344,136,96229,1,8,0:0:0:0:
224,136,97383,1,8,0:0:0:0:
296,212,98702,1,8,0:0:0:0:
204,220,100020,1,8,0:0:0:0:
408,144,101339,1,8,0:0:0:0:
180,148,103976,1,12,0:0:0:0:
312,128,105130,1,12,0:0:0:0:
112,208,106449,1,12,0:0:0:0:
340,208,107767,1,12,0:0:0:0:
204,40,110240,2,12,L|96:236,1,212.5
88,172,116504,1,0,0:0:0:0:
232,188,116998,1,0,0:0:0:0:
168,168,119306,5,0,0:0:0:0:
320,120,120789,1,0,0:0:0:0:
144,204,122108,1,0,0:0:0:0:
356,188,122603,1,0,0:0:0:0:
248,152,123427,1,0,0:0:0:0:
136,152,125240,2,0,L|300:224,1,175
148,200,128702,2,0,L|332:132,1,187.5
400,128,132163,2,0,L|220:200,2,187.5
104,72,138097,2,0,L|296:144,1,200
184,168,142383,1,0,0:0:0:0:
320,148,142713,1,0,0:0:0:0:
484,80,144196,5,0,0:0:0:0:
244,128,144855,1,0,0:0:0:0:
160,144,145185,1,0,0:0:0:0:
144,168,146669,1,0,0:0:0:0:
180,168,147493,1,0,0:0:0:0:
264,164,147987,1,0,0:0:0:0:
264,164,149471,1,0,0:0:0:0:
184,132,150460,1,0,0:0:0:0:
140,124,151778,2,0,L|324:188,1,187.5
272,176,155570,6,0,L|248:180,13,25
256,192,162328,12,0,165130,0:0:0:0:
256,192,183921,12,0,186559,0:0:0:0:
152,184,187877,5,0,0:0:0:0:
344,216,189031,1,0,0:0:0:0:
236,192,189691,1,0,0:0:0:0:
372,192,190350,1,0,0:0:0:0:
412,208,191669,1,0,0:0:0:0:
92,116,194141,1,0,0:0:0:0:
144,140,194636,1,0,0:0:0:0:
300,204,195954,1,0,0:0:0:0:
116,168,197273,2,0,L|320:208,1,200
256,192,200734,12,0,201724,0:0:0:0:
216,180,203537,5,0,0:0:0:0:
312,204,204196,1,0,0:0:0:0:
236,188,204691,1,0,0:0:0:0:
428,128,206174,1,0,0:0:0:0:
300,148,207163,1,0,0:0:0:0:
224,160,207658,1,0,0:0:0:0:
128,168,208317,1,0,0:0:0:0:
192,160,211614,6,0,L|308:160,2,112.5
412,232,216229,1,0,0:0:0:0:
388,208,218042,1,0,0:0:0:0:
208,172,218702,1,0,0:0:0:0:
244,108,220020,1,0,0:0:0:0:
160,120,220680,1,0,0:0:0:0:
176,168,221339,1,0,0:0:0:0:
244,192,222658,1,0,0:0:0:0:
288,188,223482,1,0,0:0:0:0:
292,144,223976,1,0,0:0:0:0:
256,192,225625,12,0,227767,0:0:0:0:
392,96,230405,5,0,0:0:0:0:
252,256,233042,1,0,0:0:0:0:
256,192,234691,12,0,236833,0:0:0:0:
168,160,238482,5,0,0:0:0:0:
352,212,240625,1,0,0:0:0:0:
256,192,242932,12,0,248372,0:0:0:0:
