osu file format v14

[General]
AudioFilename: audio.mp3
AudioLeadIn: 0
PreviewTime: 157538
Countdown: 0
SampleSet: Normal
StackLeniency: 0.7
Mode: 1
LetterboxInBreaks: 0
WidescreenStoryboard: 1

[Editor]
Bookmarks: 28695,71680,86009,114665
DistanceSpacing: 1
BeatDivisor: 4
GridSize: 4
TimelineZoom: 0.6999999

[Metadata]
Title:Die For You
TitleUnicode:Die For You
Artist:The Weeknd
ArtistUnicode:The Weeknd
Creator:tadahitotsu
Version:Lonely
Source:
Tags:english pop the highlights weekend Starboy R&B R'n'B Rhythm and blues futsuu
BeatmapID:3471612
BeatmapSetID:1699038

[Difficulty]
HPDrainRate:8
CircleSize:5
OverallDifficulty:3.5
ApproachRate:5
SliderMultiplier:1.8
SliderTickRate:1

[Events]
//Background and Video events
0,0,"The-Higlights-1-1.jpg",0,0
//Break Periods
2,186307,199436
//Storyboard Layer 0 (Background)
//Storyboard Layer 1 (Fail)
//Storyboard Layer 2 (Pass)
//Storyboard Layer 3 (Foreground)
//Storyboard Layer 4 (Overlay)
//Storyboard Sound Samples

[TimingPoints]
39,895.522388059701,4,1,0,60,1,0
39,-100,4,1,0,60,0,0
85098,-95.2380952380952,4,1,0,60,0,0
85770,-95.2380952380952,4,1,0,70,0,0
86009,-90.9090909090909,4,1,0,70,0,1
113322,-90.9090909090909,4,1,0,60,0,0
114650,-100,4,1,0,60,0,0
156740,-95.2380952380952,4,1,0,60,0,0
157412,-95.2380952380952,4,1,0,70,0,0
157650,-90.9090909090909,4,1,0,70,0,1
184964,-90.9090909090909,4,1,0,60,0,0
185188,-100,4,1,0,60,0,0
200621,-100,4,1,0,60,0,0
214053,-95.2380952380952,4,1,0,60,0,0
214725,-95.2380952380952,4,1,0,70,0,0
214964,-90.9090909090909,4,1,0,70,0,1
242725,-90.9090909090909,4,1,0,60,0,0
243621,895.522388059701,4,1,0,40,1,8
243677,895.522388059701,4,1,0,40,1,0
243677,-90.9090909090909,4,1,0,40,0,0

[HitObjects]
235,195,39,5,0,0:0:0:0:
240,239,934,1,8,0:0:0:0:
310,144,1830,1,0,0:0:0:0:
127,168,2277,1,0,0:0:0:0:
310,144,2725,1,8,0:0:0:0:
147,176,3621,1,0,0:0:0:0:
124,128,4516,1,8,0:0:0:0:
208,128,5412,1,0,0:0:0:0:
226,118,5859,1,0,0:0:0:0:
116,129,6307,1,8,0:0:0:0:
186,72,6755,1,8,0:0:0:0:
255,170,7203,1,0,0:0:0:0:
230,113,8098,1,8,0:0:0:0:
230,113,8994,1,0,0:0:0:0:
230,115,9441,1,0,0:0:0:0:
230,115,9889,1,8,0:0:0:0:
265,162,10337,1,0,0:0:0:0:
265,162,10785,1,0,0:0:0:0:
199,102,11680,1,8,0:0:0:0:
221,107,12576,1,0,0:0:0:0:
221,107,13024,1,0,0:0:0:0:
221,107,13471,1,8,0:0:0:0:
230,64,13919,1,8,0:0:0:0:
235,195,14367,1,0,0:0:0:0:
240,239,15262,1,8,0:0:0:0:
310,144,16158,1,0,0:0:0:0:
127,168,16606,1,0,0:0:0:0:
310,144,17053,1,8,0:0:0:0:
147,176,17949,1,0,0:0:0:0:
124,128,18844,1,8,0:0:0:0:
208,128,19740,1,0,0:0:0:0:
226,118,20188,1,0,0:0:0:0:
116,129,20636,1,8,0:0:0:0:
255,170,21083,1,8,0:0:0:0:
255,170,21531,1,0,0:0:0:0:
230,113,22427,1,8,0:0:0:0:
230,113,23322,1,0,0:0:0:0:
230,115,23770,1,0,0:0:0:0:
230,115,24218,1,8,0:0:0:0:
265,162,24665,1,0,0:0:0:0:
265,162,25113,1,0,0:0:0:0:
199,102,26009,1,8,0:0:0:0:
221,107,26904,1,0,0:0:0:0:
221,107,27352,1,0,0:0:0:0:
221,107,27800,1,8,0:0:0:0:
228,153,28247,1,8,0:0:0:0:
276,117,28695,1,0,0:0:0:0:
247,103,29143,1,8,0:0:0:0:
247,103,29591,1,8,0:0:0:0:
218,95,30486,1,0,0:0:0:0:
194,41,30934,1,0,0:0:0:0:
194,41,31382,1,8,0:0:0:0:
208,83,31830,1,0,0:0:0:0:
208,83,32277,1,8,0:0:0:0:
281,65,33173,1,8,0:0:0:0:
206,105,33621,1,0,0:0:0:0:
206,105,34068,1,8,0:0:0:0:
246,97,34964,1,8,0:0:0:0:
246,97,35412,1,8,0:0:0:0:
246,97,35859,1,0,0:0:0:0:
243,129,36755,1,8,0:0:0:0:
256,126,37650,1,0,0:0:0:0:
256,126,38098,1,0,0:0:0:0:
256,126,38546,1,8,0:0:0:0:
139,77,38994,1,8,0:0:0:0:
139,77,39441,1,0,0:0:0:0:
158,101,40337,1,8,0:0:0:0:
197,120,41233,1,0,0:0:0:0:
160,70,41680,1,0,0:0:0:0:
197,120,42128,1,8,0:0:0:0:
197,120,42576,1,0,0:0:0:0:
197,120,43024,1,0,0:0:0:0:
197,77,43471,1,8,0:0:0:0:
197,77,43919,1,8,0:0:0:0:
269,91,44815,1,0,0:0:0:0:
269,91,45262,1,0,0:0:0:0:
269,91,45710,1,8,0:0:0:0:
222,64,46158,1,8,0:0:0:0:
222,64,46606,1,0,0:0:0:0:
179,122,47501,1,8,0:0:0:0:
248,106,48397,1,0,0:0:0:0:
248,106,48844,1,0,0:0:0:0:
248,106,49292,1,8,0:0:0:0:
261,142,50188,1,0,0:0:0:0:
243,128,51083,1,8,0:0:0:0:
249,122,51979,1,0,0:0:0:0:
249,122,52427,1,0,0:0:0:0:
249,122,52874,1,8,0:0:0:0:
190,120,53322,1,8,0:0:0:0:
190,120,53770,1,0,0:0:0:0:
224,112,54665,1,8,0:0:0:0:
226,108,55561,1,0,0:0:0:0:
226,108,56009,1,8,0:0:0:0:
226,108,56456,1,8,0:0:0:0:
180,98,57352,1,0,0:0:0:0:
180,98,57800,1,0,0:0:0:0:
180,98,58247,1,8,0:0:0:0:
205,96,59143,1,8,0:0:0:0:
204,96,59591,1,0,0:0:0:0:
204,96,60038,1,8,0:0:0:0:
240,81,60934,1,0,0:0:0:0:
133,117,61382,1,8,0:0:0:0:
126,120,61830,1,8,0:0:0:0:
208,77,62725,1,0,0:0:0:0:
208,77,63173,1,8,0:0:0:0:
208,77,63621,1,0,0:0:0:0:
272,144,64516,1,0,0:0:0:0:
264,139,64964,1,0,0:0:0:0:
264,139,65412,1,8,0:0:0:0:
211,129,66307,1,0,0:0:0:0:
211,129,66755,1,0,0:0:0:0:
211,129,67203,1,8,0:0:0:0:
211,129,67650,1,8,0:0:0:0:
211,129,68098,1,0,0:0:0:0:
245,91,68994,1,8,0:0:0:0:
219,90,69441,1,0,0:0:0:0:
237,91,69889,1,8,0:0:0:0:
207,102,70785,1,8,0:0:0:0:
268,128,71680,1,0,0:0:0:0:
219,143,72128,1,0,0:0:0:0:
261,120,72576,1,8,0:0:0:0:
261,120,73471,1,8,0:0:0:0:
197,71,73919,1,8,0:0:0:0:
261,152,74367,1,0,0:0:0:0:
261,152,75262,1,0,0:0:0:0:
255,147,75710,1,0,0:0:0:0:
268,128,76158,1,8,0:0:0:0:
255,147,76606,1,8,0:0:0:0:
261,120,77053,1,0,0:0:0:0:
261,120,77949,1,0,0:0:0:0:
268,142,78397,1,8,0:0:0:0:
261,152,78844,1,8,0:0:0:0:
243,135,79292,1,0,0:0:0:0:
261,152,79740,1,8,0:0:0:0:
207,144,80188,1,0,0:0:0:0:
268,128,80636,1,8,0:0:0:0:
202,88,81083,1,8,0:0:0:0:
261,120,81531,1,0,0:0:0:0:
269,115,81979,1,0,0:0:0:0:
261,120,82427,1,8,0:0:0:0:
252,142,82874,1,0,0:0:0:0:
261,152,83322,1,8,0:0:0:0:
252,142,83770,1,0,0:0:0:0:
261,152,84218,1,8,0:0:0:0:
152,131,84665,1,0,0:0:0:0:
200,151,85113,1,12,0:0:0:0:
184,204,86009,1,4,0:0:0:0:
246,196,86456,1,0,0:0:0:0:
246,196,86904,1,8,0:0:0:0:
252,197,87352,1,8,0:0:0:0:
252,197,87576,1,8,0:0:0:0:
255,189,87800,1,0,0:0:0:0:
254,135,88247,1,0,0:0:0:0:
254,135,88695,1,8,0:0:0:0:
254,135,88919,1,8,0:0:0:0:
254,135,89143,1,0,0:0:0:0:
254,135,89367,1,0,0:0:0:0:
254,135,89591,1,8,0:0:0:0:
192,111,90038,1,0,0:0:0:0:
192,111,90486,1,8,0:0:0:0:
192,111,90934,1,8,0:0:0:0:
208,102,91158,1,8,0:0:0:0:
208,102,91382,1,0,0:0:0:0:
217,93,91830,1,8,0:0:0:0:
217,93,92277,1,0,0:0:0:0:
217,93,92501,1,0,0:0:0:0:
217,93,92725,1,8,0:0:0:0:
217,93,92949,1,8,0:0:0:0:
217,93,93173,1,0,0:0:0:0:
226,149,93621,1,0,0:0:0:0:
264,120,93844,1,0,0:0:0:0:
226,149,94068,1,8,0:0:0:0:
239,108,94964,1,0,0:0:0:0:
239,108,95859,1,8,0:0:0:0:
239,108,96083,1,8,0:0:0:0:
239,108,96307,1,0,0:0:0:0:
239,108,96531,1,0,0:0:0:0:
239,108,96755,1,8,0:0:0:0:
185,82,97427,1,0,0:0:0:0:
185,82,97650,1,8,0:0:0:0:
241,88,98546,1,0,0:0:0:0:
241,88,98994,1,8,0:0:0:0:
241,88,99441,1,8,0:0:0:0:
209,113,99665,1,0,0:0:0:0:
241,88,99889,1,0,0:0:0:0:
184,204,100337,1,12,0:0:0:0:
246,196,100785,1,0,0:0:0:0:
246,196,101233,1,8,0:0:0:0:
252,197,101680,1,8,0:0:0:0:
252,197,101904,1,8,0:0:0:0:
255,189,102128,1,0,0:0:0:0:
254,135,102576,1,0,0:0:0:0:
254,135,103024,1,8,0:0:0:0:
254,135,103247,1,8,0:0:0:0:
254,135,103471,1,0,0:0:0:0:
254,135,103695,1,0,0:0:0:0:
254,135,103919,1,8,0:0:0:0:
192,111,104367,1,0,0:0:0:0:
192,111,104815,1,8,0:0:0:0:
192,111,105262,1,8,0:0:0:0:
208,102,105486,1,8,0:0:0:0:
208,102,105710,1,0,0:0:0:0:
217,93,106158,1,8,0:0:0:0:
217,93,106606,1,8,0:0:0:0:
217,93,106830,1,0,0:0:0:0:
217,93,107053,1,8,0:0:0:0:
217,93,107277,1,8,0:0:0:0:
217,93,107501,1,0,0:0:0:0:
226,149,107949,1,0,0:0:0:0:
321,108,108173,1,0,0:0:0:0:
226,149,108397,1,8,0:0:0:0:
239,108,109292,1,0,0:0:0:0:
239,108,110188,1,8,0:0:0:0:
239,108,110412,1,8,0:0:0:0:
239,108,110636,1,0,0:0:0:0:
239,108,110859,1,0,0:0:0:0:
239,108,111083,1,8,0:0:0:0:
185,82,111755,1,0,0:0:0:0:
185,82,111979,1,8,0:0:0:0:
114,102,112427,1,0,0:0:0:0:
299,102,112650,1,8,0:0:0:0:
241,88,112874,1,0,0:0:0:0:
241,88,113322,1,8,0:0:0:0:
276,117,114665,1,0,0:0:0:0:
247,103,115113,1,8,0:0:0:0:
247,103,115561,1,8,0:0:0:0:
109,148,116009,1,0,0:0:0:0:
218,95,116456,1,0,0:0:0:0:
194,41,117352,1,8,0:0:0:0:
208,83,117800,1,8,0:0:0:0:
208,83,118247,1,0,0:0:0:0:
281,65,119143,1,8,0:0:0:0:
206,105,119591,1,0,0:0:0:0:
206,105,120038,1,8,0:0:0:0:
246,97,120934,1,8,0:0:0:0:
246,97,121382,1,8,0:0:0:0:
246,97,121830,1,0,0:0:0:0:
196,89,122277,1,0,0:0:0:0:
243,129,122725,1,8,0:0:0:0:
256,126,123621,1,0,0:0:0:0:
256,126,124068,1,0,0:0:0:0:
256,126,124516,1,8,0:0:0:0:
139,77,124964,1,8,0:0:0:0:
139,77,125412,1,0,0:0:0:0:
283,88,125859,1,0,0:0:0:0:
158,101,126307,1,8,0:0:0:0:
197,120,127203,1,0,0:0:0:0:
160,70,127650,1,0,0:0:0:0:
197,120,128098,1,8,0:0:0:0:
197,120,128546,1,0,0:0:0:0:
197,120,128994,1,0,0:0:0:0:
197,77,129441,1,8,0:0:0:0:
197,77,129889,1,8,0:0:0:0:
269,91,130785,1,0,0:0:0:0:
269,91,131233,1,0,0:0:0:0:
269,91,131680,1,8,0:0:0:0:
222,64,132576,1,0,0:0:0:0:
179,122,133471,1,8,0:0:0:0:
176,96,133919,1,0,0:0:0:0:
248,106,134367,1,8,0:0:0:0:
248,106,134815,1,0,0:0:0:0:
248,106,135262,1,8,0:0:0:0:
261,142,136158,1,0,0:0:0:0:
243,128,137053,1,8,0:0:0:0:
249,122,137949,1,0,0:0:0:0:
249,122,138397,1,0,0:0:0:0:
249,122,138844,1,8,0:0:0:0:
190,120,139292,1,8,0:0:0:0:
190,120,139740,1,0,0:0:0:0:
206,122,142427,1,8,0:0:0:0:
266,135,142874,1,8,0:0:0:0:
180,98,143322,1,0,0:0:0:0:
180,98,143770,1,0,0:0:0:0:
180,98,144218,1,8,0:0:0:0:
205,96,145113,1,8,0:0:0:0:
204,96,145561,1,0,0:0:0:0:
204,96,146009,1,8,0:0:0:0:
240,81,146904,1,0,0:0:0:0:
133,117,147352,1,8,0:0:0:0:
126,120,147800,1,8,0:0:0:0:
208,77,148695,1,0,0:0:0:0:
208,77,149143,1,8,0:0:0:0:
208,77,149591,1,0,0:0:0:0:
272,144,150486,1,8,0:0:0:0:
264,139,150934,1,0,0:0:0:0:
264,139,151382,1,8,0:0:0:0:
179,112,151830,1,0,0:0:0:0:
211,129,152277,1,8,0:0:0:0:
211,129,152725,1,8,0:0:0:0:
211,129,153173,1,0,0:0:0:0:
211,129,153621,1,0,0:0:0:0:
211,129,154068,1,8,0:0:0:0:
245,91,154516,1,0,0:0:0:0:
5,81,154964,1,8,0:0:0:0:
219,90,155412,1,0,0:0:0:0:
237,91,155859,1,8,0:0:0:0:
34,124,156307,1,0,0:0:0:0:
207,102,156755,1,12,0:0:0:0:
184,204,157650,1,4,0:0:0:0:
246,196,158098,1,0,0:0:0:0:
246,196,158546,1,8,0:0:0:0:
252,197,158994,1,8,0:0:0:0:
252,197,159218,1,8,0:0:0:0:
255,189,159441,1,0,0:0:0:0:
254,135,159889,1,0,0:0:0:0:
254,135,160337,1,8,0:0:0:0:
254,135,160561,1,8,0:0:0:0:
254,135,160785,1,0,0:0:0:0:
254,135,161009,1,0,0:0:0:0:
254,135,161233,1,8,0:0:0:0:
192,111,161680,1,0,0:0:0:0:
192,111,162128,1,8,0:0:0:0:
192,111,162576,1,8,0:0:0:0:
208,102,162800,1,0,0:0:0:0:
208,102,163024,1,8,0:0:0:0:
217,93,163471,1,8,0:0:0:0:
217,93,163919,1,0,0:0:0:0:
217,93,164143,1,0,0:0:0:0:
217,93,164367,1,8,0:0:0:0:
217,93,164591,1,8,0:0:0:0:
217,93,164815,1,0,0:0:0:0:
226,149,165262,1,8,0:0:0:0:
276,96,165486,1,0,0:0:0:0:
226,149,165710,1,8,0:0:0:0:
239,108,166606,1,0,0:0:0:0:
239,108,167501,1,8,0:0:0:0:
239,108,167725,1,8,0:0:0:0:
239,108,167949,1,0,0:0:0:0:
239,108,168173,1,0,0:0:0:0:
239,108,168397,1,8,0:0:0:0:
185,82,169068,1,0,0:0:0:0:
185,82,169292,1,8,0:0:0:0:
241,88,170188,1,0,0:0:0:0:
241,88,170636,1,8,0:0:0:0:
241,88,171083,1,8,0:0:0:0:
209,113,171307,1,8,0:0:0:0:
241,88,171531,1,0,0:0:0:0:
184,204,171979,1,12,0:0:0:0:
246,196,172427,1,0,0:0:0:0:
246,196,172874,1,8,0:0:0:0:
252,197,173322,1,8,0:0:0:0:
252,197,173546,1,8,0:0:0:0:
255,189,173770,1,0,0:0:0:0:
254,135,174218,1,0,0:0:0:0:
254,135,174665,1,8,0:0:0:0:
254,135,174889,1,8,0:0:0:0:
254,135,175113,1,0,0:0:0:0:
254,135,175337,1,0,0:0:0:0:
254,135,175561,1,8,0:0:0:0:
192,111,176009,1,0,0:0:0:0:
192,111,176456,1,8,0:0:0:0:
192,111,176904,1,8,0:0:0:0:
208,102,177128,1,8,0:0:0:0:
208,102,177352,1,0,0:0:0:0:
217,93,177800,1,8,0:0:0:0:
217,93,178247,1,8,0:0:0:0:
217,93,178471,1,0,0:0:0:0:
217,93,178695,1,8,0:0:0:0:
217,93,178919,1,8,0:0:0:0:
217,93,179143,1,0,0:0:0:0:
226,149,179591,1,8,0:0:0:0:
356,156,179815,1,0,0:0:0:0:
226,149,180038,1,8,0:0:0:0:
205,107,180934,1,0,0:0:0:0:
198,98,181158,1,0,0:0:0:0:
205,107,181382,1,8,0:0:0:0:
239,108,181830,1,8,0:0:0:0:
239,108,182053,1,8,0:0:0:0:
239,108,182277,1,0,0:0:0:0:
239,108,182501,1,0,0:0:0:0:
239,108,182725,1,8,0:0:0:0:
185,82,183397,1,0,0:0:0:0:
185,82,183621,1,8,0:0:0:0:
114,102,184068,1,0,0:0:0:0:
326,124,184292,1,8,0:0:0:0:
241,88,184516,1,0,0:0:0:0:
241,88,184964,1,8,0:0:0:0:
255,188,200636,5,8,0:0:0:0:
305,124,201531,1,0,0:0:0:0:
255,188,202427,1,8,0:0:0:0:
305,124,203322,1,0,0:0:0:0:
255,188,204218,1,8,0:0:0:0:
305,124,205113,1,0,0:0:0:0:
255,188,206009,1,8,0:0:0:0:
305,124,206904,1,0,0:0:0:0:
255,188,207800,1,8,0:0:0:0:
255,188,208247,1,0,0:0:0:0:
305,124,208695,1,0,0:0:0:0:
305,124,209143,1,8,0:0:0:0:
255,188,209591,1,0,0:0:0:0:
255,188,210038,1,0,0:0:0:0:
305,124,210486,1,0,0:0:0:0:
305,124,210934,1,8,0:0:0:0:
231,91,211382,1,8,0:0:0:0:
255,188,211830,1,0,0:0:0:0:
231,91,212277,1,8,0:0:0:0:
305,124,212725,1,0,0:0:0:0:
196,81,213173,1,8,0:0:0:0:
196,81,213621,1,0,0:0:0:0:
306,249,214068,1,12,0:0:0:0:
184,204,214964,1,4,0:0:0:0:
246,196,215412,1,0,0:0:0:0:
246,196,215859,1,8,0:0:0:0:
252,197,216307,1,8,0:0:0:0:
252,197,216531,1,8,0:0:0:0:
255,189,216755,1,0,0:0:0:0:
254,135,217203,1,0,0:0:0:0:
254,135,217650,1,8,0:0:0:0:
254,135,217874,1,8,0:0:0:0:
254,135,218098,1,0,0:0:0:0:
254,135,218322,1,0,0:0:0:0:
254,135,218546,1,8,0:0:0:0:
192,111,218994,1,0,0:0:0:0:
254,80,219218,1,0,0:0:0:0:
192,111,219441,1,8,0:0:0:0:
192,111,219889,1,8,0:0:0:0:
208,102,220113,1,8,0:0:0:0:
208,102,220337,1,0,0:0:0:0:
217,93,220785,1,8,0:0:0:0:
217,93,221233,1,0,0:0:0:0:
217,93,221456,1,0,0:0:0:0:
217,93,221680,1,8,0:0:0:0:
217,93,221904,1,8,0:0:0:0:
217,93,222128,1,0,0:0:0:0:
226,149,222576,1,0,0:0:0:0:
314,91,222800,1,0,0:0:0:0:
226,149,223024,1,8,0:0:0:0:
239,108,223919,1,0,0:0:0:0:
239,108,224815,1,8,0:0:0:0:
239,108,225038,1,8,0:0:0:0:
239,108,225262,1,0,0:0:0:0:
239,108,225486,1,0,0:0:0:0:
239,108,225710,1,8,0:0:0:0:
185,82,226382,1,0,0:0:0:0:
185,82,226606,1,8,0:0:0:0:
241,88,227501,1,0,0:0:0:0:
241,88,227949,1,8,0:0:0:0:
241,88,228397,1,8,0:0:0:0:
209,113,228621,1,0,0:0:0:0:
241,88,228844,1,0,0:0:0:0:
184,204,229292,1,12,0:0:0:0:
246,196,229740,1,0,0:0:0:0:
244,67,229964,1,0,0:0:0:0:
246,196,230188,1,8,0:0:0:0:
252,197,230636,1,8,0:0:0:0:
252,197,230859,1,8,0:0:0:0:
255,189,231083,1,0,0:0:0:0:
254,135,231531,1,0,0:0:0:0:
254,135,231979,1,8,0:0:0:0:
254,135,232203,1,8,0:0:0:0:
254,135,232427,1,0,0:0:0:0:
254,135,232650,1,0,0:0:0:0:
254,135,232874,1,8,0:0:0:0:
192,111,233322,1,0,0:0:0:0:
303,85,233546,1,0,0:0:0:0:
192,111,233770,1,8,0:0:0:0:
192,111,234218,1,8,0:0:0:0:
208,102,234441,1,8,0:0:0:0:
208,102,234665,1,0,0:0:0:0:
217,93,235113,1,8,0:0:0:0:
217,93,235561,1,8,0:0:0:0:
217,93,235785,1,0,0:0:0:0:
217,93,236009,1,8,0:0:0:0:
217,93,236233,1,8,0:0:0:0:
217,93,236456,1,0,0:0:0:0:
226,149,236904,1,0,0:0:0:0:
235,121,237128,1,8,0:0:0:0:
226,149,237352,1,8,0:0:0:0:
239,108,238247,1,0,0:0:0:0:
239,108,239143,1,8,0:0:0:0:
239,108,239367,1,8,0:0:0:0:
239,108,239591,1,0,0:0:0:0:
239,108,239815,1,0,0:0:0:0:
239,108,240038,1,8,0:0:0:0:
185,82,240710,1,0,0:0:0:0:
185,82,240934,1,8,0:0:0:0:
114,102,241382,1,0,0:0:0:0:
205,160,241606,1,8,0:0:0:0:
241,88,241830,1,0,0:0:0:0:
241,88,242277,1,8,0:0:0:0:
216,120,242725,1,8,0:0:0:0:
88,145,243677,1,0,0:0:0:0:
