osu file format v14

[General]
AudioFilename: audio.mp3
AudioLeadIn: 0
PreviewTime: 86891
Countdown: 0
SampleSet: Soft
StackLeniency: 0.7
Mode: 0
LetterboxInBreaks: 0
WidescreenStoryboard: 1

[Editor]
Bookmarks: 15073,29618,44164,58709,65982,73255,80528,87800,102346,116891,131437,145982
DistanceSpacing: 1.2
BeatDivisor: 4
GridSize: 4
TimelineZoom: 1

[Metadata]
Title:Empathy
TitleUnicode:Empathy
Artist:The Void
ArtistUnicode:The Void
Creator:Xayler
Version:Collab Normal
Source:
Tags:trance ambient chill cbh collab electronic aquila
BeatmapID:1129613
BeatmapSetID:533181

[Difficulty]
HPDrainRate:4
CircleSize:4
OverallDifficulty:4
ApproachRate:5
SliderMultiplier:1.2
SliderTickRate:1

[Events]
//Background and Video events
0,0,"youth_by_t1na-d9krud3.png",0,0
//Break Periods
//Storyboard Layer 0 (Background)
//Storyboard Layer 1 (Fail)
//Storyboard Layer 2 (Pass)
//Storyboard Layer 3 (Foreground)
//Storyboard Sound Samples

[TimingPoints]
528,454.545454545455,4,2,0,70,1,0
29618,-100,4,2,0,70,0,0
44164,-100,4,2,0,70,0,0
58709,-100,4,2,1,70,0,0
73255,-100,4,2,0,70,0,0
87800,-100,4,2,1,70,0,1
100528,-100,4,2,1,70,0,0
102346,-100,4,2,1,70,0,1
115073,-100,4,2,1,70,0,0
116891,-100,4,2,1,70,0,1
129618,-100,4,2,1,70,0,0
131437,-100,4,2,1,70,0,1
145982,-100,4,2,1,70,0,0
146096,-100,4,2,1,5,0,0

[Colours]
Combo1 : 255,0,255
Combo2 : 192,192,192
Combo3 : 255,255,255
Combo4 : 128,0,255
Combo5 : 128,0,128
Combo6 : 255,0,128

[HitObjects]
112,324,528,6,0,L|124:193,1,120,6|2,0:0|0:0,0:0:0:0:
87,141,1209,1,0,0:0:0:0:
140,92,1437,2,0,L|219:97,1,60,2|0,0:0|0:0,0:0:0:0:
268,75,1891,2,0,L|401:81,1,120,2|2,0:0|0:0,0:0:0:0:
456,207,2800,1,2,0:0:0:0:
345,300,3255,2,0,L|274:298,1,60,2|0,0:0|0:0,0:0:0:0:
230,345,3709,2,0,L|170:346,1,60,2|0,0:0|0:0,0:0:0:0:
107,310,4164,6,0,B|90:269|90:269|110:181,1,120,2|2,0:0|0:0,0:0:0:0:
175,172,4846,2,0,L|169:99,1,60,0|2,0:0|0:0,0:0:0:0:
203,48,5300,1,0,0:0:0:0:
272,68,5528,2,0,L|400:61,1,120,2|2,0:0|0:0,0:0:0:0:
459,188,6437,2,0,L|339:181,1,120,2|2,0:0|0:0,0:0:0:0:
282,226,7118,1,0,0:0:0:0:
222,185,7346,2,0,P|226:153|242:122,1,60,2|0,0:0|0:0,0:0:0:0:
297,87,7800,70,0,L|152:92,1,120,2|2,0:0|0:0,0:0:0:0:
108,69,8482,1,0,0:0:0:0:
71,131,8709,2,0,P|82:188|67:267,1,120,2|2,0:0|0:0,0:0:0:0:
33,308,9391,1,0,0:0:0:0:
88,354,9618,2,0,L|155:345,1,60,2|0,0:0|0:0,0:0:0:0:
211,312,10073,2,0,L|270:319,1,60,2|0,0:0|0:0,0:0:0:0:
330,360,10528,1,2,0:0:0:0:
411,241,10982,1,2,0:0:0:0:
324,125,11437,6,0,B|273:131|273:131|240:129|240:129|196:134,1,120,2|2,0:0|0:0,0:0:0:0:
135,112,12118,1,0,0:0:0:0:
80,158,12346,2,0,L|97:287,1,120,2|2,0:0|0:0,0:0:0:0:
64,342,13028,1,0,0:0:0:0:
135,339,13255,2,0,P|158:318|169:284,1,60,2|0,0:0|0:0,0:0:0:0:
170,219,13709,2,0,P|181:191|203:171,1,60,2|0,0:0|0:0,0:0:0:0:
267,138,14164,1,2,0:0:0:0:
337,264,14618,1,2,0:0:0:0:
448,172,15073,70,0,P|439:100|401:62,1,120,6|10,0:0|0:0,0:0:0:0:
341,41,15755,1,0,0:0:0:0:
270,52,15982,2,0,P|230:55|198:50,1,60,2|0,0:0|0:0,0:0:0:0:
145,22,16437,2,0,P|86:29|47:88,1,120,10|2,0:0|0:0,0:0:0:0:
120,200,17346,1,10,0:0:0:0:
230,293,17800,2,0,L|295:285,1,60,2|0,0:0|0:0,0:0:0:0:
361,298,18255,2,0,L|420:305,1,60,10|0,0:0|0:0,0:0:0:0:
488,331,18709,6,0,L|469:209,1,120,2|10,0:0|0:0,0:0:0:0:
397,88,19618,1,2,0:0:0:0:
253,89,20073,2,0,L|128:89,1,120,10|2,0:0|0:0,0:0:0:0:
62,75,20755,1,0,0:0:0:0:
85,143,20982,2,0,L|79:268,1,120,10|2,0:0|0:0,0:0:0:0:
39,323,21664,1,0,0:0:0:0:
111,327,21891,2,0,L|176:325,1,60,10|0,0:0|0:0,0:0:0:0:
241,308,22346,69,2,0:0:0:0:
369,242,22800,1,10,0:0:0:0:
441,117,23255,2,0,L|431:53,1,60,2|0,0:0|0:0,0:0:0:0:
369,22,23709,2,0,P|312:17|250:41,1,120,10|2,0:0|0:0,0:0:0:0:
210,96,24391,1,0,0:0:0:0:
199,167,24618,2,0,B|209:208|209:208|209:244|209:244|218:286,1,120,10|2,0:0|0:0,0:0:0:0:
351,338,25528,1,10,0:0:0:0:
472,261,25982,6,0,P|480:186|459:135,1,120,2|10,0:0|0:0,0:0:0:0:
417,91,26664,1,0,0:0:0:0:
356,53,26891,2,0,L|290:54,1,60,2|0,0:0|0:0,0:0:0:0:
226,72,27346,2,0,P|163:86|109:73,1,120,10|2,0:0|0:0,0:0:0:0:
51,32,28028,1,0,0:0:0:0:
46,104,28255,2,0,L|46:168,1,60,10|0,0:0|0:0,0:0:0:0:
57,235,28709,1,2,0:0:0:0:
184,303,29164,1,10,0:0:0:0:
324,276,29618,70,0,P|303:211|351:99,1,180,6|2,0:0|0:0,0:0:0:0:
412,110,30528,2,0,L|472:122,1,60,0|2,0:0|0:0,0:0:0:0:
502,186,30982,1,2,0:0:0:0:
437,314,31437,2,0,B|403:334|403:334|318:320,1,120,0|0,0:0|0:0,0:0:0:0:
253,306,32118,1,0,0:0:0:0:
212,246,32346,2,0,L|220:177,2,60,2|0|2,0:0|0:0|0:0,0:0:0:0:
91,325,33255,6,0,L|65:138,1,180,2|2,0:0|0:0,0:0:0:0:
122,101,34164,2,0,P|161:107|192:104,1,60,0|2,0:0|0:0,0:0:0:0:
242,67,34618,2,0,B|282:59|282:59|377:68,1,120,2|0,0:0|0:0,0:0:0:0:
443,184,35528,1,0,0:0:0:0:
344,288,35982,2,0,L|279:283,1,60,2|0,0:0|0:0,0:0:0:0:
221,318,36437,1,2,0:0:0:0:
95,247,36891,70,0,L|110:109,1,120,2|0,0:0|0:0,0:0:0:0:
177,108,37573,2,0,L|182:175,1,60,2|0,0:0|0:0,0:0:0:0:
189,239,38028,1,2,0:0:0:0:
247,197,38255,2,0,P|285:190|383:202,1,120,2|0,0:0|0:0,0:0:0:0:
369,340,39164,2,0,L|237:329,1,120,0|2,0:0|0:0,0:0:0:0:
180,350,39846,1,0,0:0:0:0:
121,307,40073,2,0,L|128:240,1,60,2|0,0:0|0:0,0:0:0:0:
182,200,40528,6,0,B|180:119|180:119|157:82,1,120,2|0,0:0|0:0,0:0:0:0:
90,65,41209,1,2,0:0:0:0:
143,16,41437,2,0,P|176:16|210:34,1,60,0|2,0:0|0:0,0:0:0:0:
247,80,41891,2,0,B|301:102|301:102|369:89,1,120,2|0,0:0|0:0,0:0:0:0:
467,188,42800,2,0,L|341:217,1,120,0|2,0:0|0:0,0:0:0:0:
309,274,43482,2,0,L|240:266,1,60,0|2,0:0|0:0,0:0:0:0:
188,308,43937,1,0,0:0:0:0:
126,271,44164,70,0,B|83:255|74:202|74:202|39:172|44:121,1,180,2|2,0:0|0:0,0:0:0:0:
168,49,45300,1,0,0:0:0:0:
239,37,45528,2,0,B|274:34|274:34|329:38|329:38|370:34,1,120,2|0,0:0|0:0,0:0:0:0:
442,152,46437,1,0,0:0:0:0:
357,268,46891,2,0,P|306:302|233:302,1,120,2|2,0:0|0:0,0:0:0:0:
179,287,47573,1,0,0:0:0:0:
138,228,47800,6,0,L|93:54,1,180,2|2,0:0|0:0,0:0:0:0:
225,111,48937,1,0,0:0:0:0:
291,139,49164,2,0,P|358:130|422:143,1,120,2|0,0:0|0:0,0:0:0:0:
349,269,50073,2,0,P|289:278|230:269,1,120,0|2,0:0|0:0,0:0:0:0:
150,150,50982,2,0,L|154:83,1,60,2|2,0:0|0:0,0:0:0:0:
146,18,51437,70,0,P|203:57|326:30,1,180,2|2,0:0|0:0,0:0:0:0:
427,125,52573,1,0,0:0:0:0:
443,195,52800,2,0,P|436:241|373:271,1,120,2|0,0:0|0:0,0:0:0:0:
262,182,53709,1,0,0:0:0:0:
284,325,54164,1,2,0:0:0:0:
155,261,54618,1,0,0:0:0:0:
118,199,54846,1,2,0:0:0:0:
94,131,55073,6,0,P|98:87|223:33,1,180,2|2,0:0|0:0,0:0:0:0:
335,93,56209,1,2,0:0:0:0:
359,161,56437,2,0,P|330:242|282:266,1,120,2|0,0:0|0:0,0:0:0:0:
237,278,57118,2,0,L|170:274,2,60,2|0|0,0:0|0:0|0:0,0:0:0:0:
288,329,57800,2,0,L|371:332,1,60,2|0,0:0|0:0,0:0:0:0:
416,356,58255,2,0,L|499:359,1,60,2|0,0:0|0:0,0:0:0:0:
475,286,58709,70,0,P|460:245|495:109,2,180,12|12|12,0:0|0:0|0:0,0:0:0:0:
268,220,60755,2,0,L|194:216,1,60,2|0,0:0|0:0,0:0:0:0:
154,264,61209,1,0,0:0:0:0:
87,234,61437,2,0,L|98:160,2,60,2|0|2,0:0|0:0|0:0,0:0:0:0:
46,293,62118,1,0,0:0:0:0:
84,354,62346,6,0,B|160:345|160:345|182:350|182:350|277:337,2,180,12|12|12,0:0|0:0|0:0,0:0:0:0:
45,141,64391,2,0,L|53:64,1,60,2|0,0:0|0:0,0:0:0:0:
102,30,64846,1,0,0:0:0:0:
135,96,65073,2,0,L|142:165,2,60,2|0|2,0:0|0:0|0:0,0:0:0:0:
172,34,65755,1,0,0:0:0:0:
239,60,65982,70,0,B|308:48|308:48|426:64,2,180,12|12|12,0:0|0:0|0:0,0:0:0:0:
312,264,68028,2,0,L|336:333,2,60,2|0|0,0:0|0:0|0:0,0:0:0:0:
281,199,68709,2,0,L|196:191,1,60,2|0,0:0|0:0,0:0:0:0:
151,176,69164,2,0,L|91:181,1,60,2|0,0:0|0:0,0:0:0:0:
33,224,69618,6,0,B|33:275|76:294|76:294|105:328|105:328|137:321|164:328,1,180,12|12,0:0|0:0,0:0:0:0:
297,319,70755,2,0,L|375:315,1,60,12|12,0:0|0:0,0:0:0:0:
455,123,71664,2,0,L|484:62,2,60,2|0|0,0:0|0:0|0:0,0:0:0:0:
397,166,72346,2,0,L|329:162,1,60,2|0,0:0|0:0,0:0:0:0:
268,142,72800,2,0,L|208:145,1,60,2|0,0:0|0:0,0:0:0:0:
143,111,73255,70,0,P|133:153|186:214,1,120,4|2,0:0|0:0,0:0:0:0:
246,226,73937,1,0,0:0:0:0:
196,278,74164,2,0,L|202:342,1,60,2|0,0:0|0:0,0:0:0:0:
143,380,74618,1,2,0:0:0:0:
44,275,75073,2,0,L|53:143,1,120,2|2,0:0|0:0,0:0:0:0:
171,74,75982,2,0,L|181:139,1,60,2|0,0:0|0:0,0:0:0:0:
234,181,76437,2,0,L|224:240,1,60,2|0,0:0|0:0,0:0:0:0:
252,306,76891,6,0,B|296:317|296:317|390:299,1,120,2|2,0:0|0:0,0:0:0:0:
439,286,77573,1,0,0:0:0:0:
390,232,77800,2,0,P|386:200|393:161,1,60,2|0,0:0|0:0,0:0:0:0:
411,103,78255,1,2,0:0:0:0:
279,160,78709,2,0,B|242:175|242:175|149:157,1,120,2|2,0:0|0:0,0:0:0:0:
69,269,79618,2,0,L|84:343,2,60,2|0|2,0:0|0:0|0:0,0:0:0:0:
17,218,80300,1,0,0:0:0:0:
85,193,80528,70,0,B|137:186|137:186|211:186,1,120,2|2,0:0|0:0,0:0:0:0:
348,175,81437,2,0,L|371:120,1,60,2|0,0:0|0:0,0:0:0:0:
389,50,81891,2,0,P|436:89|438:146,1,120,2|2,0:0|0:0,0:0:0:0:
366,269,82800,2,0,L|303:274,1,60,2|0,0:0|0:0,0:0:0:0:
238,297,83255,2,0,L|175:302,1,60,2|0,0:0|0:0,0:0:0:0:
111,328,83709,2,0,L|48:333,1,60,2|0,0:0|0:0,0:0:0:0:
17,269,84164,6,0,L|13:146,1,120,2|2,0:0|0:0,0:0:0:0:
113,45,85073,2,0,L|176:40,1,60,2|0,0:0|0:0,0:0:0:0:
245,34,85528,2,0,B|283:34|283:34|364:51,1,120,2|2,0:0|0:0,0:0:0:0:
425,88,86209,1,0,0:0:0:0:
383,226,86664,1,0,0:0:0:0:
312,237,86891,2,0,L|246:228,1,60,2|0,0:0|0:0,0:0:0:0:
181,228,87346,2,0,L|121:236,1,60,2|0,0:0|0:0,0:0:0:0:
69,285,87800,6,0,L|84:148,2,120,14|10|10,0:0|0:0|0:0,0:0:0:0:
103,348,88937,2,0,L|184:338,1,60,2|10,0:0|0:0,0:0:0:0:
303,369,89618,1,8,0:0:0:0:
424,292,90073,2,0,L|418:222,1,60,8|0,0:0|0:0,0:0:0:0:
447,165,90528,2,0,L|441:95,1,60,10|0,0:0|0:0,0:0:0:0:
393,51,90982,1,10,0:0:0:0:
298,160,91437,6,0,B|256:188|256:188|163:172,1,120,10|10,0:0|0:0,0:0:0:0:
138,123,92118,1,0,0:0:0:0:
88,175,92346,2,0,L|96:241,1,60,10|2,0:0|0:0,0:0:0:0:
108,305,92800,1,10,0:0:0:0:
237,242,93255,1,8,0:0:0:0:
369,298,93709,2,0,L|362:363,2,60,8|0|10,0:0|0:0|0:0,0:0:0:0:
430,260,94391,1,0,0:0:0:0:
404,192,94618,2,0,L|268:204,1,120,10|10,0:0|0:0,0:0:0:0:
171,292,95528,70,0,L|109:284,1,60,10|0,0:0|0:0,0:0:0:0:
41,269,95982,1,10,0:0:0:0:
89,215,96209,2,0,P|97:178|95:144,1,60,2|10,0:0|0:0,0:0:0:0:
20,33,96891,2,0,L|146:27,1,120,8|8,0:0|0:0,0:0:0:0:
212,25,97573,1,0,0:0:0:0:
256,81,97800,2,0,P|267:112|269:142,1,60,10|0,0:0|0:0,0:0:0:0:
251,208,98255,2,0,P|253:237|264:265,1,60,10|0,0:0|0:0,0:0:0:0:
318,313,98709,6,0,L|177:305,1,120,10|10,0:0|0:0,0:0:0:0:
94,206,99618,2,0,L|106:134,1,60,10|2,0:0|0:0,0:0:0:0:
120,76,100073,1,10,0:0:0:0:
228,170,100528,2,0,B|265:185|265:185|360:170,1,120,8|8,0:0|0:0,0:0:0:0:
414,158,101209,1,0,0:0:0:0:
391,226,101437,2,0,L|394:303,1,60,10|0,0:0|0:0,0:0:0:0:
395,357,101891,1,10,0:0:0:0:
251,369,102346,70,0,P|180:364|126:330,1,120,12|10,0:0|0:0,0:0:0:0:
103,278,103028,1,0,0:0:0:0:
86,208,103255,2,0,L|83:141,1,60,10|2,0:0|0:0,0:0:0:0:
54,82,103709,2,0,B|81:93|81:93|182:93,1,120,10|8,0:0|0:0,0:0:0:0:
315,79,104618,1,8,0:0:0:0:
286,220,105073,2,0,L|351:222,1,60,10|0,0:0|0:0,0:0:0:0:
417,236,105528,2,0,L|476:234,1,60,10|0,0:0|0:0,0:0:0:0:
490,305,105982,6,0,L|364:309,1,120,10|10,0:0|0:0,0:0:0:0:
228,333,106891,2,0,L|216:263,1,60,10|2,0:0|0:0,0:0:0:0:
193,206,107346,2,0,L|181:136,1,60,10|0,0:0|0:0,0:0:0:0:
156,80,107800,1,8,0:0:0:0:
91,48,108028,2,0,L|28:36,2,60,2|8|0,0:0|0:0|0:0,0:0:0:0:
95,120,108709,1,10,0:0:0:0:
86,264,109164,1,10,0:0:0:0:
217,323,109618,70,0,P|286:323|336:303,1,120,10|10,0:0|0:0,0:0:0:0:
372,244,110300,1,0,0:0:0:0:
389,174,110528,2,0,L|392:99,1,60,10|2,0:0|0:0,0:0:0:0:
428,52,110982,2,0,B|401:70|401:70|304:70,1,120,10|8,0:0|0:0,0:0:0:0:
176,27,111891,1,8,0:0:0:0:
175,171,112346,2,0,L|184:234,1,60,10|0,0:0|0:0,0:0:0:0:
213,296,112800,2,0,L|288:303,1,60,10|0,0:0|0:0,0:0:0:0:
345,306,113255,6,0,L|467:294,1,120,10|10,0:0|0:0,0:0:0:0:
342,219,114164,2,0,L|263:226,1,60,10|2,0:0|0:0,0:0:0:0:
232,276,114618,2,0,P|210:215|247:161,1,120,10|8,0:0|0:0,0:0:0:0:
353,87,115528,1,8,0:0:0:0:
222,28,115982,1,10,0:0:0:0:
119,129,116437,2,0,L|123:198,1,60,10|0,0:0|0:0,0:0:0:0:
109,259,116891,6,0,P|144:257|194:187,1,120,14|10,0:0|0:0,0:0:0:0:
193,122,117573,1,0,0:0:0:0:
252,80,117800,2,0,L|314:69,1,60,10|2,0:0|0:0,0:0:0:0:
378,94,118255,2,0,L|437:104,1,60,10|0,0:0|0:0,0:0:0:0:
467,169,118709,2,0,L|454:294,1,120,8|8,0:0|0:0,0:0:0:0:
318,240,119618,2,0,L|312:170,2,60,10|0|10,0:0|0:0|0:0,0:0:0:0:
327,311,120300,1,0,0:0:0:0:
264,346,120528,6,0,B|234:359|234:359|139:345,1,120,10|10,0:0|0:0,0:0:0:0:
76,335,121209,1,0,0:0:0:0:
123,280,121437,2,0,P|135:246|138:212,1,60,10|2,0:0|0:0,0:0:0:0:
127,151,121891,2,0,P|131:121|141:93,1,60,10|0,0:0|0:0,0:0:0:0:
180,32,122346,1,8,0:0:0:0:
267,145,122800,2,0,L|397:136,1,120,8|10,0:0|0:0,0:0:0:0:
458,132,123482,1,0,0:0:0:0:
428,197,123709,2,0,P|421:226|420:261,1,60,10|0,0:0|0:0,0:0:0:0:
471,306,124164,70,0,P|434:327|359:294,1,120,10|10,0:0|0:0,0:0:0:0:
330,239,124846,1,0,0:0:0:0:
347,169,125073,2,0,L|355:107,1,60,10|2,0:0|0:0,0:0:0:0:
307,55,125528,2,0,P|277:58|243:73,1,60,10|0,0:0|0:0,0:0:0:0:
214,131,125982,2,0,L|225:251,1,120,8|8,0:0|0:0,0:0:0:0:
89,299,126891,2,0,L|97:234,2,60,10|0|10,0:0|0:0|0:0,0:0:0:0:
78,370,127573,1,0,0:0:0:0:
145,344,127800,6,0,B|178:328|178:328|262:340,1,120,10|10,0:0|0:0,0:0:0:0:
330,355,128482,1,0,0:0:0:0:
378,301,128709,2,0,L|369:236,1,60,10|2,0:0|0:0,0:0:0:0:
317,192,129164,2,0,L|325:132,1,60,10|0,0:0|0:0,0:0:0:0:
282,74,129618,2,0,L|160:92,1,120,8|8,0:0|0:0,0:0:0:0:
30,34,130528,1,10,0:0:0:0:
97,161,130982,2,0,L|91:230,1,60,10|0,0:0|0:0,0:0:0:0:
59,285,131437,70,0,B|91:299|91:299|178:299,1,120,10|10,0:0|0:0,0:0:0:0:
244,276,132118,1,0,0:0:0:0:
291,221,132346,2,0,L|295:156,1,60,10|2,0:0|0:0,0:0:0:0:
269,94,132800,2,0,P|327:96|366:149,1,120,10|8,0:0|0:0,0:0:0:0:
336,282,133709,1,8,0:0:0:0:
459,207,134164,2,0,L|468:136,1,60,10|0,0:0|0:0,0:0:0:0:
457,76,134618,2,0,L|448:5,1,60,10|0,0:0|0:0,0:0:0:0:
378,25,135073,6,0,B|352:25|352:25|280:36|280:36|251:36,1,120,10|10,0:0|0:0,0:0:0:0:
163,144,135982,2,0,L|169:212,1,60,10|2,0:0|0:0,0:0:0:0:
133,267,136437,2,0,L|257:279,1,120,10|8,0:0|0:0,0:0:0:0:
324,269,137118,2,0,L|402:259,2,60,2|8|0,0:0|0:0|0:0,0:0:0:0:
280,212,137800,1,10,0:0:0:0:
219,82,138255,2,0,L|150:76,1,60,10|0,0:0|0:0,0:0:0:0:
96,42,138709,70,0,L|103:170,1,120,10|10,0:0|0:0,0:0:0:0:
90,306,139618,1,10,0:0:0:0:
230,342,140073,2,0,P|297:337|351:305,1,120,10|8,0:0|0:0,0:0:0:0:
379,250,140755,2,0,L|402:191,2,60,2|8|0,0:0|0:0|0:0,0:0:0:0:
307,248,141437,2,0,L|231:243,1,60,10|0,0:0|0:0,0:0:0:0:
175,246,141891,2,0,L|115:249,1,60,10|0,0:0|0:0,0:0:0:0:
44,236,142346,6,0,P|56:293|115:323,1,120,10|10,0:0|0:0,0:0:0:0:
251,322,143255,2,0,L|327:313,1,60,10|2,0:0|0:0,0:0:0:0:
379,293,143709,2,0,L|387:167,1,120,10|8,0:0|0:0,0:0:0:0:
328,42,144618,1,8,0:0:0:0:
236,153,145073,2,0,L|165:157,1,60,10|0,0:0|0:0,0:0:0:0:
104,161,145528,2,0,L|44:157,1,60,10|0,0:0|0:0,0:0:0:0:
12,222,145982,69,12,0:0:0:0:
256,192,146096,12,0,149618,0:0:0:0:
