osu file format v14

[General]
AudioFilename: The Vision - World Eclipse.mp3
AudioLeadIn: 0
PreviewTime: -1
Countdown: 0
SampleSet: Soft
StackLeniency: 0.7
Mode: 0
LetterboxInBreaks: 1
WidescreenStoryboard: 1

[Editor]
Bookmarks: 193286,206086
DistanceSpacing: 1.3
BeatDivisor: 4
GridSize: 8
TimelineZoom: 2.600005

[Metadata]
Title:World Eclipse
TitleUnicode:World Eclipse
Artist:The Vision
ArtistUnicode:The Vision
Creator:Satyrsaw
Version:Vision
Source:
Tags:HardStyle World Eclipse The Vision Defqon. 1 The Qontinent xClusive
BeatmapID:795437
BeatmapSetID:362134

[Difficulty]
HPDrainRate:6
CircleSize:4
OverallDifficulty:8
ApproachRate:9
SliderMultiplier:1
SliderTickRate:1

[Events]
//Background and Video events
0,0,"Eclipse.jpg",0,0
//Break Periods
2,27086,32686
2,78685,90086
2,142286,146286
2,180686,192686
2,206286,269486
//Storyboard Layer 0 (Background)
//Storyboard Layer 1 (Fail)
//Storyboard Layer 2 (Pass)
//Storyboard Layer 3 (Foreground)
//Storyboard Sound Samples

[TimingPoints]
1286,400,4,2,1,70,1,0
17286,-100,4,2,1,55,0,0
26886,-50,4,2,1,55,0,0
39486,-50,4,1,1,55,0,0
90886,-133.333333333333,4,1,1,55,0,0
103686,-133.333333333333,4,2,1,55,0,0
116486,-50,4,2,1,55,0,0
153286,-50,4,2,1,70,0,1
180486,-100,4,2,1,70,0,0
218886,-50,4,2,1,70,0,1
244486,-100,4,2,1,70,0,0

[Colours]
Combo1 : 192,192,192
Combo2 : 128,0,0
Combo3 : 128,128,128
Combo4 : 255,128,128

[HitObjects]
384,304,1286,5,4,2:3:0:0:
260,240,1486,2,0,L|192:240,1,50
68,304,1886,1,0,0:0:0:0:
108,168,2086,1,0,0:0:0:0:
196,280,2286,1,0,0:0:0:0:
336,288,2486,2,0,P|376:260|396:256,1,50
252,208,2886,5,0,0:0:0:0:
192,80,3086,2,0,L|244:36,1,50
264,172,3486,1,0,0:0:0:0:
124,192,3686,1,0,0:0:0:0:
244,268,3886,1,6,2:3:0:0:
244,268,3986,1,6,2:3:0:0:
244,268,4086,1,6,2:3:0:0:
384,280,4286,6,0,L|424:224,1,50
288,196,4686,2,0,L|300:260,1,50
192,352,5086,1,0,0:0:0:0:
168,216,5286,1,0,0:0:0:0:
28,216,5486,1,0,0:0:0:0:
168,216,5686,1,0,0:0:0:0:
268,116,5886,6,0,P|300:128|316:160,1,50
216,244,6286,1,0,0:0:0:0:
344,296,6486,1,0,0:0:0:0:
260,184,6686,2,0,P|296:184|328:172,1,50
224,84,7086,1,6,2:3:0:0:
224,84,7186,1,6,2:3:0:0:
224,84,7286,2,0,P|196:96|172:120,1,50,2|0,0:0|0:0,0:0:0:0:
60,212,7686,6,0,P|92:204|116:208,1,50
244,144,8086,1,0,0:0:0:0:
312,264,8286,1,0,0:0:0:0:
172,256,8486,2,0,L|224:236,1,50
124,156,8886,1,0,0:0:0:0:
232,68,9086,1,0,0:0:0:0:
108,128,9286,2,0,P|72:152|64:176,1,50
148,300,9686,5,0,0:0:0:0:
288,280,9886,1,0,0:0:0:0:
148,300,10086,1,0,0:0:0:0:
232,188,10286,1,6,2:3:0:0:
268,184,10386,1,6,2:3:0:0:
304,180,10486,1,6,2:3:0:0:
352,48,10686,1,0,0:0:0:0:
212,40,10886,1,0,0:0:0:0:
108,136,11086,6,0,P|124:172|140:188,1,50
240,296,11486,1,0,0:0:0:0:
144,192,11686,1,0,0:0:0:0:
240,296,11886,1,0,0:0:0:0:
144,192,12086,1,0,0:0:0:0:
284,212,12286,2,0,P|316:216|344:232,1,50
232,156,12686,5,0,0:0:0:0:
176,116,12886,1,0,0:0:0:0:
112,84,13086,1,0,0:0:0:0:
48,52,13286,1,0,0:0:0:0:
40,144,13486,1,6,2:3:0:0:
44,188,13586,1,6,2:3:0:0:
72,224,13686,1,6,2:3:0:0:
152,340,13886,5,0,0:0:0:0:
244,236,14086,1,0,0:0:0:0:
104,220,14286,1,0,0:0:0:0:
196,112,14486,2,0,L|252:112,1,50
144,180,14886,2,0,L|88:180,1,50
220,148,15286,2,0,L|280:148,1,50
428,120,15686,5,0,0:0:0:0:
288,116,15886,1,0,0:0:0:0:
372,228,16086,2,0,P|352:232|304:220,1,50
188,300,16486,1,0,0:0:0:0:
104,188,16686,1,6,2:2:0:0:
96,156,16786,1,6,2:2:0:0:
92,120,16886,1,6,2:2:0:0:
220,64,17086,6,0,P|252:64|280:80,1,50,0|8,0:0|0:0,0:0:0:0:
368,188,17486,1,8,0:0:0:0:
368,188,17586,1,8,0:0:0:0:
368,188,17686,1,8,0:0:0:0:
260,276,17886,2,8,L|192:280,1,50
84,264,18286,1,8,0:0:0:0:
104,216,18386,1,8,0:0:0:0:
148,188,18486,1,8,0:0:0:0:
264,112,18686,6,0,P|280:136|284:168,1,50
152,208,19086,1,2,0:0:0:0:
112,244,19186,1,2,0:0:0:0:
96,296,19286,1,2,0:0:0:0:
232,324,19486,2,0,P|248:296|272:276,1,50
388,340,19886,5,8,2:3:0:0:
444,296,19986,1,8,2:3:0:0:
460,228,20086,2,2,P|456:188|440:164,1,50,12|2,2:3|0:0,0:0:0:0:
308,136,20486,1,2,0:0:0:0:
200,224,20686,1,2,0:0:0:0:
160,192,20786,1,2,0:0:0:0:
116,216,20886,1,2,0:0:0:0:
48,340,21086,6,2,P|80:328|112:332,1,50
256,328,21486,1,2,0:0:0:0:
300,272,21586,1,2,0:0:0:0:
256,220,21686,1,2,0:0:0:0:
156,124,21886,2,2,P|184:104|208:100,1,50
344,152,22286,5,10,0:0:0:0:
316,112,22386,1,8,0:0:0:0:
280,76,22486,1,8,0:0:0:0:
192,124,22686,2,0,L|168:192,1,50
92,260,23086,1,6,2:3:0:0:
140,280,23186,1,14,2:3:0:0:
156,332,23286,1,14,2:3:0:0:
260,328,23486,6,8,L|260:272,1,50
372,180,23886,1,8,0:0:0:0:
232,172,24086,1,8,0:0:0:0:
368,132,24286,1,8,0:0:0:0:
228,128,24486,1,8,0:0:0:0:
364,88,24686,1,8,0:0:0:0:
224,76,24886,2,0,P|192:72|164:80,1,50
56,172,25286,1,0,0:0:0:0:
172,248,25486,5,8,0:0:0:0:
136,272,25586,1,8,0:0:0:0:
92,272,25686,1,8,0:0:0:0:
112,132,25886,2,0,P|120:104|140:72,1,50
264,136,26286,5,12,2:3:0:0:
320,176,26386,1,12,2:3:0:0:
364,232,26486,2,0,B|328:288|312:240|264:280,1,100
224,188,33286,5,0,0:0:0:0:
108,96,33486,1,2,0:0:0:0:
152,80,33586,1,2,0:0:0:0:
200,72,33686,1,2,0:0:0:0:
288,116,33886,1,2,0:0:0:0:
336,116,33986,1,2,0:0:0:0:
376,144,34086,1,2,0:0:0:0:
388,284,34286,5,8,0:0:0:0:
208,280,34486,1,8,0:0:0:0:
64,168,34686,2,0,P|96:228|80:272,1,100
228,240,35086,2,0,P|156:264|136:308,1,100
268,320,35486,5,10,0:0:0:0:
364,300,35686,1,10,0:0:0:0:
432,228,35886,1,10,0:0:0:0:
464,132,36086,1,10,0:0:0:0:
432,228,36286,5,10,0:0:0:0:
332,208,36486,1,10,0:0:0:0:
256,144,36686,2,2,L|232:100,1,50
204,144,36886,2,2,L|176:100,1,50
152,144,37086,2,2,L|128:100,1,50
108,144,37286,5,2,0:0:0:0:
80,184,37386,1,2,0:0:0:0:
72,232,37486,1,2,0:0:0:0:
80,280,37586,1,2,0:0:0:0:
108,320,37686,1,2,0:0:0:0:
148,292,37786,1,2,0:0:0:0:
192,268,37886,1,2,0:0:0:0:
240,272,37986,1,2,0:0:0:0:
284,300,38086,1,2,0:0:0:0:
396,208,39486,6,6,L|432:152,1,50,6|6,3:3|3:3,3:3:0:0:
368,84,39686,1,6,3:3:0:0:
168,104,39886,2,6,P|112:120|84:160,1,100,6|6,3:3|3:3,3:3:0:0:
160,340,40286,1,6,3:3:0:0:
204,320,40386,1,6,3:3:0:0:
252,340,40486,1,6,3:3:0:0:
336,284,40686,6,4,P|388:256|432:264,1,100,4|4,3:3|3:3,3:3:0:0:
304,112,41086,1,4,3:3:0:0:
104,164,41286,1,4,3:3:0:0:
296,224,41486,1,4,3:3:0:0:
392,232,41686,1,4,3:3:0:0:
428,196,41786,1,4,3:3:0:0:
444,148,41886,6,4,P|396:100|360:100,1,100,4|12,3:3|3:3,3:3:0:0:
320,80,42186,1,12,3:3:0:0:
272,64,42286,1,12,3:3:0:0:
188,244,42486,1,4,3:3:0:0:
380,296,42686,1,4,3:3:0:0:
252,144,42886,2,4,P|280:208|272:244,1,100,4|4,3:3|3:3,3:3:0:0:
224,252,43186,5,4,3:3:0:0:
196,300,43286,1,4,3:3:0:0:
388,248,43486,1,4,3:3:0:0:
444,228,43586,2,4,L|480:184,1,50,4|4,3:3|3:3,3:3:0:0:
308,84,43886,2,4,P|260:92|196:68,1,100,4|4,3:3|3:3,3:3:0:0:
84,236,44286,2,4,L|96:296,2,50,4|4|4,3:3|3:3|3:3,3:3:0:0:
272,164,44686,6,4,P|348:160|368:180,1,100,4|4,3:3|3:3,3:3:0:0:
208,304,45086,1,4,3:3:0:0:
408,328,45286,1,2,2:2:0:0:
436,288,45386,1,2,2:2:0:0:
460,244,45486,1,2,2:2:0:0:
460,196,45586,1,2,2:2:0:0:
448,148,45686,1,10,2:2:0:0:
52,92,46086,5,14,3:2:0:0:
64,140,46186,1,14,3:2:0:0:
112,152,46286,1,14,3:2:0:0:
204,332,46486,2,4,P|268:344|288:368,1,100,4|4,3:0|3:0,3:0:0:0:
360,348,46786,1,4,3:0:0:0:
428,316,46886,2,4,L|428:216,1,100,4|4,3:0|3:0,3:0:0:0:
340,92,47286,6,4,P|344:152|336:212,1,100,4|4,3:0|3:0,3:0:0:0:
156,272,47686,1,4,3:0:0:0:
96,288,47786,1,4,3:0:0:0:
76,232,47886,1,4,3:0:0:0:
240,96,48086,2,4,P|248:156|228:192,1,100,4|4,3:0|3:0,3:0:0:0:
340,260,48486,5,4,3:0:0:0:
296,308,48586,1,4,3:0:0:0:
232,328,48686,1,12,3:2:0:0:
168,312,48786,1,14,3:2:0:0:
112,276,48886,2,4,P|120:224|156:172,1,100,4|12,3:0|3:2,3:0:0:0:
300,56,49286,1,4,3:0:0:0:
120,140,49486,5,4,3:0:0:0:
168,184,49586,1,4,3:0:0:0:
180,248,49686,1,4,3:0:0:0:
356,156,49886,1,4,3:0:0:0:
428,344,50086,2,4,P|440:284|432:260,2,50,4|4|4,3:0|3:0|3:0,3:0:0:0:
228,328,50486,2,4,P|164:324|136:292,1,100,4|4,3:0|3:0,3:0:0:0:
208,112,50886,2,4,P|224:184|256:208,1,100,4|4,3:0|3:0,3:0:0:0:
456,56,51286,5,12,0:0:0:0:
280,288,51486,1,12,0:0:0:0:
80,80,51686,1,12,0:0:0:0:
416,176,51886,1,12,0:0:0:0:
96,288,52086,1,12,0:0:0:0:
296,96,52286,1,12,0:0:0:0:
96,156,52686,5,4,0:3:0:0:
96,156,52786,1,4,0:3:0:0:
96,156,52886,2,4,P|92:212|124:248,1,100,4|4,0:3|0:3,0:3:0:0:
264,108,53286,1,4,0:3:0:0:
80,336,53686,2,4,P|144:340|192:340,1,100,4|4,0:3|0:3,0:3:0:0:
344,304,54086,1,0,0:0:0:0:
400,144,54286,5,4,0:3:0:0:
340,132,54386,1,4,0:3:0:0:
288,160,54486,1,4,0:3:0:0:
172,124,54686,2,4,P|224:104|280:96,1,100,4|4,0:3|0:3,0:3:0:0:
116,228,55086,2,4,P|68:256|28:292,1,100,4|4,0:3|0:3,0:3:0:0:
204,180,55486,2,4,P|272:156|316:144,1,100,4|4,0:3|0:3,0:3:0:0:
456,120,56086,1,4,0:3:0:0:
264,176,56286,1,4,0:3:0:0:
96,68,56486,5,4,0:3:0:0:
64,112,56586,1,4,0:3:0:0:
48,164,56686,1,4,0:3:0:0:
140,228,56886,2,4,P|172:176|212:156,1,100,4|4,0:3|0:3,0:3:0:0:
360,32,57286,1,4,0:3:0:0:
172,104,57486,1,4,0:3:0:0:
336,220,57686,1,4,0:3:0:0:
164,320,57886,6,4,P|184:264|176:212,1,100,4|4,0:3|2:3,0:3:0:0:
160,168,58186,1,4,2:3:0:0:
128,116,58286,1,4,2:3:0:0:
328,92,58486,1,8,2:2:0:0:
328,92,58686,1,8,2:2:0:0:
96,280,59086,1,8,2:2:0:0:
96,280,59186,1,8,2:2:0:0:
96,280,59286,1,8,2:2:0:0:
216,120,59486,6,4,P|264:140|308:120,1,100,4|4,0:3|0:3,0:3:0:0:
200,292,59886,1,4,0:3:0:0:
400,292,60086,1,4,0:3:0:0:
68,72,60486,6,4,L|128:72,2,50,4|4|4,0:3|0:3|0:3,0:3:0:0:
164,188,60886,1,4,0:3:0:0:
260,304,61086,1,4,0:3:0:0:
404,268,61286,1,12,0:3:0:0:
424,220,61386,1,12,0:3:0:0:
428,172,61486,1,12,0:3:0:0:
380,84,61686,2,4,P|304:72|244:88,1,100,4|4,0:3|0:3,0:3:0:0:
232,76,61986,1,4,0:3:0:0:
192,108,62086,1,4,0:3:0:0:
308,272,62286,5,4,0:3:0:0:
108,252,62486,2,4,P|144:212|200:192,1,100,4|4,0:3|0:3,0:3:0:0:
384,188,62886,1,4,0:3:0:0:
264,28,63086,1,4,0:3:0:0:
144,188,63286,1,12,2:3:0:0:
232,152,63686,5,4,2:3:0:0:
232,152,63886,1,4,2:3:0:0:
224,160,64086,2,0,B|296:136|304:256|328:272|432:192|320:64|240:96,1,300,0|0,2:2|2:2,0:0:0:0:
216,80,64786,1,8,2:2:0:0:
168,80,64886,1,8,2:2:0:0:
72,256,65086,5,8,2:2:0:0:
96,288,65186,1,4,2:2:0:0:
128,304,65286,2,0,P|176:328|232:320,1,100
208,120,65686,2,0,P|288:128|328:128,1,100
360,344,66086,2,0,L|360:232,1,100
72,184,66486,2,0,P|78:233|107:273,1,100
152,304,66786,1,0,0:0:0:0:
220,324,66886,6,0,P|268:332|324:324,1,100
376,288,67186,1,0,0:0:0:0:
376,224,67286,2,0,P|344:144|352:112,1,100
208,104,67686,2,0,P|192:160|200:216,1,100
264,304,68086,2,0,P|320:280|368:280,1,100
168,96,68486,2,0,P|120:80|72:96,1,100
144,296,68886,6,0,P|192:336|256:336,1,100
96,120,69286,2,0,P|80:48|56:32,1,100
248,56,69686,2,0,P|304:72|336:112,1,100
336,160,69986,1,0,0:0:0:0:
328,200,70086,2,0,P|376:240|424:240,1,100
464,200,70386,1,0,0:0:0:0:
464,136,70486,2,0,P|448:88|400:64,1,100
216,192,70886,6,0,P|216:248|192:288,1,100
152,304,71186,1,8,2:2:0:0:
104,312,71286,1,8,2:2:0:0:
48,80,71486,1,8,2:2:0:0:
272,128,71686,2,0,P|328:152|384:144,1,100,0|4,0:0|2:2,0:0:0:0:
416,128,71986,1,4,2:2:0:0:
456,88,72086,1,4,2:2:0:0:
392,304,72286,5,4,2:2:0:0:
200,232,72486,2,0,P|272:208|304:216,1,100
64,320,72886,2,0,L|168:320,1,100
64,104,73286,2,0,L|104:216,1,100
152,240,73586,1,0,0:0:0:0:
200,192,73686,2,0,P|240:144|288:136,1,100
344,136,73986,1,0,0:0:0:0:
416,160,74086,2,0,P|416:216|408:272,1,100
88,320,74486,5,0,0:0:0:0:
248,248,74686,1,0,0:0:0:0:
104,144,74886,2,0,P|168:120|208:120,1,100
248,120,75186,1,8,2:2:0:0:
296,128,75286,1,8,2:2:0:0:
168,280,75486,1,8,2:2:0:0:
120,256,75586,1,8,2:2:0:0:
88,216,75686,1,8,2:2:0:0:
160,80,75886,5,8,2:2:0:0:
200,72,75986,1,8,2:2:0:0:
248,56,76086,2,0,P|312:64|352:80,1,100
288,288,76686,1,0,2:2:0:0:
288,288,76886,2,0,B|384:272|448:160|384:48|384:48|280:48,2,400,0|0|0,2:2|2:2|2:2,2:2:0:0:
328,232,90686,5,0,2:2:0:0:
328,232,90786,1,0,2:2:0:0:
328,232,90886,2,0,B|408:232|408:232|456:192|160:176|344:136,2,300.000011444092,0|0|0,0:0|2:0|2:0,0:0:0:0:
152,88,94886,2,0,P|104:104|80:208,1,150.000005722046,0|0,2:0|2:0,2:0:0:0:
152,320,96886,1,0,2:0:0:0:
152,320,97286,2,0,B|248:328|304:248|240:160|256:136|344:136,2,300.000011444092,0|0|0,2:0|2:0|2:0,2:0:0:0:
320,88,101286,5,0,2:0:0:0:
96,136,101686,2,0,B|120:144|160:216|160:216|208:120|240:128,1,225.000008583069,0|0,2:0|2:0,2:0:0:0:
240,208,103686,1,0,2:0:0:0:
80,280,103886,1,0,2:0:0:0:
176,320,104086,1,0,2:0:0:0:
272,296,104286,1,0,2:0:0:0:
160,80,104486,5,0,2:0:0:0:
240,136,104686,1,0,2:0:0:0:
336,88,104886,1,0,2:0:0:0:
416,320,105086,1,0,2:0:0:0:
168,328,105286,2,0,P|144:304|128:296,1,37.5000014305115,0|0,2:0|2:0,2:0:0:0:
152,152,105686,5,0,0:0:0:0:
312,168,105886,1,0,0:0:0:0:
152,216,106086,1,0,0:0:0:0:
48,64,106286,1,0,0:0:0:0:
320,88,106486,1,0,0:0:0:0:
320,288,106686,6,0,L|344:248,1,37.5000014305115
144,112,107086,1,0,0:0:0:0:
344,224,107286,1,0,0:0:0:0:
152,160,107486,1,0,0:0:0:0:
232,240,107686,1,0,0:0:0:0:
192,144,107886,1,0,0:0:0:0:
296,72,108086,5,0,0:0:0:0:
352,80,108186,1,0,0:0:0:0:
392,128,108286,1,0,0:0:0:0:
232,280,108686,1,0,0:0:0:0:
120,224,108886,1,0,0:0:0:0:
120,80,109086,1,0,0:0:0:0:
392,80,109286,1,0,0:0:0:0:
88,304,109686,1,0,0:0:0:0:
136,328,109786,1,0,0:0:0:0:
192,336,109886,1,0,0:0:0:0:
424,264,110286,5,0,0:0:0:0:
456,160,110486,1,0,0:0:0:0:
424,56,110686,1,0,0:0:0:0:
312,16,110886,1,0,0:0:0:0:
64,200,111286,1,0,0:0:0:0:
136,200,111386,1,0,0:0:0:0:
208,208,111486,1,0,0:0:0:0:
368,344,111886,5,0,0:0:0:0:
352,160,112086,1,0,0:0:0:0:
264,352,112286,1,0,0:0:0:0:
232,168,112486,1,0,0:0:0:0:
120,80,112886,1,0,0:0:0:0:
184,80,112986,1,0,0:0:0:0:
256,80,113086,1,0,0:0:0:0:
80,288,113486,5,0,0:0:0:0:
48,160,113686,1,0,0:0:0:0:
216,200,113886,1,0,0:0:0:0:
248,328,114086,1,0,0:0:0:0:
368,192,114486,1,0,0:0:0:0:
416,120,114686,1,0,0:0:0:0:
112,128,115086,5,0,0:0:0:0:
88,248,115286,1,0,0:0:0:0:
192,312,115486,1,0,0:0:0:0:
320,256,115686,1,0,0:0:0:0:
264,96,116086,1,0,0:0:0:0:
368,152,116286,1,0,0:0:0:0:
368,296,116486,6,0,P|320:320|232:272,1,150
192,232,117086,2,0,L|88:192,1,100
144,56,117486,1,0,0:0:0:0:
304,56,117686,1,0,0:0:0:0:
288,312,117886,2,0,P|312:256|360:200,1,100
256,144,118386,6,0,P|216:96|128:104,1,150
104,216,118886,1,0,0:0:0:0:
240,312,119086,1,0,0:0:0:0:
264,320,119186,1,0,0:0:0:0:
296,328,119286,1,0,0:0:0:0:
408,192,119486,1,0,0:0:0:0:
304,328,119686,6,0,P|288:280|184:240,1,150
160,72,120286,1,0,0:0:0:0:
384,80,120486,1,0,0:0:0:0:
264,208,120686,1,0,0:0:0:0:
112,256,120886,1,0,0:0:0:0:
360,320,121086,6,0,P|400:328|440:288,1,100
320,120,121586,1,0,0:0:0:0:
160,112,121886,2,0,P|184:160|160:224,1,100
32,208,122286,1,0,0:0:0:0:
40,152,122386,1,0,0:0:0:0:
48,104,122486,1,0,0:0:0:0:
208,192,122686,5,0,0:0:0:0:
288,72,122886,2,0,B|392:80|272:216|384:160|384:208,1,150
424,176,123486,1,0,0:0:0:0:
328,296,123686,2,0,P|272:280|216:256,1,100
192,240,123986,1,0,0:0:0:0:
144,216,124086,1,0,0:0:0:0:
232,48,124286,5,0,0:0:0:0:
232,216,124486,2,0,P|200:272|128:320,1,150
376,192,125086,1,0,0:0:0:0:
208,136,125286,1,0,0:0:0:0:
96,272,125486,1,0,0:0:0:0:
144,296,125586,1,0,0:0:0:0:
192,304,125686,1,0,0:0:0:0:
392,328,125886,5,0,0:0:0:0:
424,176,126086,2,0,P|376:216|280:184,1,150
96,96,126686,1,0,0:0:0:0:
184,160,126886,2,0,P|240:144|336:160,1,150
200,320,127486,1,0,0:0:0:0:
96,80,128886,5,8,0:0:0:0:
208,128,129086,1,0,0:0:0:0:
312,176,129286,1,0,0:0:0:0:
352,184,129386,1,0,0:0:0:0:
400,200,129486,1,0,0:0:0:0:
440,232,129586,2,8,P|448:288|368:328,1,150,0|0,0:0|0:0,0:0:0:0:
224,320,130086,1,0,0:0:0:0:
120,224,130286,5,0,0:0:0:0:
96,192,130386,1,0,0:0:0:0:
72,152,130486,1,0,0:0:0:0:
240,104,130686,1,0,0:0:0:0:
336,232,130886,1,0,0:0:0:0:
144,200,131086,1,0,0:0:0:0:
112,160,131186,1,0,0:0:0:0:
104,120,131286,1,0,0:0:0:0:
96,112,131486,5,0,0:0:0:0:
192,280,131686,1,0,0:0:0:0:
400,256,131886,1,0,0:0:0:0:
296,128,132086,1,0,0:0:0:0:
144,160,132286,1,0,0:0:0:0:
208,296,132486,1,0,0:0:0:0:
208,304,132686,5,0,0:0:0:0:
240,264,132786,1,0,0:0:0:0:
248,208,132886,1,0,0:0:0:0:
432,192,133086,1,0,0:0:0:0:
336,88,133286,1,0,0:0:0:0:
200,80,133486,5,0,0:0:0:0:
160,80,133586,1,0,0:0:0:0:
120,96,133686,1,0,0:0:0:0:
56,256,133886,1,0,0:0:0:0:
240,160,134086,1,0,0:0:0:0:
416,296,134286,5,0,0:0:0:0:
376,320,134386,1,0,0:0:0:0:
336,336,134486,1,0,0:0:0:0:
448,176,134686,1,0,0:0:0:0:
216,192,134886,2,0,P|192:128|200:88,1,100
360,48,135286,5,0,0:0:0:0:
440,208,135486,1,0,0:0:0:0:
272,312,135686,1,0,0:0:0:0:
224,312,135786,1,0,0:0:0:0:
184,312,135886,1,0,0:0:0:0:
144,312,135986,2,0,B|104:280|112:240|32:176,1,150
176,64,136486,5,0,0:0:0:0:
208,64,136586,1,0,0:0:0:0:
240,64,136686,2,0,B|304:56|296:168|416:136,1,200
456,272,137386,1,0,0:0:0:0:
416,272,137486,1,0,0:0:0:0:
376,288,137586,1,0,0:0:0:0:
88,128,137886,5,0,0:0:0:0:
152,320,138186,1,0,0:0:0:0:
184,320,138286,1,0,0:0:0:0:
240,320,138386,2,0,P|256:272|312:248,1,100
440,96,138886,1,0,0:0:0:0:
384,240,139086,5,0,0:0:0:0:
336,240,139186,1,0,0:0:0:0:
312,192,139286,1,0,0:0:0:0:
104,312,139486,1,0,0:0:0:0:
272,320,139686,1,0,0:0:0:0:
224,104,139886,5,0,0:0:0:0:
232,128,139986,1,0,0:0:0:0:
224,160,140086,1,0,0:0:0:0:
416,312,140286,1,0,0:0:0:0:
224,168,140486,1,0,0:0:0:0:
112,296,140686,5,0,0:0:0:0:
136,248,140786,1,0,0:0:0:0:
120,200,140886,1,0,0:0:0:0:
296,184,141086,1,0,0:0:0:0:
112,232,141286,1,0,0:0:0:0:
80,72,141486,1,0,0:0:0:0:
112,96,141586,1,0,0:0:0:0:
128,128,141686,2,0,B|152:176|232:88|160:16|80:88,1,200
256,192,146886,12,6,153286,2:3:0:0:
192,120,153886,5,2,0:0:0:0:
192,120,153986,1,2,0:0:0:0:
192,120,154086,1,2,0:0:0:0:
376,288,154486,5,8,0:0:0:0:
192,192,154886,2,0,B|248:232|248:232|296:232,1,100
336,272,155186,1,0,0:0:0:0:
400,280,155286,2,0,P|432:240|416:184,1,100
112,80,155686,2,0,P|88:128|80:176,1,100
120,200,155986,1,0,0:0:0:0:
160,200,156086,6,0,P|208:224|256:208,1,100
416,104,156486,1,0,0:0:0:0:
416,248,156686,1,0,0:0:0:0:
352,272,156786,1,0,0:0:0:0:
304,288,156886,2,0,P|256:272|200:272,1,100
344,64,157286,1,0,0:0:0:0:
168,72,157486,5,0,0:0:0:0:
128,96,157586,1,0,0:0:0:0:
96,112,157686,2,0,P|104:176|80:208,1,100
248,320,158086,2,0,L|352:328,1,100,0|2,0:0|0:0,0:0:0:0:
392,288,158386,1,2,0:0:0:0:
424,256,158486,1,2,0:0:0:0:
128,152,158686,1,0,0:0:0:0:
144,328,158886,1,0,0:0:0:0:
328,232,159086,5,2,0:0:0:0:
360,192,159186,1,2,0:0:0:0:
416,208,159286,1,2,0:0:0:0:
224,328,159486,1,0,0:0:0:0:
136,224,159686,2,0,P|160:168|136:120,1,100,0|2,0:0|0:0,0:0:0:0:
208,72,159986,1,2,0:0:0:0:
288,48,160086,2,0,P|352:64|376:96,1,100,2|0,0:0|0:0,0:0:0:0:
376,288,160486,2,0,P|312:312|248:288,1,100,0|8,0:0|0:0,0:0:0:0:
320,128,160886,5,8,0:0:0:0:
352,104,160986,1,0,0:0:0:0:
392,96,161086,1,8,0:0:0:0:
280,312,161286,2,0,P|224:296|176:312,1,100,0|2,0:0|0:0,0:0:0:0:
144,280,161586,1,2,0:0:0:0:
104,248,161686,1,2,0:0:0:0:
144,88,161886,6,0,L|224:160,1,100
152,248,162286,2,0,P|88:248|72:304,1,100
424,312,162686,2,0,P|416:240|440:208,1,100
240,192,163086,1,2,0:0:0:0:
184,192,163186,1,2,0:0:0:0:
144,192,163286,1,2,0:0:0:0:
240,312,163486,5,2,0:0:0:0:
240,136,163686,2,0,P|296:152|352:128,1,100
160,224,164086,1,2,0:0:0:0:
104,232,164186,1,2,0:0:0:0:
48,216,164286,1,2,0:0:0:0:
328,304,164486,2,2,P|368:240|408:224,1,100,0|2,0:0|0:0,0:0:0:0:
384,152,164786,1,0,0:0:0:0:
328,104,164886,1,2,0:0:0:0:
88,224,165086,5,0,0:0:0:0:
272,304,165286,1,0,0:0:0:0:
184,88,165486,1,0,0:0:0:0:
184,128,165586,1,2,0:0:0:0:
184,168,165686,1,2,0:0:0:0:
352,312,165886,6,0,P|376:256|368:208,1,100
104,192,166286,1,0,0:0:0:0:
112,160,166386,1,0,0:0:0:0:
120,128,166486,2,0,P|144:80|200:64,1,100
304,96,166886,1,0,0:0:0:0:
160,240,167086,5,2,0:0:0:0:
144,264,167186,1,2,0:0:0:0:
112,288,167286,2,0,P|96:216|120:192,1,100,2|0,0:0|0:0,0:0:0:0:
384,288,167686,2,0,P|336:232|344:208,1,100
360,160,167986,5,0,0:0:0:0:
320,104,168086,2,0,L|208:104,1,100
88,72,168486,1,0,0:0:0:0:
80,264,168686,1,0,0:0:0:0:
112,288,168786,1,0,0:0:0:0:
160,304,168886,2,0,P|216:280|272:280,1,100
424,88,169286,5,0,0:0:0:0:
368,280,169486,1,0,0:0:0:0:
336,296,169586,1,0,0:0:0:0:
296,296,169686,2,0,L|184:232,1,100
112,136,170086,5,0,0:0:0:0:
400,72,170286,1,8,0:0:0:0:
280,280,170486,1,8,0:0:0:0:
200,48,170686,1,8,0:0:0:0:
112,312,170886,2,0,P|168:256|208:256,1,100
248,256,171186,1,0,0:0:0:0:
296,256,171286,1,0,0:0:0:0:
120,72,171486,5,0,0:0:0:0:
288,232,171686,2,0,L|216:232|152:232,1,100
160,232,171986,1,0,0:0:0:0:
128,232,172086,1,0,0:0:0:0:
104,88,172286,2,0,P|104:144|80:200,1,100
288,328,172686,1,0,0:0:0:0:
336,320,172786,1,0,0:0:0:0:
376,304,172886,1,0,0:0:0:0:
152,176,173086,5,0,0:0:0:0:
320,48,173286,2,0,P|360:104|360:152,1,100
248,224,173686,1,0,0:0:0:0:
288,80,173886,2,0,P|336:96|368:160,1,100
152,272,174286,5,0,0:0:0:0:
128,288,174386,1,0,0:0:0:0:
104,296,174486,1,0,0:0:0:0:
80,80,174686,2,0,P|144:80|176:112,1,100
424,48,175086,1,0,0:0:0:0:
360,248,175286,2,0,P|360:184|320:144,1,100
128,176,175686,5,0,0:0:0:0:
360,256,175886,1,0,0:0:0:0:
392,240,175986,1,0,0:0:0:0:
432,232,176086,1,0,0:0:0:0:
256,112,176286,2,0,P|208:96|152:96,1,100
88,320,176686,1,0,0:0:0:0:
152,120,176886,5,0,0:0:0:0:
392,184,177086,1,0,0:0:0:0:
192,320,177286,2,0,P|144:256|112:240,1,100
96,200,177586,1,0,0:0:0:0:
72,160,177686,1,0,0:0:0:0:
216,48,177886,2,0,P|264:80|312:88,1,100
88,184,178286,5,0,0:0:0:0:
128,224,178386,1,0,0:0:0:0:
160,264,178486,1,0,0:0:0:0:
424,216,178686,1,0,0:0:0:0:
224,328,178886,2,0,P|192:280|200:216,1,100
200,184,179186,1,0,0:0:0:0:
224,136,179286,1,0,0:0:0:0:
424,312,179486,1,0,0:0:0:0:
96,152,179686,5,0,0:0:0:0:
240,336,179886,1,0,0:0:0:0:
392,112,180086,1,0,0:0:0:0:
176,32,180286,2,0,P|144:72|152:120,1,100,0|14,0:0|3:2,0:0:0:0:
264,176,193286,5,0,0:0:0:0:
136,296,193486,1,0,0:0:0:0:
96,296,193586,1,0,0:0:0:0:
32,48,193886,1,0,0:0:0:0:
240,176,194086,1,0,0:0:0:0:
264,192,194186,2,0,P|312:200|352:184,1,75
216,56,194686,5,0,0:0:0:0:
368,240,194886,1,0,0:0:0:0:
120,240,195086,1,0,0:0:0:0:
128,216,195186,2,0,P|128:160|144:136,1,75
400,144,195686,1,0,0:0:0:0:
96,48,195986,5,0,0:0:0:0:
112,88,196086,1,0,0:0:0:0:
320,120,196286,1,0,0:0:0:0:
200,240,196486,2,0,P|176:200|136:184,1,75
208,56,197086,1,0,0:0:0:0:
408,176,197286,1,0,0:0:0:0:
416,208,197386,1,0,0:0:0:0:
264,176,199686,5,0,0:0:0:0:
136,296,199886,1,0,0:0:0:0:
96,296,199986,1,0,0:0:0:0:
32,48,200286,1,0,0:0:0:0:
240,176,200486,1,0,0:0:0:0:
264,192,200586,2,0,P|312:200|352:184,1,75
216,56,201086,5,0,0:0:0:0:
368,240,201286,1,0,0:0:0:0:
120,240,201486,1,0,0:0:0:0:
128,216,201586,2,0,P|128:160|144:136,1,75
368,112,202186,1,0,0:0:0:0:
216,64,202386,5,0,0:0:0:0:
160,64,202486,1,0,0:0:0:0:
296,168,202686,1,0,0:0:0:0:
104,240,202886,2,0,P|135:259|152:293,1,75
256,176,206086,1,0,0:0:0:0:
304,168,270086,5,0,0:0:0:0:
240,152,270086,5,0,0:0:0:0:
216,128,270086,5,0,0:0:0:0:
296,64,270086,5,0,0:0:0:0:
272,64,270086,5,0,0:0:0:0:
248,72,270086,5,0,0:0:0:0:
232,80,270086,5,0,0:0:0:0:
232,96,270086,5,0,0:0:0:0:
216,104,270086,5,0,0:0:0:0:
272,168,270086,5,0,0:0:0:0:
248,176,270086,5,0,0:0:0:0:
240,200,270086,5,0,0:0:0:0:
240,224,270086,5,0,0:0:0:0:
248,248,270086,5,0,0:0:0:0:
272,264,270086,5,0,0:0:0:0:
296,264,270086,5,0,0:0:0:0:
328,264,270086,5,0,0:0:0:0:
