osu file format v14

[General]
AudioFilename: audio.mp3
AudioLeadIn: 0
PreviewTime: 70634
Countdown: 0
SampleSet: Normal
StackLeniency: 0.4
Mode: 0
LetterboxInBreaks: 0
WidescreenStoryboard: 0

[Editor]
Bookmarks: 52634,102634,118634
DistanceSpacing: 1.3
BeatDivisor: 8
GridSize: 16
TimelineZoom: 1.9

[Metadata]
Title:EZ4ENCE (kannatuslaulu)
TitleUnicode:EZ4ENCE (kannatuslaulu)
Artist:The Verkkars
ArtistUnicode:The Verkkars
Creator:im hide
Version:EZ4ENCE
Source:
Tags:Finnish Counter Strike Global Offensive Ence Esports Meme Samoyed IOException deadcode csgo cs:go
BeatmapID:1950626
BeatmapSetID:934303

[Difficulty]
HPDrainRate:5
CircleSize:4
OverallDifficulty:8
ApproachRate:9
SliderMultiplier:2
SliderTickRate:1

[Events]
//Background and Video events
0,0,"1551011547.2803.jpeg",0,0
//Break Periods
2,102829,116029
//Storyboard Layer 0 (Background)
//Storyboard Layer 1 (Fail)
//Storyboard Layer 2 (Pass)
//Storyboard Layer 3 (Foreground)
//Storyboard Sound Samples

[TimingPoints]
2629,500,4,2,1,74,1,0
10629,-100,4,2,2,45,0,0
18629,-100,4,2,2,65,0,0
28629,-66.6666666666667,4,1,1,85,0,1
43629,-100,4,1,1,85,0,1
44629,-100,4,2,3,65,0,0
45129,-100,4,2,2,65,0,0
60629,-100,4,2,1,65,0,0
64629,-100,4,2,4,65,0,0
66129,-100,4,2,4,75,0,0
66629,-100,4,2,4,90,0,0
67379,-100,4,2,4,60,0,0
68629,-200,4,2,4,60,0,0
70629,-66.6666666666667,4,1,1,85,0,1
84629,-100,4,1,1,85,0,0
86629,-50,4,1,1,85,0,1
92629,-66.6666666666667,4,1,2,70,0,1
94629,-50,4,1,1,85,0,1
100504,-66.6666666666667,4,1,2,70,0,1
102629,-133.333333333333,4,1,1,60,0,0
118504,-133.333333333333,4,1,1,5,0,0
118629,-100,4,2,2,40,0,0
120129,-133.333333333333,4,2,2,40,0,0
120629,-66.6666666666667,4,1,1,85,0,1
132629,-100,4,1,1,85,0,0
134629,-50,4,1,1,85,0,1
140504,-66.6666666666667,4,1,2,70,0,1
142629,-50,4,1,1,85,0,1
148629,-66.6666666666667,4,1,1,68,0,1
150379,-66.6666666666667,4,1,1,85,0,0

[Colours]
Combo1 : 128,38,40
Combo2 : 134,94,49
Combo3 : 197,153,80

[HitObjects]
463,273,2629,6,0,P|441:213|451:168,1,100,8|0,0:0|0:0,0:0:0:0:
475,67,3129,1,8,0:0:0:0:
333,143,3379,1,0,0:0:0:0:
333,143,3504,1,0,0:0:0:0:
333,143,3629,2,0,P|355:83|345:38,1,100,8|0,0:0|0:0,0:0:0:0:
139,95,4129,6,0,L|253:84,1,100,8|0,0:0|0:0,0:0:0:0:
36,63,4504,1,0,0:0:0:0:
36,63,4629,2,0,B|23:98|23:98|45:164,1,100,8|0,0:0|0:0,0:0:0:0:
237,188,5129,2,0,L|224:295,1,100,8|0,0:0|0:0,0:0:0:0:
62,262,5504,5,0,0:0:0:0:
62,262,5629,2,0,P|105:244|136:244,1,50,8|0,0:0|0:0,0:0:0:0:
140,351,5879,2,0,P|176:379|206:387,1,50,0|0,0:0|0:0,0:0:0:0:
58,254,6129,2,0,P|101:236|132:236,1,50,8|0,0:0|0:0,0:0:0:0:
128,355,6379,2,0,P|164:383|194:391,1,50,0|0,0:0|0:0,0:0:0:0:
427,294,6629,2,0,P|371:289|307:341,1,100,8|0,0:0|0:0,0:0:0:0:
508,190,7129,6,0,P|463:189|433:177,1,50,8|0,0:0|0:0,0:0:0:0:
361,135,7379,2,0,P|317:147|291:166,1,50,0|0,0:0|0:0,0:0:0:0:
508,201,7629,2,0,P|463:200|433:188,1,50,8|0,0:0|0:0,0:0:0:0:
357,125,7879,2,0,P|313:137|287:156,1,50,0|0,0:0|0:0,0:0:0:0:
186,208,8129,2,0,P|187:119|155:92,1,100,8|0,0:0|0:0,0:0:0:0:
53,64,8504,5,0,0:0:0:0:
53,64,8629,2,0,L|45:113,3,50,8|0|0|0,0:0|0:0|0:0|0:0,0:0:0:0:
191,163,9129,2,0,L|183:114,3,50,8|0|0|0,0:0|0:0|0:0|0:0,0:0:0:0:
325,63,9629,2,0,L|317:112,3,50,8|0|0|0,0:0|0:0|0:0|0:0,0:0:0:0:
459,205,10129,2,0,L|443:100,1,100,12|0,0:0|0:0,0:0:0:0:
478,341,10629,6,0,P|437:312|357:316,1,100,8|0,0:0|0:0,0:0:0:0:
198,348,11129,2,0,L|134:356,1,50,8|0,0:0|0:0,0:0:0:0:
250,250,11379,2,0,L|299:256,1,50,0|0,0:0|0:0,0:0:0:0:
133,235,11629,6,0,B|115:204|115:204|121:125,1,100,8|0,0:0|0:0,0:0:0:0:
200,5,12129,2,0,P|196:44|187:64,1,50,8|0,0:0|0:0,0:0:0:0:
279,121,12379,2,0,P|243:137|221:139,1,50,0|0,0:0|0:0,0:0:0:0:
25,151,12629,6,0,P|76:131|140:154,1,100,8|0,0:0|0:0,0:0:0:0:
185,230,13129,2,0,L|193:283,1,50,8|0,0:0|0:0,0:0:0:0:
297,356,13379,2,0,L|305:303,1,50,0|0,0:0|0:0,0:0:0:0:
426,207,13629,6,0,B|408:243|408:243|419:311,1,100,8|0,0:0|0:0,0:0:0:0:
507,157,14004,1,0,0:0:0:0:
507,157,14129,2,0,P|482:128|449:114,1,50,8|0,0:0|0:0,0:0:0:0:
471,27,14379,2,0,P|433:34|404:55,1,50,0|0,0:0|0:0,0:0:0:0:
369,124,14629,6,0,P|326:78|321:24,1,100,8|0,0:0|0:0,0:0:0:0:
157,21,15004,1,0,0:0:0:0:
157,21,15129,2,0,P|170:41|177:65,1,50,8|0,0:0|0:0,0:0:0:0:
241,140,15379,2,0,P|230:162|212:180,1,50,0|0,0:0|0:0,0:0:0:0:
84,80,15629,6,0,P|70:100|63:124,1,50,8|0,0:0|0:0,0:0:0:0:
0,199,15879,2,0,P|10:221|28:239,1,50,0|0,0:0|0:0,0:0:0:0:
133,310,16129,2,0,L|121:199,1,100,8|0,0:0|0:0,0:0:0:0:
31,344,16504,5,0,0:0:0:0:
31,344,16629,2,0,P|48:361|59:384,1,50,8|0,0:0|0:0,0:0:0:0:
262,252,16879,2,0,P|244:269|233:292,1,50,0|0,0:0|0:0,0:0:0:0:
489,318,17129,5,8,0:0:0:0:
489,318,17379,5,0,0:0:0:0:
489,318,17629,6,0,P|468:276|469:250,1,50,8|0,0:0|0:0,0:0:0:0:
375,232,17879,2,0,P|400:192|423:180,1,50,0|0,0:0|0:0,0:0:0:0:
347,69,18129,2,0,P|326:111|327:137,1,50,8|0,0:0|0:0,0:0:0:0:
260,195,18379,2,0,P|243:177|233:155,1,50,0|0,0:0|0:0,0:0:0:0:
104,153,18629,5,8,0:0:0:0:
104,153,18754,1,0,0:0:0:0:
104,153,18879,2,0,P|39:165|20:183,1,50,2|0,0:0|0:0,0:0:0:0:
187,44,19129,2,0,P|201:23|208:0,1,50,8|0,0:0|0:0,0:0:0:0:
319,63,19379,2,0,L|326:118,1,50,2|0,0:0|0:0,0:0:0:0:
456,133,19629,2,0,L|440:257,1,100,8|2,0:0|0:0,0:0:0:0:
261,316,20004,1,0,0:0:0:0:
261,316,20129,2,0,P|305:302|388:335,1,100,8|2,0:0|0:0,0:0:0:0:
494,313,20504,2,0,P|459:281|446:193,1,100,8|0,0:0|0:0,0:0:0:0:
334,130,20879,6,0,L|330:190,1,50,10|0,0:0|0:0,0:0:0:0:
198,215,21129,2,0,L|194:155,1,50,8|0,0:0|0:0,0:0:0:0:
73,66,21379,2,0,L|63:180,1,100,10|0,0:0|0:0,0:0:0:0:
51,189,21754,6,0,P|97:162|123:159,1,50,8|2,0:0|0:0,0:0:0:0:
250,123,22004,1,0,0:0:0:0:
250,123,22129,2,0,P|227:112|189:40,1,100,8|2,0:0|0:0,0:0:0:0:
401,14,22504,2,0,P|352:7|308:30,1,100,8|0,0:0|0:0,0:0:0:0:
474,126,22879,6,0,L|483:63,1,50,10|0,0:0|0:0,0:0:0:0:
250,123,23129,2,0,L|257:172,1,50,8|0,0:0|0:0,0:0:0:0:
472,243,23379,1,10,0:0:0:0:
472,243,23504,1,0,0:0:0:0:
472,243,23629,2,0,P|417:227|341:265,1,100,8|2,0:0|0:0,0:0:0:0:
221,363,24004,1,8,0:0:0:0:
221,363,24129,1,0,0:0:0:0:
221,363,24254,2,0,P|262:323|267:238,1,100,8|0,0:0|0:0,0:0:0:0:
55,116,24629,6,0,P|64:144|64:172,1,50,8|0,0:0|0:0,0:0:0:0:
166,177,24879,2,0,P|159:205|145:229,1,50,2|0,0:0|0:0,0:0:0:0:
68,270,25129,1,8,0:0:0:0:
68,270,25254,2,0,B|100:256|100:256|180:271,1,100,0|0,0:0|0:0,0:0:0:0:
351,321,25629,6,0,L|340:250,2,50,8|0|2,0:0|0:0|0:0,0:0:0:0:
453,177,26129,1,8,0:0:0:0:
453,177,26254,2,0,L|462:83,1,83.3333333333333,8|0,0:0|0:0,0:0:0:0:
256,192,26629,12,0,28504,0:0:0:0:
173,296,28629,6,0,P|100:283|38:321,1,150.000005722046,12|2,0:0|0:0,0:0:0:0:
0,170,29004,1,0,0:0:0:0:
0,170,29129,2,0,P|57:186|91:177,1,75.0000028610231,8|0,0:0|0:0,0:0:0:0:
183,195,29379,2,0,P|225:153|234:119,1,75.0000028610231,2|0,0:0|0:0,0:0:0:0:
327,36,29629,2,0,L|348:187,1,150.000005722046,8|2,0:0|0:0,0:0:0:0:
475,104,30004,1,0,0:0:0:0:
475,104,30129,2,0,L|454:255,1,150.000005722046,8|2,0:0|0:0,0:0:0:0:
218,360,30629,6,0,P|285:325|363:339,1,150.000005722046,8|2,0:0|0:0,0:0:0:0:
27,231,31004,1,0,0:0:0:0:
27,231,31129,2,0,P|94:266|172:252,1,150.000005722046,8|2,0:0|0:0,0:0:0:0:
378,83,31629,6,0,P|362:119|362:154,1,75.0000028610231,8|0,0:0|0:0,0:0:0:0:
263,210,31879,2,0,P|286:241|316:259,1,75.0000028610231,2|0,0:0|0:0,0:0:0:0:
367,78,32129,2,0,P|351:114|351:149,1,75.0000028610231,8|0,0:0|0:0,0:0:0:0:
255,220,32379,2,0,P|278:251|308:269,1,75.0000028610231,2|0,0:0|0:0,0:0:0:0:
488,174,32629,2,0,P|436:239|440:353,1,150.000005722046,8|2,0:0|0:0,0:0:0:0:
426,303,33129,6,0,P|395:278|361:269,1,75.0000028610231,8|0,0:0|0:0,0:0:0:0:
333,160,33379,2,0,P|296:174|271:198,1,75.0000028610231,2|0,0:0|0:0,0:0:0:0:
433,294,33629,2,0,P|402:269|368:260,1,75.0000028610231,8|0,0:0|0:0,0:0:0:0:
325,149,33879,2,0,P|288:163|263:187,1,75.0000028610231,2|0,0:0|0:0,0:0:0:0:
276,315,34129,2,0,B|231:296|231:296|113:321,1,150.000005722046,8|2,0:0|0:0,0:0:0:0:
25,193,34504,5,0,0:0:0:0:
25,193,34629,2,0,L|118:200,1,75.0000028610231,8|0,0:0|0:0,0:0:0:0:
244,77,34879,2,0,L|151:84,1,75.0000028610231,2|0,0:0|0:0,0:0:0:0:
354,147,35129,1,8,0:0:0:0:
354,147,35254,1,0,0:0:0:0:
354,147,35379,2,0,P|381:91|380:53,1,75.0000028610231,2|0,0:0|0:0,0:0:0:0:
474,191,35629,6,0,P|459:264|482:335,1,150.000005722046,8|2,0:0|0:0,0:0:0:0:
281,268,36004,1,0,0:0:0:0:
281,268,36129,2,0,P|325:285|358:321,1,75.0000028610231,8|0,0:0|0:0,0:0:0:0:
111,360,36379,2,0,P|147:330|195:319,1,75.0000028610231,2|0,0:0|0:0,0:0:0:0:
176,61,36629,6,0,B|155:110|155:110|186:213,1,150.000005722046,8|2,0:0|0:0,0:0:0:0:
70,197,37004,1,0,0:0:0:0:
70,197,37129,2,0,P|21:180|-22:192,1,75.0000028610231,8|0,0:0|0:0,0:0:0:0:
265,116,37379,2,0,P|314:99|357:111,1,75.0000028610231,2|0,0:0|0:0,0:0:0:0:
468,208,37629,2,0,L|317:229,1,150.000005722046,8|2,0:0|0:0,0:0:0:0:
408,361,38004,1,0,0:0:0:0:
408,361,38129,2,0,L|257:340,1,150.000005722046,8|2,0:0|0:0,0:0:0:0:
88,244,38629,6,0,P|123:311|109:389,1,150.000005722046,8|2,0:0|0:0,0:0:0:0:
226,70,39004,1,0,0:0:0:0:
226,70,39129,2,0,P|191:137|205:215,1,150.000005722046,8|2,0:0|0:0,0:0:0:0:
5,118,39629,6,0,P|41:134|76:134,1,75.0000028610231,8|0,0:0|0:0,0:0:0:0:
132,233,39879,2,0,P|163:210|181:180,1,75.0000028610231,2|0,0:0|0:0,0:0:0:0:
0,129,40129,2,0,P|36:145|71:145,1,75.0000028610231,8|0,0:0|0:0,0:0:0:0:
142,241,40379,2,0,P|173:218|191:188,1,75.0000028610231,2|0,0:0|0:0,0:0:0:0:
96,8,40629,2,0,P|161:60|275:56,1,150.000005722046,8|2,0:0|0:0,0:0:0:0:
492,241,41129,6,0,P|461:216|427:207,1,75.0000028610231,8|0,0:0|0:0,0:0:0:0:
399,98,41379,2,0,P|362:112|337:136,1,75.0000028610231,2|0,0:0|0:0,0:0:0:0:
499,232,41629,2,0,P|468:207|434:198,1,75.0000028610231,8|0,0:0|0:0,0:0:0:0:
391,87,41879,2,0,P|354:101|329:125,1,75.0000028610231,2|0,0:0|0:0,0:0:0:0:
435,318,42129,2,0,L|348:312,1,75.0000028610231,8|0,0:0|0:0,0:0:0:0:
176,212,42379,2,0,L|263:206,1,75.0000028610231,2|0,0:0|0:0,0:0:0:0:
487,68,42629,6,0,P|434:137|436:207,1,150.000005722046,8|2,0:0|0:0,0:0:0:0:
303,335,43004,1,0,0:0:0:0:
303,335,43129,2,0,P|297:261|250:206,1,150.000005722046,8|2,0:0|0:0,0:0:0:0:
58,217,43629,6,0,L|68:291,3,50,8|0|2|0,0:0|0:0|0:0|0:0,0:0:0:0:
249,205,44129,2,0,L|251:179,6,25,8|0|0|0|2|0|0,0:0|0:0|0:0|0:0|0:0|0:0|0:0,0:0:0:0:
49,93,44629,6,0,P|95:124|173:114,1,100,8|0,0:0|0:0,0:0:0:0:
348,66,45129,2,0,P|384:57|413:59,1,50,0|0,0:0|0:0,0:0:0:0:
292,156,45379,2,0,P|256:147|227:149,1,50,2|0,0:0|0:0,0:0:0:0:
463,175,45629,6,0,L|468:125,2,50,0|0|2,0:0|0:0|0:0,0:0:0:0:
383,340,46004,1,0,0:0:0:0:
383,340,46129,2,0,L|369:223,1,100,0|2,0:0|0:0,0:0:0:0:
396,56,46629,2,0,B|361:69|361:69|296:57,1,100,0|2,0:0|0:0,0:0:0:0:
78,19,47129,6,0,P|109:47|116:76,1,50,0|0,0:0|0:0,0:0:0:0:
201,102,47379,2,0,P|192:142|170:163,1,50,2|0,0:0|0:0,0:0:0:0:
31,314,47629,6,0,P|39:273|61:252,1,50,0|0,0:0|0:0,0:0:0:0:
41,165,47879,2,0,P|80:152|109:160,1,50,2|0,0:0|0:0,0:0:0:0:
218,303,48129,2,0,P|172:282|142:243,1,100,0|2,0:0|0:0,0:0:0:0:
394,297,48629,2,0,P|348:317|318:356,1,100,0|2,0:0|0:0,0:0:0:0:
135,194,49129,6,0,L|144:259,1,50,0|0,0:0|0:0,0:0:0:0:
282,177,49379,2,0,L|288:127,1,50,2|0,0:0|0:0,0:0:0:0:
110,77,49629,2,0,P|177:83|240:39,1,100,0|2,0:0|0:0,0:0:0:0:
282,177,50004,1,0,0:0:0:0:
282,177,50129,2,0,P|349:171|395:198,2,66.6666666666667,0|0|0,0:0|0:0|0:0,0:0:0:0:
483,217,50629,1,0,0:0:0:0:
483,217,51129,6,0,L|494:152,2,66.6666666666667,8|0|0,0:0|0:0|0:0,0:0:0:0:
386,35,51629,2,0,L|397:101,2,66.6666666666667,8|0|0,0:0|0:0|0:0,0:0:0:0:
317,256,52129,1,8,0:0:0:0:
322,223,52296,1,0,0:0:0:0:
328,191,52462,1,0,0:0:0:0:
250,32,52629,5,12,0:0:0:0:
250,32,52879,6,0,P|236:83|220:101,1,50,2|0,0:0|0:0,0:0:0:0:
234,171,53129,2,0,P|188:197|163:198,1,50,8|0,0:0|0:0,0:0:0:0:
47,132,53379,1,2,0:0:0:0:
47,132,53629,6,0,P|61:183|77:201,1,50,8|0,0:0|0:0,0:0:0:0:
63,271,53879,2,0,P|108:297|133:298,1,50,2|0,0:0|0:0,0:0:0:0:
203,349,54129,2,0,P|280:334|341:362,1,100,8|2,0:0|0:0,0:0:0:0:
460,365,54504,5,0,0:0:0:0:
460,365,54629,2,0,P|420:334|397:290,1,100,8|2,0:0|0:0,0:0:0:0:
498,173,55004,1,0,0:0:0:0:
498,173,55129,2,0,P|450:194|422:193,1,50,8|0,0:0|0:0,0:0:0:0:
289,171,55379,2,0,P|312:178|333:191,1,50,2|0,0:0|0:0,0:0:0:0:
465,53,55629,6,0,P|419:89|355:91,1,100,8|2,0:0|0:0,0:0:0:0:
201,20,56004,1,0,0:0:0:0:
201,20,56129,2,0,P|255:41|289:95,1,100,8|2,0:0|0:0,0:0:0:0:
19,136,56629,6,0,L|23:196,1,50,8|0,0:0|0:0,0:0:0:0:
155,221,56879,2,0,L|159:161,1,50,2|0,0:0|0:0,0:0:0:0:
280,72,57129,2,0,L|290:186,1,100,8|2,0:0|0:0,0:0:0:0:
494,86,57504,1,0,0:0:0:0:
494,86,57629,2,0,P|440:70|380:96,1,100,8|2,0:0|0:0,0:0:0:0:
347,280,58129,2,0,P|387:241|395:176,1,100,8|2,0:0|0:0,0:0:0:0:
498,347,58629,6,0,P|463:332|430:332,1,50,8|0,0:0|0:0,0:0:0:0:
347,280,58879,2,0,P|311:294|288:317,1,50,2|0,0:0|0:0,0:0:0:0:
173,384,59129,1,8,0:0:0:0:
173,384,59379,6,0,P|188:349|188:316,1,50,2|0,0:0|0:0,0:0:0:0:
77,196,59629,2,0,P|99:226|128:242,1,50,8|0,0:0|0:0,0:0:0:0:
287,206,59879,2,0,P|249:210|220:227,1,50,2|0,0:0|0:0,0:0:0:0:
170,43,60129,2,0,B|185:75|185:75|165:177,1,100,8|2,0:0|0:0,0:0:0:0:
304,65,60629,5,8,0:0:0:0:
304,65,60754,1,0,0:0:0:0:
304,65,60879,2,0,P|369:77|388:95,1,50,2|0,0:0|0:0,0:0:0:0:
478,163,61129,2,0,P|453:168|428:166,1,50,8|0,0:0|0:0,0:0:0:0:
470,14,61379,2,0,L|461:67,1,50,2|0,0:0|0:0,0:0:0:0:
320,170,61629,2,0,P|342:226|336:294,1,100,8|2,0:0|0:0,0:0:0:0:
452,293,62004,2,0,P|427:348|375:391,1,100,8|0,0:0|0:0,0:0:0:0:
323,120,62379,6,0,L|319:180,1,50,2|0,0:0|0:0,0:0:0:0:
187,205,62629,2,0,L|183:145,1,50,8|0,0:0|0:0,0:0:0:0:
62,56,62879,2,0,L|52:170,1,100,2|8,0:0|0:0,0:0:0:0:
20,287,63254,1,0,0:0:0:0:
20,287,63379,2,0,P|52:270|93:269,1,50,2|0,0:0|0:0,0:0:0:0:
168,336,63629,2,0,P|200:353|282:340,1,100,8|2,0:0|0:0,0:0:0:0:
362,291,64004,2,0,P|411:285|456:305,1,100,8|0,0:0|0:0,0:0:0:0:
512,171,64379,2,0,P|479:187|442:190,1,50,2|0,0:0|0:0,0:0:0:0:
458,37,64629,6,0,L|453:93,3,50,8|0|0|0,0:0|0:0|0:0|0:0,0:0:0:0:
362,190,65129,2,0,L|357:134,3,50,8|0|0|0,0:0|0:0|0:0|0:0,0:0:0:0:
274,31,65629,2,0,L|269:87,1,50,8|8,0:0|0:0,0:0:0:0:
187,37,65879,2,0,L|182:93,1,50,8|8,0:0|0:0,0:0:0:0:
107,158,66129,2,0,L|111:207,1,50,8|8,0:0|0:0,0:0:0:0:
20,152,66379,2,0,L|24:201,1,50,8|8,0:0|0:0,0:0:0:0:
72,67,66629,5,8,0:0:0:0:
277,209,67004,1,8,0:0:0:0:
72,338,67379,1,2,0:0:0:0:
72,338,67504,1,0,0:0:0:0:
72,338,67629,2,0,P|59:299|59:280,1,50
146,149,67879,2,0,P|133:188|133:207,1,50,2|0,0:0|0:0,0:0:0:0:
215,371,68129,2,0,P|192:336|187:318,1,50
252,181,68379,2,0,P|249:222|254:240,1,50,2|0,0:0|0:0,0:0:0:0:
488,300,68691,6,0,B|443:279|405:306|405:306|364:335|309:320,1,187.5,4|0,0:0|0:0,0:0:0:0:
256,192,69754,12,0,70504,0:0:0:0:
149,32,70629,6,0,B|132:77|132:77|160:191,1,150.000005722046,12|2,0:0|0:0,0:0:0:0:
113,345,71004,1,0,0:0:0:0:
113,345,71129,2,0,P|111:307|125:273,1,75.0000028610231,8|0,0:0|0:0,0:0:0:0:
29,134,71379,2,0,P|44:181|35:223,1,75.0000028610231,2|0,0:0|0:0,0:0:0:0:
264,92,71629,2,0,L|285:243,1,150.000005722046,8|2,0:0|0:0,0:0:0:0:
412,160,72004,1,0,0:0:0:0:
412,160,72129,2,0,L|391:311,1,150.000005722046,8|2,0:0|0:0,0:0:0:0:
139,381,72629,6,0,P|206:346|284:360,1,150.000005722046,8|2,0:0|0:0,0:0:0:0:
35,193,73004,1,0,0:0:0:0:
35,193,73129,2,0,P|102:228|180:214,1,150.000005722046,8|2,0:0|0:0,0:0:0:0:
387,52,73629,6,0,P|371:88|371:123,1,75.0000028610231,8|0,0:0|0:0,0:0:0:0:
272,179,73879,2,0,P|295:210|325:228,1,75.0000028610231,2|0,0:0|0:0,0:0:0:0:
376,47,74129,2,0,P|360:83|360:118,1,75.0000028610231,8|0,0:0|0:0,0:0:0:0:
264,189,74379,2,0,P|287:220|317:238,1,75.0000028610231,2|0,0:0|0:0,0:0:0:0:
497,143,74629,2,0,P|445:208|449:322,1,150.000005722046,8|2,0:0|0:0,0:0:0:0:
435,272,75129,6,0,P|404:247|370:238,1,75.0000028610231,8|0,0:0|0:0,0:0:0:0:
342,129,75379,2,0,P|305:143|280:167,1,75.0000028610231,2|0,0:0|0:0,0:0:0:0:
442,263,75629,2,0,P|411:238|377:229,1,75.0000028610231,8|0,0:0|0:0,0:0:0:0:
334,118,75879,2,0,P|297:132|272:156,1,75.0000028610231,2|0,0:0|0:0,0:0:0:0:
285,284,76129,2,0,B|240:265|240:265|122:290,1,150.000005722046,8|2,0:0|0:0,0:0:0:0:
19,183,76504,5,0,0:0:0:0:
19,183,76629,2,0,P|70:197|105:189,1,75.0000028610231,8|0,0:0|0:0,0:0:0:0:
183,102,76879,2,0,P|180:139|193:174,1,75.0000028610231,2|0,0:0|0:0,0:0:0:0:
433,68,77129,1,8,0:0:0:0:
433,68,77254,1,0,0:0:0:0:
433,68,77379,2,0,P|443:103|438:140,1,75.0000028610231,2|0,0:0|0:0,0:0:0:0:
301,33,77629,6,0,L|321:187,1,150.000005722046,8|2,0:0|0:0,0:0:0:0:
486,278,78004,1,0,0:0:0:0:
486,278,78129,2,0,P|433:257|406:261,1,75.0000028610231,8|0,0:0|0:0,0:0:0:0:
302,305,78379,2,0,P|249:326|222:322,1,75.0000028610231,2|0,0:0|0:0,0:0:0:0:
105,242,78629,6,0,P|128:315|95:384,1,150.000005722046,8|2,0:0|0:0,0:0:0:0:
242,225,79004,1,0,0:0:0:0:
242,225,79129,2,0,P|202:183|196:149,1,75.0000028610231,8|0,0:0|0:0,0:0:0:0:
93,144,79379,2,0,P|120:92|151:76,1,75.0000028610231,0|0,0:0|0:0,0:0:0:0:
305,2,79629,2,0,B|278:48|278:48|294:152,1,150.000005722046,8|2,0:0|0:0,0:0:0:0:
417,79,80004,1,0,0:0:0:0:
417,79,80129,2,0,L|396:230,1,150.000005722046,8|2,0:0|0:0,0:0:0:0:
250,363,80629,6,0,P|317:328|395:342,1,150.000005722046,8|2,0:0|0:0,0:0:0:0:
108,198,81004,1,0,0:0:0:0:
108,198,81129,2,0,P|175:233|253:219,1,150.000005722046,8|2,0:0|0:0,0:0:0:0:
388,18,81629,6,0,P|404:54|404:89,1,75.0000028610231,8|0,0:0|0:0,0:0:0:0:
503,145,81879,2,0,P|480:176|450:194,1,75.0000028610231,2|0,0:0|0:0,0:0:0:0:
399,13,82129,2,0,P|415:49|415:84,1,75.0000028610231,8|0,0:0|0:0,0:0:0:0:
511,155,82379,2,0,P|488:186|458:204,1,75.0000028610231,2|0,0:0|0:0,0:0:0:0:
278,109,82629,2,0,P|330:174|326:288,1,150.000005722046,8|2,0:0|0:0,0:0:0:0:
339,238,83129,6,0,P|370:213|404:204,1,75.0000028610231,8|0,0:0|0:0,0:0:0:0:
432,95,83379,2,0,P|469:109|494:133,1,75.0000028610231,2|0,0:0|0:0,0:0:0:0:
332,229,83629,2,0,P|363:204|397:195,1,75.0000028610231,8|0,0:0|0:0,0:0:0:0:
440,84,83879,2,0,P|477:98|502:122,1,75.0000028610231,2|0,0:0|0:0,0:0:0:0:
496,314,84129,2,0,L|409:308,1,75.0000028610231,8|0,0:0|0:0,0:0:0:0:
164,177,84379,2,0,L|251:171,1,75.0000028610231,2|0,0:0|0:0,0:0:0:0:
484,59,84629,6,0,L|492:108,3,50,8|0|0|0,0:0|0:0|0:0|0:0,0:0:0:0:
335,162,85129,2,0,L|343:113,3,50,8|0|0|0,0:0|0:0|0:0|0:0,0:0:0:0:
191,57,85629,2,0,L|199:106,3,50,8|0|0|0,0:0|0:0|0:0|0:0,0:0:0:0:
54,211,86129,2,0,L|70:106,1,100,12|0,0:0|0:0,0:0:0:0:
10,286,86629,6,0,P|119:245|222:293,1,200,8|2,0:0|0:0,0:0:0:0:
362,371,87004,1,0,0:0:0:0:
362,371,87129,2,0,P|314:319|303:261,1,100,8|0,0:0|0:0,0:0:0:0:
478,195,87379,2,0,P|430:247|419:305,1,100,2|0,0:0|0:0,0:0:0:0:
325,60,87629,6,0,B|385:22|385:22|358:186,1,200,8|2,0:0|0:0,0:0:0:0:
85,78,88004,1,0,0:0:0:0:
85,78,88129,2,0,P|141:60|186:74,1,100,8|0,0:0|0:0,0:0:0:0:
364,148,88379,2,0,P|316:158|270:141,1,100,2|0,0:0|0:0,0:0:0:0:
63,264,88629,6,0,B|102:298|111:350|111:350|107:298|145:243,1,200,8|0,0:0|0:0,0:0:0:0:
20,131,89004,1,0,0:0:0:0:
20,131,89129,2,0,P|77:165|116:159,1,100,8|0,0:0|0:0,0:0:0:0:
220,329,89379,2,0,P|277:295|316:301,1,100,2|0,0:0|0:0,0:0:0:0:
465,366,89629,6,0,P|433:313|433:261,1,100,8|0,0:0|0:0,0:0:0:0:
356,195,89879,2,0,P|385:140|430:114,1,100,2|0,0:0|0:0,0:0:0:0:
456,371,90129,2,0,P|424:318|424:266,1,100,8|0,0:0|0:0,0:0:0:0:
348,190,90379,2,0,P|377:135|422:109,1,100,2|0,0:0|0:0,0:0:0:0:
512,52,90629,2,0,B|453:78|453:78|291:57,1,200,8|0,0:0|0:0,0:0:0:0:
0,27,91129,6,0,P|59:44|94:83,1,100,8|0,0:0|0:0,0:0:0:0:
194,80,91379,2,0,P|208:140|191:189,1,100,2|0,0:0|0:0,0:0:0:0:
3,17,91629,2,0,P|62:34|97:73,1,100,8|0,0:0|0:0,0:0:0:0:
204,78,91879,2,0,P|218:138|201:187,1,100,2|0,0:0|0:0,0:0:0:0:
6,110,92129,2,0,B|37:241|37:241|15:303,1,200,8|2,0:0|0:0,0:0:0:0:
77,382,92504,1,0,0:0:0:0:
117,294,92629,6,0,P|164:275|209:286,1,75.0000028610231,8|0,0:0|0:0,0:0:0:0:
288,324,92879,2,0,P|335:343|380:332,1,75.0000028610231,2|0,0:0|0:0,0:0:0:0:
145,194,93129,2,0,P|195:187|235:210,1,75.0000028610231,8|0,0:0|0:0,0:0:0:0:
296,296,93379,2,0,P|336:326|382:327,1,75.0000028610231,2|0,0:0|0:0,0:0:0:0:
458,149,93629,6,0,P|411:130|366:141,1,75.0000028610231,8|0,0:0|0:0,0:0:0:0:
287,179,93879,2,0,P|240:198|195:187,1,75.0000028610231,2|0,0:0|0:0,0:0:0:0:
430,49,94129,2,0,P|379:42|339:65,1,75.0000028610231,8|0,0:0|0:0,0:0:0:0:
279,151,94379,2,0,P|238:181|192:182,1,75.0000028610231,2|0,0:0|0:0,0:0:0:0:
56,98,94629,6,0,B|30:79|1:81|1:81|54:29|138:65,1,200,8|2,0:0|0:0,0:0:0:0:
68,344,95004,1,0,0:0:0:0:
68,344,95129,2,0,P|50:288|64:243,1,100,8|0,0:0|0:0,0:0:0:0:
138,65,95379,2,0,P|148:113|131:159,1,100,2|0,0:0|0:0,0:0:0:0:
170,341,95629,6,0,B|171:315|154:293|154:293|227:343|302:299,1,200,8|2,0:0|0:0,0:0:0:0:
249,115,96004,1,0,0:0:0:0:
249,115,96129,2,0,P|229:183|246:239,1,100,8|0,0:0|0:0,0:0:0:0:
434,263,96379,2,0,P|370:231|339:181,1,100,2|0,0:0|0:0,0:0:0:0:
511,75,96629,6,0,P|435:113|511:140,1,200,8|0,0:0|0:0,0:0:0:0:
333,0,97004,1,0,0:0:0:0:
333,0,97129,2,0,B|334:33|334:33|328:50|328:50|337:68|337:68|339:96,1,100,8|0,0:0|0:0,0:0:0:0:
132,215,97379,2,0,B|133:182|133:182|127:165|127:165|136:147|136:147|138:118,1,100,2|0,0:0|0:0,0:0:0:0:
249,115,97629,6,0,L|239:227,1,100,8|0,0:0|0:0,0:0:0:0:
28,13,97879,2,0,L|38:125,1,100,2|0,0:0|0:0,0:0:0:0:
258,121,98129,2,0,L|248:233,1,100,8|0,0:0|0:0,0:0:0:0:
19,20,98379,2,0,L|29:132,1,100,2|0,0:0|0:0,0:0:0:0:
10,252,98629,2,0,P|104:241|170:358,1,200,8|2,0:0|0:0,0:0:0:0:
271,351,99129,6,0,L|280:252,1,100,8|0,0:0|0:0,0:0:0:0:
483,174,99379,2,0,L|492:274,1,100,2|0,0:0|0:0,0:0:0:0:
262,345,99629,2,0,L|271:246,1,100,8|0,0:0|0:0,0:0:0:0:
492,167,99879,2,0,L|501:267,1,100,2|0,0:0|0:0,0:0:0:0:
345,102,100129,2,0,B|381:103|405:78|405:78|352:137|377:209,1,200,8|2,0:0|0:0,0:0:0:0:
419,335,100504,5,0,0:0:0:0:
419,335,100629,2,0,L|327:327,1,75.0000028610231,8|0,0:0|0:0,0:0:0:0:
248,365,100879,2,0,L|156:373,1,75.0000028610231,2|0,0:0|0:0,0:0:0:0:
391,235,101129,2,0,L|301:251,1,75.0000028610231,8|0,0:0|0:0,0:0:0:0:
240,337,101379,2,0,L|154:368,1,75.0000028610231,2|0,0:0|0:0,0:0:0:0:
78,190,101629,6,0,L|170:182,1,75.0000028610231,8|0,0:0|0:0,0:0:0:0:
249,220,101879,2,0,L|341:228,1,75.0000028610231,2|0,0:0|0:0,0:0:0:0:
106,90,102129,2,0,L|197:106,1,75.0000028610231,8|0,0:0|0:0,0:0:0:0:
257,192,102379,2,0,L|344:223,1,75.0000028610231,2|0,0:0|0:0,0:0:0:0:
425,191,102629,1,8,0:0:0:0:
256,192,116629,12,0,118504,0:0:0:0:
489,230,118629,6,0,P|429:207|280:260,1,200,2|0,0:0|0:0,0:0:0:0:
494,92,119379,1,0,0:0:0:0:
494,92,119629,2,0,P|436:102|356:69,1,100,0|0,0:0|0:0,0:0:0:0:
165,57,120129,2,0,P|198:39|235:34,1,75.0000028610231,8|2,0:0|0:0,0:0:0:0:
40,77,120629,6,0,P|75:144|61:222,1,150.000005722046,8|2,0:0|0:0,0:0:0:0:
227,156,121004,1,0,0:0:0:0:
227,156,121129,2,0,P|192:223|206:301,1,150.000005722046,8|2,0:0|0:0,0:0:0:0:
402,97,121629,6,0,P|386:133|386:168,1,75.0000028610231,8|0,0:0|0:0,0:0:0:0:
287,224,121879,2,0,P|310:255|340:273,1,75.0000028610231,2|0,0:0|0:0,0:0:0:0:
391,92,122129,2,0,P|375:128|375:163,1,75.0000028610231,8|0,0:0|0:0,0:0:0:0:
279,234,122379,2,0,P|302:265|332:283,1,75.0000028610231,2|0,0:0|0:0,0:0:0:0:
512,188,122629,2,0,P|460:253|464:367,1,150.000005722046,8|2,0:0|0:0,0:0:0:0:
450,317,123129,6,0,P|419:292|385:283,1,75.0000028610231,8|0,0:0|0:0,0:0:0:0:
357,174,123379,2,0,P|320:188|295:212,1,75.0000028610231,2|0,0:0|0:0,0:0:0:0:
457,308,123629,2,0,P|426:283|392:274,1,75.0000028610231,8|0,0:0|0:0,0:0:0:0:
349,163,123879,2,0,P|312:177|287:201,1,75.0000028610231,2|0,0:0|0:0,0:0:0:0:
300,329,124129,2,0,B|255:310|255:310|137:335,1,150.000005722046,8|2,0:0|0:0,0:0:0:0:
0,269,124504,5,0,0:0:0:0:
0,269,124629,2,0,P|51:283|86:275,1,75.0000028610231,8|0,0:0|0:0,0:0:0:0:
154,160,124879,2,0,P|151:197|164:232,1,75.0000028610231,2|0,0:0|0:0,0:0:0:0:
322,165,125129,1,8,0:0:0:0:
322,165,125254,1,0,0:0:0:0:
322,165,125379,2,0,P|285:162|250:175,1,75.0000028610231,2|0,0:0|0:0,0:0:0:0:
420,271,125629,6,0,L|440:117,1,150.000005722046,8|2,0:0|0:0,0:0:0:0:
492,14,126004,1,0,0:0:0:0:
492,14,126129,2,0,P|439:35|412:31,1,75.0000028610231,8|0,0:0|0:0,0:0:0:0:
322,165,126379,2,0,P|269:144|242:148,1,75.0000028610231,2|0,0:0|0:0,0:0:0:0:
64,244,126629,6,0,P|87:317|54:386,1,150.000005722046,8|2,0:0|0:0,0:0:0:0:
201,227,127004,1,0,0:0:0:0:
201,227,127129,2,0,P|161:185|155:151,1,75.0000028610231,8|0,0:0|0:0,0:0:0:0:
52,146,127379,2,0,P|79:94|110:78,1,75.0000028610231,0|0,0:0|0:0,0:0:0:0:
247,6,127629,2,0,L|258:156,1,150.000005722046,8|2,0:0|0:0,0:0:0:0:
423,71,128004,1,0,0:0:0:0:
423,71,128129,2,0,L|402:222,1,150.000005722046,8|2,0:0|0:0,0:0:0:0:
176,307,128629,6,0,P|243:272|321:286,1,150.000005722046,8|2,0:0|0:0,0:0:0:0:
18,154,129004,1,0,0:0:0:0:
18,154,129129,2,0,P|85:189|163:175,1,150.000005722046,8|2,0:0|0:0,0:0:0:0:
350,16,129629,6,0,P|366:52|366:87,1,75.0000028610231,8|0,0:0|0:0,0:0:0:0:
465,143,129879,2,0,P|442:174|412:192,1,75.0000028610231,2|0,0:0|0:0,0:0:0:0:
361,11,130129,2,0,P|377:47|377:82,1,75.0000028610231,8|0,0:0|0:0,0:0:0:0:
473,153,130379,2,0,P|450:184|420:202,1,75.0000028610231,2|0,0:0|0:0,0:0:0:0:
240,107,130629,2,0,P|292:172|288:286,1,150.000005722046,8|2,0:0|0:0,0:0:0:0:
301,236,131129,6,0,P|332:211|366:202,1,75.0000028610231,8|0,0:0|0:0,0:0:0:0:
394,93,131379,2,0,P|431:107|456:131,1,75.0000028610231,2|0,0:0|0:0,0:0:0:0:
294,227,131629,2,0,P|325:202|359:193,1,75.0000028610231,8|0,0:0|0:0,0:0:0:0:
402,82,131879,2,0,P|439:96|464:120,1,75.0000028610231,2|0,0:0|0:0,0:0:0:0:
458,312,132129,2,0,L|371:306,1,75.0000028610231,8|0,0:0|0:0,0:0:0:0:
126,175,132379,2,0,L|213:169,1,75.0000028610231,2|0,0:0|0:0,0:0:0:0:
383,306,132629,6,0,L|391:355,3,50,8|0|0|0,0:0|0:0|0:0|0:0,0:0:0:0:
294,120,133129,2,0,L|302:71,3,50,8|0|0|0,0:0|0:0|0:0|0:0,0:0:0:0:
150,331,133629,2,0,L|158:380,3,50,8|0|0|0,0:0|0:0|0:0|0:0,0:0:0:0:
16,209,134129,2,0,L|32:104,1,100,12|0,0:0|0:0,0:0:0:0:
20,332,134629,6,0,B|77:301|77:301|230:325,1,200,8|2,0:0|0:0,0:0:0:0:
416,359,135004,1,0,0:0:0:0:
416,359,135129,2,0,P|354:345|313:305,1,100,8|0,0:0|0:0,0:0:0:0:
254,146,135379,2,0,P|250:195|268:242,1,100,2|0,0:0|0:0,0:0:0:0:
466,175,135629,6,0,B|431:204|412:257|412:257|414:205|393:156,1,200,8|2,0:0|0:0,0:0:0:0:
404,44,136004,1,0,0:0:0:0:
404,44,136129,2,0,P|465:68|513:55,1,100,8|0,0:0|0:0,0:0:0:0:
254,146,136379,2,0,P|204:142|160:164,1,100,2|0,0:0|0:0,0:0:0:0:
78,364,136629,6,0,P|104:280|5:222,1,200,8|2,0:0|0:0,0:0:0:0:
0,58,137004,1,0,0:0:0:0:
0,58,137129,2,0,P|52:112|105:119,1,100,8|0,0:0|0:0,0:0:0:0:
250,130,137379,2,0,P|177:148|144:190,1,100,2|0,0:0|0:0,0:0:0:0:
337,347,137629,6,0,P|369:294|369:242,1,100,8|0,0:0|0:0,0:0:0:0:
446,176,137879,2,0,P|417:121|372:95,1,100,2|0,0:0|0:0,0:0:0:0:
346,352,138129,2,0,P|378:299|378:247,1,100,8|0,0:0|0:0,0:0:0:0:
454,171,138379,2,0,P|425:116|380:90,1,100,2|0,0:0|0:0,0:0:0:0:
470,44,138629,2,0,B|335:61|335:61|276:35,1,200,8|0,0:0|0:0,0:0:0:0:
67,41,139129,6,0,P|99:94|99:146,1,100,8|0,0:0|0:0,0:0:0:0:
176,212,139379,2,0,P|147:267|102:293,1,100,2|0,0:0|0:0,0:0:0:0:
76,36,139629,2,0,P|108:89|108:141,1,100,8|0,0:0|0:0,0:0:0:0:
184,217,139879,2,0,P|155:272|110:298,1,100,2|0,0:0|0:0,0:0:0:0:
28,355,140129,2,0,P|137:319|257:392,1,200,8|2,0:0|0:0,0:0:0:0:
401,376,140504,1,0,0:0:0:0:
454,299,140629,6,0,L|364:284,1,75.0000028610231,8|0,0:0|0:0,0:0:0:0:
288,339,140879,2,0,L|196:347,1,75.0000028610231,2|0,0:0|0:0,0:0:0:0:
407,194,141129,2,0,L|317:210,1,75.0000028610231,8|0,0:0|0:0,0:0:0:0:
279,308,141379,2,0,L|193:339,1,75.0000028610231,2|0,0:0|0:0,0:0:0:0:
113,154,141629,6,0,L|205:146,1,75.0000028610231,8|0,0:0|0:0,0:0:0:0:
284,184,141879,2,0,L|376:192,1,75.0000028610231,2|0,0:0|0:0,0:0:0:0:
141,54,142129,2,0,L|232:70,1,75.0000028610231,8|0,0:0|0:0,0:0:0:0:
292,156,142379,2,0,L|379:187,1,75.0000028610231,2|0,0:0|0:0,0:0:0:0:
418,74,142629,6,0,B|441:49|469:40|469:40|317:66,1,200,8|2,0:0|0:0,0:0:0:0:
441,255,143004,1,0,0:0:0:0:
441,255,143129,2,0,P|474:191|460:140,1,100,8|0,0:0|0:0,0:0:0:0:
261,66,143379,2,0,P|262:115|291:155,1,100,2|0,0:0|0:0,0:0:0:0:
510,320,143629,2,0,P|383:274|284:317,1,200,8|2,0:0|0:0,0:0:0:0:
150,371,144004,1,0,0:0:0:0:
150,371,144129,2,0,P|198:319|209:261,1,100,8|0,0:0|0:0,0:0:0:0:
34,195,144379,2,0,P|82:247|93:305,1,100,2|0,0:0|0:0,0:0:0:0:
187,60,144629,6,0,B|127:22|127:22|154:186,1,200,8|2,0:0|0:0,0:0:0:0:
427,78,145004,1,0,0:0:0:0:
427,78,145129,2,0,P|371:60|326:74,1,100,8|0,0:0|0:0,0:0:0:0:
148,148,145379,2,0,P|196:158|242:141,1,100,2|0,0:0|0:0,0:0:0:0:
461,379,145629,6,0,P|429:326|429:274,1,100,8|0,0:0|0:0,0:0:0:0:
320,257,145879,2,0,P|349:202|394:176,1,100,2|0,0:0|0:0,0:0:0:0:
452,384,146129,2,0,P|420:331|420:279,1,100,8|0,0:0|0:0,0:0:0:0:
312,252,146379,2,0,P|341:197|386:171,1,100,2|0,0:0|0:0,0:0:0:0:
511,58,146629,2,0,B|452:84|452:84|290:63,1,200,8|0,0:0|0:0,0:0:0:0:
0,27,147129,6,0,P|59:44|94:83,1,100,8|0,0:0|0:0,0:0:0:0:
201,21,147379,2,0,P|215:81|198:130,1,100,2|0,0:0|0:0,0:0:0:0:
3,17,147629,2,0,P|62:34|97:73,1,100,8|0,0:0|0:0,0:0:0:0:
211,19,147879,2,0,P|225:79|208:128,1,100,2|0,0:0|0:0,0:0:0:0:
0,170,148129,2,0,P|72:186|113:309,1,200,8|2,0:0|0:0,0:0:0:0:
169,370,148504,1,0,0:0:0:0:
117,294,148629,6,0,P|164:275|209:286,1,75.0000028610231,8|0,0:0|0:0,0:0:0:0:
288,324,148879,2,0,P|335:343|380:332,1,75.0000028610231,2|0,0:0|0:0,0:0:0:0:
145,194,149129,2,0,P|195:187|235:210,1,75.0000028610231,8|0,0:0|0:0,0:0:0:0:
296,296,149379,2,0,P|336:326|382:327,1,75.0000028610231,2|0,0:0|0:0,0:0:0:0:
458,149,149629,6,0,P|411:130|366:141,1,75.0000028610231,8|0,0:0|0:0,0:0:0:0:
287,179,149879,2,0,P|240:198|195:187,1,75.0000028610231,2|0,0:0|0:0,0:0:0:0:
430,49,150129,2,0,P|379:42|339:65,1,75.0000028610231,8|0,0:0|0:0,0:0:0:0:
279,151,150379,2,0,P|238:181|192:182,1,75.0000028610231,2|0,0:0|0:0,0:0:0:0:
