osu file format v14

[General]
AudioFilename: audio.mp3
AudioLeadIn: 0
PreviewTime: 28000
Countdown: 0
SampleSet: None
StackLeniency: 0.7
Mode: 3
LetterboxInBreaks: 0
SpecialStyle: 0
WidescreenStoryboard: 0

[Editor]
DistanceSpacing: 1
BeatDivisor: 4
GridSize: 4
TimelineZoom: 1

[Metadata]
Title:EZ4ENCE
TitleUnicode:EZ4ENCE
Artist:The Verkkars
ArtistUnicode:The Verkkars
Creator:YatsuKaori
Version:EZ
Source:Counter-Strike: Global Offensive
Tags:music kit march 2019 ence major anthem team
BeatmapID:1984710
BeatmapSetID:950332

[Difficulty]
HPDrainRate:6
CircleSize:4
OverallDifficulty:6
ApproachRate:5
SliderMultiplier:1.4
SliderTickRate:1

[Events]
//Background and Video events
0,0,"maxresdefault.jpg",0,0
//Break Periods
//Storyboard Layer 0 (Background)
//Storyboard Layer 1 (Fail)
//Storyboard Layer 2 (Pass)
//Storyboard Layer 3 (Foreground)
//Storyboard Sound Samples

[TimingPoints]
2000,500,4,1,0,46,1,0
28000,-100,4,1,0,46,0,1
44000,-100,4,1,0,46,0,0
70000,-100,4,1,0,46,0,1
86000,-100,4,1,0,46,0,0
120000,-100,4,1,0,46,0,1
134000,-100,4,1,0,46,0,0

[HitObjects]
64,192,2000,5,0,0:0:0:0:
192,192,2500,1,0,0:0:0:0:
320,192,3000,1,0,0:0:0:0:
448,192,3500,1,0,0:0:0:0:
192,192,4000,1,0,0:0:0:0:
320,192,4500,1,0,0:0:0:0:
64,192,5000,1,0,0:0:0:0:
320,192,5500,1,0,0:0:0:0:
192,192,6000,1,0,0:0:0:0:
64,192,6000,1,0,0:0:0:0:
320,192,6500,1,0,0:0:0:0:
448,192,7000,1,0,0:0:0:0:
192,192,7500,1,0,0:0:0:0:
64,192,8000,128,0,9500:0:0:0:0:
320,192,9500,1,0,0:0:0:0:
448,192,10000,1,0,0:0:0:0:
192,192,10500,1,0,0:0:0:0:
320,192,11000,1,0,0:0:0:0:
64,192,11500,1,0,0:0:0:0:
192,192,12000,1,0,0:0:0:0:
448,192,12500,1,0,0:0:0:0:
320,192,13000,1,0,0:0:0:0:
64,192,13500,1,0,0:0:0:0:
192,192,14000,1,0,0:0:0:0:
448,192,14500,1,0,0:0:0:0:
320,192,15000,1,0,0:0:0:0:
64,192,15500,1,0,0:0:0:0:
192,192,16000,1,0,0:0:0:0:
320,192,16500,1,0,0:0:0:0:
192,192,17000,1,0,0:0:0:0:
64,192,17500,1,0,0:0:0:0:
448,192,18000,1,0,0:0:0:0:
320,192,18500,1,0,0:0:0:0:
192,192,19000,1,0,0:0:0:0:
64,192,19500,1,0,0:0:0:0:
320,192,20000,1,0,0:0:0:0:
192,192,20500,1,0,0:0:0:0:
448,192,21000,1,0,0:0:0:0:
64,192,21500,1,0,0:0:0:0:
320,192,22000,1,0,0:0:0:0:
192,192,22500,1,0,0:0:0:0:
64,192,23000,1,0,0:0:0:0:
448,192,23500,1,0,0:0:0:0:
320,192,24000,1,0,0:0:0:0:
192,192,24500,1,0,0:0:0:0:
64,192,25000,5,0,0:0:0:0:
192,192,25500,1,0,0:0:0:0:
448,192,26000,128,0,28000:0:0:0:0:
64,192,28000,1,0,0:0:0:0:
192,192,28500,1,0,0:0:0:0:
448,192,28500,1,0,0:0:0:0:
320,192,29000,1,0,0:0:0:0:
64,192,29500,1,0,0:0:0:0:
192,192,29500,1,0,0:0:0:0:
320,192,30000,1,0,0:0:0:0:
192,192,30500,1,0,0:0:0:0:
64,192,30500,1,0,0:0:0:0:
448,192,31000,1,0,0:0:0:0:
320,192,31500,1,0,0:0:0:0:
192,192,31500,1,0,0:0:0:0:
64,192,32000,1,0,0:0:0:0:
192,192,32500,1,0,0:0:0:0:
448,192,32500,1,0,0:0:0:0:
320,192,33000,1,0,0:0:0:0:
448,192,33500,1,0,0:0:0:0:
64,192,33500,1,0,0:0:0:0:
320,192,34000,1,0,0:0:0:0:
192,192,34500,1,0,0:0:0:0:
64,192,34500,1,0,0:0:0:0:
320,192,35000,1,0,0:0:0:0:
448,192,35500,1,0,0:0:0:0:
64,192,35500,1,0,0:0:0:0:
192,192,36000,1,0,0:0:0:0:
64,192,36500,1,0,0:0:0:0:
448,192,36500,1,0,0:0:0:0:
320,192,37000,1,0,0:0:0:0:
448,192,37500,1,0,0:0:0:0:
64,192,37500,1,0,0:0:0:0:
192,192,38000,1,0,0:0:0:0:
64,192,38500,1,0,0:0:0:0:
448,192,38500,1,0,0:0:0:0:
320,192,39000,1,0,0:0:0:0:
192,192,39500,1,0,0:0:0:0:
64,192,39500,1,0,0:0:0:0:
448,192,40000,1,0,0:0:0:0:
320,192,40500,1,0,0:0:0:0:
192,192,40500,1,0,0:0:0:0:
64,192,41000,1,0,0:0:0:0:
192,192,41500,1,0,0:0:0:0:
448,192,41500,1,0,0:0:0:0:
320,192,42000,1,0,0:0:0:0:
64,192,42500,1,0,0:0:0:0:
192,192,42500,1,0,0:0:0:0:
448,192,43000,128,0,44000:0:0:0:0:
64,192,44000,1,0,0:0:0:0:
192,192,44500,1,0,0:0:0:0:
320,192,45000,1,0,0:0:0:0:
64,192,45500,1,0,0:0:0:0:
192,192,46000,1,0,0:0:0:0:
448,192,46500,1,0,0:0:0:0:
320,192,47000,1,0,0:0:0:0:
192,192,47500,1,0,0:0:0:0:
64,192,48000,1,0,0:0:0:0:
320,192,48500,1,0,0:0:0:0:
192,192,49000,1,0,0:0:0:0:
448,192,49500,1,0,0:0:0:0:
64,192,50000,1,0,0:0:0:0:
320,192,50500,1,0,0:0:0:0:
64,192,51250,128,0,52000:0:0:0:0:
448,192,52000,1,0,0:0:0:0:
192,192,52500,1,0,0:0:0:0:
320,192,53000,1,0,0:0:0:0:
64,192,53500,1,0,0:0:0:0:
448,192,54000,1,0,0:0:0:0:
192,192,54500,1,0,0:0:0:0:
320,192,55000,1,0,0:0:0:0:
64,192,55500,1,0,0:0:0:0:
192,192,56000,1,0,0:0:0:0:
448,192,56500,1,0,0:0:0:0:
320,192,57000,1,0,0:0:0:0:
64,192,57500,1,0,0:0:0:0:
192,192,58000,1,0,0:0:0:0:
448,192,58500,1,0,0:0:0:0:
64,192,59000,1,0,0:0:0:0:
320,192,59500,1,0,0:0:0:0:
64,192,60000,1,0,0:0:0:0:
192,192,60000,1,0,0:0:0:0:
320,192,60500,1,0,0:0:0:0:
448,192,60500,1,0,0:0:0:0:
192,192,61000,1,0,0:0:0:0:
320,192,61000,1,0,0:0:0:0:
64,192,61500,1,0,0:0:0:0:
192,192,61500,1,0,0:0:0:0:
192,192,62000,1,0,0:0:0:0:
320,192,62000,1,0,0:0:0:0:
64,192,62500,1,0,0:0:0:0:
192,192,62500,1,0,0:0:0:0:
320,192,63000,1,0,0:0:0:0:
448,192,63000,1,0,0:0:0:0:
192,192,63500,1,0,0:0:0:0:
320,192,63500,1,0,0:0:0:0:
64,192,64000,1,0,0:0:0:0:
192,192,64000,1,0,0:0:0:0:
320,192,64500,1,0,0:0:0:0:
448,192,64500,1,0,0:0:0:0:
192,192,65000,1,0,0:0:0:0:
320,192,65000,1,0,0:0:0:0:
64,192,65500,1,0,0:0:0:0:
192,192,65500,1,0,0:0:0:0:
320,192,66000,1,0,0:0:0:0:
448,192,66000,1,0,0:0:0:0:
64,192,66375,1,0,0:0:0:0:
192,192,66375,1,0,0:0:0:0:
64,192,68000,128,0,70000:0:0:0:0:
320,192,70000,1,0,0:0:0:0:
192,192,70500,1,0,0:0:0:0:
448,192,70500,1,0,0:0:0:0:
320,192,71000,1,0,0:0:0:0:
64,192,71500,1,0,0:0:0:0:
192,192,71500,1,0,0:0:0:0:
448,192,72000,1,0,0:0:0:0:
320,192,72500,1,0,0:0:0:0:
192,192,72500,1,0,0:0:0:0:
64,192,73000,1,0,0:0:0:0:
320,192,73500,1,0,0:0:0:0:
448,192,73500,1,0,0:0:0:0:
192,192,74000,1,0,0:0:0:0:
64,192,74500,1,0,0:0:0:0:
320,192,74500,1,0,0:0:0:0:
448,192,75000,1,0,0:0:0:0:
192,192,75500,1,0,0:0:0:0:
320,192,75500,1,0,0:0:0:0:
64,192,76000,1,0,0:0:0:0:
448,192,76500,1,0,0:0:0:0:
320,192,76500,1,0,0:0:0:0:
192,192,77000,1,0,0:0:0:0:
64,192,77500,1,0,0:0:0:0:
320,192,77500,1,0,0:0:0:0:
192,192,78000,1,0,0:0:0:0:
320,192,78500,1,0,0:0:0:0:
448,192,78500,1,0,0:0:0:0:
64,192,79000,1,0,0:0:0:0:
192,192,79500,1,0,0:0:0:0:
320,192,79500,1,0,0:0:0:0:
448,192,80000,1,0,0:0:0:0:
64,192,80500,1,0,0:0:0:0:
320,192,80500,1,0,0:0:0:0:
192,192,81000,1,0,0:0:0:0:
320,192,81500,1,0,0:0:0:0:
448,192,81500,1,0,0:0:0:0:
64,192,82000,1,0,0:0:0:0:
192,192,82500,1,0,0:0:0:0:
320,192,82500,1,0,0:0:0:0:
448,192,83000,1,0,0:0:0:0:
320,192,83500,1,0,0:0:0:0:
192,192,83500,1,0,0:0:0:0:
64,192,84000,128,0,85000:0:0:0:0:
448,192,85000,128,0,86000:0:0:0:0:
320,192,86000,1,0,0:0:0:0:
192,192,86500,1,0,0:0:0:0:
64,192,86500,1,0,0:0:0:0:
320,192,87000,1,0,0:0:0:0:
192,192,87500,1,0,0:0:0:0:
448,192,87500,1,0,0:0:0:0:
320,192,88000,1,0,0:0:0:0:
64,192,88500,1,0,0:0:0:0:
192,192,88500,1,0,0:0:0:0:
448,192,89000,1,0,0:0:0:0:
192,192,89500,1,0,0:0:0:0:
320,192,89500,1,0,0:0:0:0:
64,192,90000,1,0,0:0:0:0:
320,192,90500,1,0,0:0:0:0:
448,192,90500,1,0,0:0:0:0:
192,192,91000,1,0,0:0:0:0:
64,192,91500,1,0,0:0:0:0:
320,192,91500,1,0,0:0:0:0:
448,192,92000,1,0,0:0:0:0:
320,192,92500,1,0,0:0:0:0:
192,192,92500,1,0,0:0:0:0:
64,192,93000,1,0,0:0:0:0:
320,192,93500,1,0,0:0:0:0:
448,192,93500,1,0,0:0:0:0:
192,192,94000,1,0,0:0:0:0:
64,192,94500,1,0,0:0:0:0:
320,192,94500,1,0,0:0:0:0:
448,192,95000,1,0,0:0:0:0:
192,192,95500,1,0,0:0:0:0:
320,192,95500,1,0,0:0:0:0:
64,192,96000,1,0,0:0:0:0:
320,192,96500,1,0,0:0:0:0:
448,192,96500,1,0,0:0:0:0:
192,192,97000,1,0,0:0:0:0:
64,192,97500,1,0,0:0:0:0:
320,192,97500,1,0,0:0:0:0:
448,192,98000,1,0,0:0:0:0:
192,192,98500,1,0,0:0:0:0:
320,192,98500,1,0,0:0:0:0:
64,192,99000,1,0,0:0:0:0:
320,192,99500,1,0,0:0:0:0:
448,192,99500,1,0,0:0:0:0:
192,192,100000,1,0,0:0:0:0:
64,192,100500,1,0,0:0:0:0:
320,192,100500,1,0,0:0:0:0:
448,192,101000,1,0,0:0:0:0:
320,192,101500,1,0,0:0:0:0:
192,192,101500,1,0,0:0:0:0:
64,192,102000,1,0,0:0:0:0:
192,192,102000,1,0,0:0:0:0:
320,192,102500,1,0,0:0:0:0:
448,192,102500,1,0,0:0:0:0:
192,192,103000,1,0,0:0:0:0:
64,192,103000,1,0,0:0:0:0:
320,192,103500,1,0,0:0:0:0:
448,192,103500,1,0,0:0:0:0:
192,192,104000,1,0,0:0:0:0:
320,192,104000,1,0,0:0:0:0:
64,192,104500,1,0,0:0:0:0:
192,192,104500,1,0,0:0:0:0:
320,192,105000,1,0,0:0:0:0:
448,192,105000,1,0,0:0:0:0:
192,192,105500,1,0,0:0:0:0:
320,192,105500,1,0,0:0:0:0:
64,192,106000,1,0,0:0:0:0:
448,192,106000,1,0,0:0:0:0:
320,192,106500,1,0,0:0:0:0:
448,192,106500,1,0,0:0:0:0:
192,192,107000,1,0,0:0:0:0:
320,192,107000,1,0,0:0:0:0:
64,192,107500,1,0,0:0:0:0:
448,192,107500,1,0,0:0:0:0:
320,192,108000,1,0,0:0:0:0:
192,192,108000,1,0,0:0:0:0:
64,192,108500,1,0,0:0:0:0:
192,192,108500,1,0,0:0:0:0:
320,192,109000,1,0,0:0:0:0:
448,192,109000,1,0,0:0:0:0:
192,192,109500,1,0,0:0:0:0:
64,192,109500,1,0,0:0:0:0:
192,192,110000,1,0,0:0:0:0:
320,192,110000,1,0,0:0:0:0:
320,192,110500,1,0,0:0:0:0:
448,192,110500,1,0,0:0:0:0:
64,192,111000,1,0,0:0:0:0:
192,192,111000,1,0,0:0:0:0:
320,192,111500,1,0,0:0:0:0:
192,192,111500,1,0,0:0:0:0:
320,192,112000,1,0,0:0:0:0:
448,192,112000,1,0,0:0:0:0:
192,192,112500,1,0,0:0:0:0:
64,192,112500,1,0,0:0:0:0:
320,192,113000,1,0,0:0:0:0:
448,192,113000,1,0,0:0:0:0:
192,192,113500,1,0,0:0:0:0:
320,192,113500,1,0,0:0:0:0:
64,192,114000,1,0,0:0:0:0:
448,192,114000,1,0,0:0:0:0:
320,192,114500,1,0,0:0:0:0:
192,192,114500,1,0,0:0:0:0:
64,192,115000,1,0,0:0:0:0:
192,192,115000,1,0,0:0:0:0:
320,192,115500,1,0,0:0:0:0:
448,192,115500,1,0,0:0:0:0:
64,192,116000,1,0,0:0:0:0:
192,192,116000,1,0,0:0:0:0:
192,192,116500,1,0,0:0:0:0:
320,192,116500,1,0,0:0:0:0:
64,192,117000,1,0,0:0:0:0:
448,192,117000,1,0,0:0:0:0:
320,192,117500,1,0,0:0:0:0:
448,192,117500,1,0,0:0:0:0:
448,192,119375,128,0,120000:0:0:0:0:
320,192,119750,1,0,0:0:0:0:
64,192,120000,1,0,0:0:0:0:
192,192,120000,1,0,0:0:0:0:
320,192,120500,1,0,0:0:0:0:
192,192,120500,1,0,0:0:0:0:
64,192,121000,1,0,0:0:0:0:
320,192,121500,1,0,0:0:0:0:
448,192,121500,1,0,0:0:0:0:
192,192,122000,1,0,0:0:0:0:
64,192,122500,1,0,0:0:0:0:
320,192,122500,1,0,0:0:0:0:
448,192,123000,1,0,0:0:0:0:
320,192,123500,1,0,0:0:0:0:
192,192,123500,1,0,0:0:0:0:
64,192,124000,1,0,0:0:0:0:
320,192,124500,1,0,0:0:0:0:
448,192,124500,1,0,0:0:0:0:
192,192,125000,1,0,0:0:0:0:
64,192,125500,1,0,0:0:0:0:
320,192,125500,1,0,0:0:0:0:
448,192,126000,1,0,0:0:0:0:
192,192,126500,1,0,0:0:0:0:
320,192,126500,1,0,0:0:0:0:
64,192,127000,1,0,0:0:0:0:
320,192,127500,1,0,0:0:0:0:
448,192,127500,1,0,0:0:0:0:
192,192,128000,1,0,0:0:0:0:
64,192,128500,1,0,0:0:0:0:
320,192,128500,1,0,0:0:0:0:
448,192,129000,1,0,0:0:0:0:
192,192,129500,1,0,0:0:0:0:
320,192,129500,1,0,0:0:0:0:
64,192,130000,1,0,0:0:0:0:
320,192,130500,1,0,0:0:0:0:
448,192,130500,1,0,0:0:0:0:
192,192,131000,1,0,0:0:0:0:
64,192,131500,1,0,0:0:0:0:
320,192,131500,1,0,0:0:0:0:
448,192,132000,128,0,133000:0:0:0:0:
64,192,133000,128,0,133500:0:0:0:0:
320,192,133500,1,0,0:0:0:0:
192,192,134000,1,0,0:0:0:0:
448,192,134000,1,0,0:0:0:0:
320,192,134500,1,0,0:0:0:0:
64,192,134500,1,0,0:0:0:0:
192,192,135000,1,0,0:0:0:0:
320,192,135500,1,0,0:0:0:0:
448,192,135500,1,0,0:0:0:0:
192,192,136000,1,0,0:0:0:0:
64,192,136500,1,0,0:0:0:0:
320,192,136500,1,0,0:0:0:0:
448,192,137000,1,0,0:0:0:0:
320,192,137500,1,0,0:0:0:0:
192,192,137500,1,0,0:0:0:0:
64,192,138000,1,0,0:0:0:0:
320,192,138500,1,0,0:0:0:0:
448,192,138500,1,0,0:0:0:0:
192,192,139000,1,0,0:0:0:0:
64,192,139500,1,0,0:0:0:0:
320,192,139500,1,0,0:0:0:0:
448,192,140000,1,0,0:0:0:0:
192,192,140500,1,0,0:0:0:0:
320,192,140500,1,0,0:0:0:0:
64,192,141000,1,0,0:0:0:0:
320,192,141500,1,0,0:0:0:0:
448,192,141500,1,0,0:0:0:0:
192,192,142000,1,0,0:0:0:0:
64,192,142500,1,0,0:0:0:0:
320,192,142500,1,0,0:0:0:0:
448,192,143000,1,0,0:0:0:0:
192,192,143500,1,0,0:0:0:0:
320,192,143500,1,0,0:0:0:0:
64,192,144000,1,0,0:0:0:0:
320,192,144500,1,0,0:0:0:0:
448,192,144500,1,0,0:0:0:0:
192,192,145000,1,0,0:0:0:0:
64,192,145500,1,0,0:0:0:0:
320,192,145500,1,0,0:0:0:0:
448,192,146000,1,0,0:0:0:0:
320,192,146500,1,0,0:0:0:0:
192,192,146500,1,0,0:0:0:0:
64,192,147000,1,0,0:0:0:0:
448,192,147500,1,0,0:0:0:0:
320,192,147500,1,0,0:0:0:0:
64,192,148000,1,0,0:0:0:0:
320,192,148500,1,0,0:0:0:0:
448,192,148500,1,0,0:0:0:0:
192,192,149000,1,0,0:0:0:0:
64,192,149500,1,0,0:0:0:0:
320,192,149500,1,0,0:0:0:0:
448,192,149750,1,0,0:0:0:0:
