osu file format v14

[General]
AudioFilename: audio.mp3
AudioLeadIn: 0
PreviewTime: 77701
Countdown: 0
SampleSet: None
StackLeniency: 0.3
Mode: 0
LetterboxInBreaks: 0
WidescreenStoryboard: 1

[Editor]
Bookmarks: 29581
DistanceSpacing: 1
BeatDivisor: 4
GridSize: 4
TimelineZoom: 2

[Metadata]
Title:Be The One
TitleUnicode:Be The One
Artist:The Ting Tings
ArtistUnicode:The Ting Tings
Creator:Krisom
Version:Difficult
Source:
Tags:We Started Nothing Indie Pop Rock English
BeatmapID:2799395
BeatmapSetID:1352214

[Difficulty]
HPDrainRate:5.7
CircleSize:4.5
OverallDifficulty:6.9
ApproachRate:7.7
SliderMultiplier:1.9
SliderTickRate:2

[Events]
//Background and Video events
0,0,"betheone.jpg",0,0
//Break Periods
//Storyboard Layer 0 (Background)
//Storyboard Layer 1 (Fail)
//Storyboard Layer 2 (Pass)
//Storyboard Layer 3 (Foreground)
//Storyboard Layer 4 (Overlay)
//Storyboard Sound Samples

[TimingPoints]
-1023,402.684563758389,4,2,1,100,1,0
29581,-100,4,2,2,70,0,0
58574,-100,4,2,1,85,0,0
71460,-100,4,2,2,70,0,0
89178,-100,4,2,1,85,0,0
102064,-100,4,2,2,70,0,0
118171,-100,4,2,1,100,0,0
164883,-100,4,2,1,75,0,0
166493,-100,4,2,1,50,0,0
168104,-100,4,2,1,25,0,0
169715,-100,4,2,1,5,0,0

[Colours]
Combo1 : 250,84,175
Combo2 : 255,0,0
Combo3 : 249,146,6
Combo4 : 249,213,6
Combo5 : 13,200,40
Combo6 : 36,202,232
Combo7 : 20,57,235
Combo8 : 139,34,255

[HitObjects]
320,348,29581,6,0,B|368:336|368:336|456:360|456:360|504:348,1,190,0|8,3:0|3:1,0:0:0:0:
492,252,30185,2,0,P|412:208|332:252,1,190,2|2,0:3|0:3,0:0:0:0:
256,312,30789,1,8,3:1:0:0:
180,252,30990,1,2,0:3:0:0:
104,192,31191,5,0,3:0:0:0:
180,72,31493,1,2,0:0:0:0:
256,192,31795,1,2,0:3:0:0:
180,252,31997,2,0,B|140:284|88:268|96:236|44:220|4:252,1,190,0|8,3:0|3:1,0:0:0:0:
44,340,32601,1,2,0:3:0:0:
140,340,32802,6,0,B|228:340|228:340|288:340|308:288,1,190,0|8,3:0|3:1,0:0:0:0:
348,204,33406,2,0,B|296:172|256:192|216:212|164:180,1,190,2|2,0:3|0:3,0:0:0:0:
91,116,34010,2,0,P|131:91|178:88,1,95,8|2,3:1|0:3,0:0:0:0:
256,32,34413,6,0,B|352:32|352:32|392:32|392:32|428:72,1,190,0|8,3:0|3:1,0:0:0:0:
348,124,35017,2,0,B|388:168|388:168|388:240|388:240|428:284,1,190,2|2,0:3|0:3,0:0:0:0:
364,356,35621,2,0,P|324:381|277:384,1,95,8|2,3:1|0:3,0:0:0:0:
192,348,36023,6,0,B|144:336|144:336|56:360|56:360|8:348,1,190,0|8,3:0|3:1,0:0:0:0:
20,252,36627,2,0,P|100:208|180:252,1,190,2|2,0:3|0:3,0:0:0:0:
256,312,37232,1,8,3:1:0:0:
332,252,37433,1,2,0:3:0:0:
408,192,37634,5,0,3:0:0:0:
332,72,37936,1,2,0:0:0:0:
256,192,38238,1,2,0:3:0:0:
332,252,38440,2,0,B|372:284|424:268|416:236|468:220|508:252,1,190,0|8,3:0|3:1,0:0:0:0:
468,340,39044,1,2,0:3:0:0:
372,340,39245,6,0,B|284:340|284:340|224:340|204:288,1,190,0|8,3:0|3:1,0:0:0:0:
164,204,39849,2,0,B|216:172|256:192|296:212|348:180,1,190,2|2,0:3|0:3,0:0:0:0:
421,116,40453,2,0,P|381:91|334:88,1,95,8|2,3:1|0:3,0:0:0:0:
256,32,40856,6,0,B|160:32|160:32|120:32|120:32|84:72,1,190,0|8,3:0|3:1,0:0:0:0:
164,124,41460,2,0,B|124:168|124:168|124:240|124:240|84:284,1,190,2|2,0:3|0:3,0:0:0:0:
148,356,42064,1,8,1:0:0:0:
163,368,42164,1,8,0:3:0:0:
180,378,42265,1,2,1:3:0:0:
199,383,42366,1,0,1:0:0:0:
219,385,42466,5,4,3:0:0:0:
314,384,42668,1,2,0:3:0:0:
360,300,42869,1,8,3:1:0:0:
265,301,43071,1,2,0:3:0:0:
172,300,43272,1,0,3:0:0:0:
128,216,43473,1,2,0:3:0:0:
128,216,43876,1,2,0:3:0:0:
84,132,44077,6,0,P|128:116|172:132,1,95,0|2,3:0|0:3,0:0:0:0:
256,180,44480,1,8,3:1:0:0:
256,84,44681,1,2,0:3:0:0:
341,131,44883,2,0,P|384:146|428:130,1,95,0|2,3:0|0:3,0:0:0:0:
512,180,45285,1,8,3:1:0:0:
512,84,45486,1,2,0:3:0:0:
428,36,45688,6,0,B|332:36|332:36|280:36|256:84,1,190,0|8,3:0|3:1,0:0:0:0:
396,212,46493,1,0,3:0:0:0:
256,192,46795,1,2,0:0:0:0:
116,172,47097,1,2,0:3:0:0:
124,268,47299,6,0,L|220:284,1,95,0|2,3:0|0:3,0:0:0:0:
312,296,47701,1,8,3:1:0:0:
280,208,47903,1,2,0:3:0:0:
372,224,48104,2,0,L|468:240,1,95,0|2,3:0|0:3,0:0:0:0:
504,328,48507,1,8,3:1:0:0:
408,320,48708,1,2,0:3:0:0:
293,385,48909,5,4,3:0:0:0:
198,384,49111,1,2,0:3:0:0:
152,300,49312,1,8,3:1:0:0:
247,301,49514,1,2,0:3:0:0:
340,300,49715,1,0,3:0:0:0:
384,216,49916,1,2,0:3:0:0:
384,216,50319,1,2,0:3:0:0:
428,132,50520,6,0,P|384:116|340:132,1,95,0|2,3:0|0:3,0:0:0:0:
256,180,50923,1,8,3:1:0:0:
256,84,51124,1,2,0:3:0:0:
171,131,51326,2,0,P|127:146|83:130,1,95,0|2,3:0|0:3,0:0:0:0:
0,180,51728,1,8,3:1:0:0:
0,84,51929,1,2,0:3:0:0:
84,36,52131,6,0,B|180:36|180:36|232:36|256:84,1,190,0|8,3:0|3:1,0:0:0:0:
292,172,52735,1,2,0:3:0:0:
364,112,52936,2,0,P|444:80|480:160,1,190,0|8,3:0|3:1,0:0:0:0:
476,252,53540,1,2,0:3:0:0:
388,268,53742,6,0,L|292:284,1,95,0|2,3:0|0:3,0:0:0:0:
200,296,54144,1,8,3:1:0:0:
232,208,54346,1,2,0:3:0:0:
140,224,54547,2,0,L|44:240,1,95,0|2,3:0|0:3,0:0:0:0:
8,328,54950,1,8,3:1:0:0:
104,320,55151,1,2,0:3:0:0:
200,308,55352,5,4,3:0:0:0:
296,308,55554,1,2,0:3:0:0:
380,264,55755,1,8,3:1:0:0:
380,360,55956,1,2,0:3:0:0:
296,308,56158,1,0,3:0:0:0:
296,212,56359,1,2,0:3:0:0:
296,212,56762,1,2,0:3:0:0:
348,132,56963,6,0,B|300:120|300:120|212:144|212:144|164:132,1,190,0|8,3:0|3:1,0:0:0:0:
164,36,57567,2,0,B|212:48|212:48|300:24|300:24|348:36,1,190,2|2,0:3|0:3,0:0:0:0:
424,92,58171,1,8,1:0:0:0:
420,116,58272,1,8,0:3:0:0:
416,140,58372,1,2,1:3:0:0:
412,164,58473,1,0,1:0:0:0:
408,188,58574,6,0,B|368:220|316:204|324:172|272:156|232:188,1,190,4|0,3:0|1:0,0:0:0:0:
284,268,59178,2,0,B|330:246|338:192|306:185|314:131|361:109,1,190,2|2,3:0|3:0,0:0:0:0:
456,124,59782,1,0,1:0:0:0:
420,36,59983,1,2,0:3:0:0:
324,40,60185,6,0,P|264:72|244:152,2,142.5,4|2|2,3:0|0:0|0:3,0:0:0:0:
336,136,60990,2,0,P|284:64|188:72,1,190,8|0,3:0|1:0,0:0:0:0:
108,120,61594,1,2,0:3:0:0:
64,204,61795,6,0,B|152:228|152:228|180:212|180:212|244:228,1,190,4|0,3:0|1:0,0:0:0:0:
332,264,62399,2,0,P|248:256|188:332,1,190,2|2,0:3|0:3,0:0:0:0:
284,348,63003,2,0,B|340:360|340:360|380:340,1,95,0|2,1:0|0:3,0:0:0:0:
416,256,63406,6,0,B|362:239|362:239|327:258|327:258|290:244|290:244|240:268,1,190,4|0,3:0|1:0,0:0:0:0:
204,180,64010,2,0,B|150:163|150:163|115:182|115:182|78:168|78:168|28:192,1,190,4|2,3:0|3:0,0:0:0:0:
80,272,64614,2,0,L|176:300,1,95,0|2,1:0|0:3,0:0:0:0:
264,280,65017,6,0,B|192:256|192:256|132:236|128:168,1,190,4|0,3:0|1:0,0:0:0:0:
56,112,65621,2,0,P|144:80|214:136,1,190,2|2,0:3|0:3,0:0:0:0:
248,223,66225,1,0,1:0:0:0:
307,148,66426,1,2,0:3:0:0:
297,53,66628,6,0,L|340:242,1,190,4|0,3:0|1:0,0:0:0:0:
389,157,67232,2,0,L|346:346,1,190,2|2,0:3|0:3,0:0:0:0:
252,357,67836,1,0,1:0:0:0:
285,268,68037,1,2,0:3:0:0:
191,282,68238,5,4,3:0:0:0:
109,232,68440,1,2,0:3:0:0:
118,137,68641,1,0,1:0:0:0:
131,43,68842,2,0,B|181:46|203:98|203:98|256:68|292:104,1,190,2|2,0:3|0:3,0:0:0:0:
359,166,69446,2,0,P|354:119|381:75,1,95,0|2,1:0|0:3,0:0:0:0:
446,144,69849,6,0,L|254:197,1,190,4|0,3:0|1:0,0:0:0:0:
333,258,70453,2,0,L|141:205,1,190,4|2,3:0|3:0,0:0:0:0:
57,184,71057,1,8,1:0:0:0:
66,210,71158,1,8,3:0:0:0:
75,236,71258,1,10,3:0:0:0:
84,263,71359,1,4,3:0:0:0:
95,289,71460,5,4,1:3:0:0:
160,356,71661,1,2,0:3:0:0:
228,288,71862,1,8,3:1:0:0:
296,356,72063,1,2,0:3:0:0:
364,288,72265,1,0,3:0:0:0:
432,356,72466,1,2,0:3:0:0:
432,356,72869,1,2,0:3:0:0:
476,272,73070,6,0,P|432:256|388:272,1,95,0|2,3:0|0:3,0:0:0:0:
336,188,73473,1,8,3:1:0:0:
432,188,73674,1,2,0:3:0:0:
476,104,73876,2,0,P|432:119|388:103,1,95,0|2,3:0|0:3,0:0:0:0:
336,24,74278,1,8,3:1:0:0:
432,24,74479,1,2,0:3:0:0:
476,104,74681,6,0,B|436:136|384:120|392:88|340:72|300:104,1,190,0|8,3:0|3:1,0:0:0:0:
116,212,75487,1,0,3:0:0:0:
256,192,75789,1,2,0:0:0:0:
396,172,76091,1,2,0:3:0:0:
396,76,76292,6,0,L|304:96,1,95,0|2,3:0|0:3,0:0:0:0:
208,112,76695,1,8,3:1:0:0:
140,180,76896,2,0,L|232:200,1,95,2|0,0:3|3:0,0:0:0:0:
328,216,77299,1,2,0:3:0:0:
419,199,77500,2,0,P|464:213|493:250,1,95,8|2,3:1|0:3,0:0:0:0:
417,289,77903,5,4,1:3:0:0:
352,356,78104,1,2,0:3:0:0:
284,288,78305,1,8,3:1:0:0:
216,356,78506,1,2,0:3:0:0:
148,288,78708,1,0,3:0:0:0:
80,356,78909,1,2,0:3:0:0:
80,356,79312,1,2,0:3:0:0:
36,272,79513,6,0,P|80:256|124:272,1,95,0|2,3:0|0:3,0:0:0:0:
176,188,79916,1,8,3:1:0:0:
80,188,80117,1,2,0:3:0:0:
36,104,80319,2,0,P|80:119|124:103,1,95,0|2,3:0|0:3,0:0:0:0:
176,24,80721,1,8,3:1:0:0:
80,24,80922,1,2,0:3:0:0:
36,104,81124,6,0,B|76:136|128:120|120:88|172:72|212:104,1,190,0|8,3:0|3:1,0:0:0:0:
256,188,81728,1,2,0:3:0:0:
300,272,81930,2,0,P|208:272|164:188,1,190,0|8,3:0|3:1,0:0:0:0:
72,172,82534,1,2,0:3:0:0:
116,76,82735,6,0,L|208:96,1,95,0|2,3:0|0:3,0:0:0:0:
304,112,83138,1,8,3:1:0:0:
372,180,83339,2,0,L|280:200,1,95,2|0,0:3|3:0,0:0:0:0:
184,216,83742,1,2,0:3:0:0:
92,199,83943,2,0,P|47:213|18:250,1,95,8|2,3:1|0:3,0:0:0:0:
100,296,84346,5,4,3:0:0:0:
196,296,84548,1,2,0:3:0:0:
280,252,84749,1,8,3:1:0:0:
280,348,84950,1,2,0:3:0:0:
196,296,85152,1,0,3:0:0:0:
196,200,85353,1,2,0:3:0:0:
196,200,85756,1,2,0:3:0:0:
168,108,85956,6,0,B|208:76|260:92|252:124|304:140|344:108,1,190,0|8,3:0|3:1,0:0:0:0:
344,12,86560,2,0,B|304:44|252:28|260:-4|208:-20|168:12,1,190,2|2,0:3|0:3,0:0:0:0:
168,108,87164,1,8,3:1:0:0:
168,204,87366,1,2,0:3:0:0:
168,298,87567,6,0,B|216:310|216:310|304:286|304:286|352:298,1,190,0|8,3:0|3:1,0:0:0:0:
351,203,88171,2,0,B|303:191|303:191|215:215|215:215|167:203,1,190,2|2,0:3|0:3,0:0:0:0:
76,172,88775,1,8,1:0:0:0:
80,148,88876,1,8,0:3:0:0:
84,124,88976,1,2,1:3:0:0:
88,100,89077,1,0,1:0:0:0:
92,76,89178,6,0,B|132:44|184:60|176:92|228:108|268:76,1,190,4|0,3:0|1:0,0:0:0:0:
352,28,89782,2,0,B|264:76|264:76|221:103|229:154,1,190,2|2,0:3|0:3,0:0:0:0:
221,247,90386,1,0,1:0:0:0:
309,211,90587,1,2,0:3:0:0:
402,192,90789,6,0,P|366:288|286:304,1,190,4|0,3:0|1:0,0:0:0:0:
310,212,91393,2,0,P|274:308|194:324,1,190,2|2,3:0|0:3,0:0:0:0:
218,232,91997,2,0,L|246:136,1,95,0|2,1:0|0:3,0:0:0:0:
322,86,92399,6,0,P|378:114|418:102,1,95,4|2,3:0|0:3,0:0:0:0:
494,70,92802,1,0,1:0:0:0:
466,162,93003,2,0,P|410:190|370:178,1,95,2|8,0:3|3:0,0:0:0:0:
294,146,93406,1,2,0:3:0:0:
322,238,93607,2,0,P|378:266|418:254,1,95,0|2,1:0|0:3,0:0:0:0:
498,231,94010,5,4,3:0:0:0:
478,323,94211,1,2,0:3:0:0:
408,260,94413,1,0,1:0:0:0:
388,352,94614,1,2,0:3:0:0:
318,287,94815,2,0,B|334:179|334:179|318:143|318:143|322:99,1,190,8|0,3:0|1:0,0:0:0:0:
326,79,95319,1,8,3:0:0:0:
330,55,95419,1,0,1:0:0:0:
334,32,95520,1,0,1:0:0:0:
339,8,95621,6,0,B|289:11|267:63|267:63|214:33|178:69,1,190,4|0,3:3|1:0,0:0:0:0:
96,112,96225,2,0,P|152:160|260:124,1,190,2|2,0:3|0:3,0:0:0:0:
287,40,96829,1,0,1:0:0:0:
358,102,97030,1,2,3:0:0:0:
364,196,97232,6,0,L|180:260,1,190,4|0,3:0|1:0,0:0:0:0:
264,312,97836,2,0,L|80:248,1,190,2|2,0:3|0:3,0:0:0:0:
124,336,98440,1,0,1:0:0:0:
36,372,98641,1,2,0:3:0:0:
20,280,98842,6,0,P|13:234|37:192,1,95,4|2,3:0|0:3,0:0:0:0:
117,143,99245,1,0,1:0:0:0:
199,189,99446,2,0,P|191:142|216:101,1,95,2|8,0:3|3:3,0:0:0:0:
302,66,99849,1,2,0:3:0:0:
362,138,100050,2,0,P|369:184|344:225,1,95,0|2,1:0|3:3,0:0:0:0:
257,261,100453,6,0,P|299:232|430:261,1,190,4|0,3:0|1:0,0:0:0:0:
341,300,101057,2,0,P|299:271|168:300,1,190,2|10,3:3|3:0,3:0:0:0:
256,340,101661,1,8,1:0:0:0:
272,322,101762,1,8,3:0:0:0:
291,309,101862,1,8,3:0:0:0:
314,302,101963,1,4,3:0:0:0:
341,300,102064,5,4,3:1:0:0:
436,300,102265,1,2,0:3:0:0:
388,220,102466,1,8,3:1:0:0:
484,220,102668,1,2,0:3:0:0:
436,140,102869,1,0,3:0:0:0:
340,140,103070,1,2,0:3:0:0:
340,140,103473,1,2,0:3:0:0:
340,44,103674,6,0,P|256:6|172:44,1,190,0|8,3:0|3:1,0:0:0:0:
92,100,104279,2,0,B|80:148|80:148|104:236|104:236|92:284,1,190,2|2,0:3|0:3,0:0:0:0:
44,368,104883,1,8,3:1:0:0:
140,368,105084,1,2,0:3:0:0:
184,284,105285,6,0,B|196:236|196:236|172:148|172:148|184:100,1,190,0|8,3:0|3:1,0:0:0:0:
376,116,106091,1,0,3:0:0:0:
256,192,106393,1,2,0:0:0:0:
136,268,106695,1,2,0:3:0:0:
80,192,106896,6,0,P|120:168|140:120,1,95,0|2,3:0|0:3,0:0:0:0:
48,100,107299,1,8,3:1:0:0:
120,36,107500,2,0,P|172:40|212:72,1,95,2|0,0:3|3:0,0:0:0:0:
139,125,107903,1,2,0:3:0:0:
124,220,108104,2,0,P|176:216|216:184,1,95,8|2,1:0|0:3,0:0:0:0:
171,300,108507,5,4,3:3:0:0:
76,300,108708,1,2,0:3:0:0:
124,220,108909,1,8,3:1:0:0:
28,220,109111,1,2,0:3:0:0:
76,140,109312,1,0,3:0:0:0:
172,140,109513,1,2,0:3:0:0:
172,140,109916,1,2,0:3:0:0:
172,44,110117,6,0,P|256:6|340:44,1,190,0|8,3:0|3:1,0:0:0:0:
420,100,110722,2,0,B|432:148|432:148|408:236|408:236|420:284,1,190,2|2,0:3|0:3,0:0:0:0:
468,368,111326,1,8,3:1:0:0:
372,368,111527,1,2,0:3:0:0:
328,284,111728,6,0,B|316:236|316:236|340:148|340:148|328:100,1,190,0|8,3:0|3:1,0:0:0:0:
248,152,112332,1,2,0:3:0:0:
180,220,112534,2,0,P|240:292|328:284,1,190,0|8,3:0|3:1,0:0:0:0:
424,272,113138,1,2,0:3:0:0:
432,192,113339,6,0,P|392:168|372:120,1,95,0|2,3:0|0:3,0:0:0:0:
464,100,113742,1,8,3:1:0:0:
392,36,113943,2,0,P|340:40|300:72,1,95,2|0,0:3|3:0,0:0:0:0:
373,125,114346,1,2,0:3:0:0:
388,220,114547,2,0,P|336:216|296:184,1,95,8|2,1:0|0:3,0:0:0:0:
256,108,114950,5,0,3:0:0:0:
168,144,115151,1,2,0:3:0:0:
168,240,115352,1,8,3:1:0:0:
256,276,115554,1,2,0:3:0:0:
344,240,115755,1,0,3:0:0:0:
344,144,115956,1,2,0:3:0:0:
344,144,116359,1,2,0:3:0:0:
344,48,116560,6,0,B|304:80|252:64|260:32|208:16|168:48,1,190,0|8,3:0|3:1,0:0:0:0:
167,144,117164,2,0,B|207:112|259:128|251:160|303:176|343:144,1,190,2|2,0:3|0:3,0:0:0:0:
428,96,117768,1,8,1:1:0:0:
424,120,117869,1,8,0:3:0:0:
420,144,117969,1,2,1:3:0:0:
416,168,118070,1,0,1:0:0:0:
412,192,118171,6,0,P|360:236|236:232,1,190,4|0,3:0|1:0,0:0:0:0:
152,204,118775,2,0,P|236:240|252:152,1,190,2|2,0:0|0:3,0:0:0:0:
228,76,119379,1,0,1:0:0:0:
148,124,119581,1,2,0:3:0:0:
76,188,119782,6,0,B|112:236|112:236|184:236|184:236|224:288,1,190,4|0,3:0|1:0,0:0:0:0:
276,360,120386,2,0,P|228:308|264:204,1,190,2|2,0:0|0:3,0:0:0:0:
348,164,120990,2,0,L|400:144,2,47.5,0|8|2,1:0|0:3|1:3,0:0:0:0:
262,204,121393,6,0,B|216:223|216:223|125:213|125:213|80:232,1,190,4|0,3:0|1:0,0:0:0:0:
142,302,121997,2,0,B|185:275|187:220|155:217|157:162|201:135,1,190,2|2,0:0|3:0,0:0:0:0:
265,64,122601,2,0,B|219:45|219:45|166:47,1,95,0|2,1:0|0:3,0:0:0:0:
108,115,123003,5,4,3:0:0:0:
125,208,123205,1,2,0:0:0:0:
207,160,123406,1,0,1:0:0:0:
189,253,123607,1,2,0:0:0:0:
273,208,123809,2,0,P|322:227|390:124,1,190,8|0,3:0|1:0,0:0:0:0:
388,110,124312,1,8,3:0:0:0:
380,87,124413,1,2,1:3:0:0:
372,64,124513,1,0,1:0:0:0:
365,40,124614,6,0,B|354:90|303:110|289:80|239:100|228:150,1,190,4|0,3:0|1:0,0:0:0:0:
145,128,125218,2,0,L|337:182,1,190,2|2,0:0|0:3,0:0:0:0:
294,268,125822,1,0,1:0:0:0:
389,259,126023,1,2,0:3:0:0:
345,344,126225,6,0,L|146:326,1,190,4|0,3:0|1:0,0:0:0:0:
214,247,126829,2,0,B|268:230|268:230|303:249|303:249|340:235|340:235|390:259,1,190,2|2,0:0|3:0,0:0:0:0:
470,209,127433,2,0,L|511:237,2,47.5,0|8|2,1:0|3:0|3:0,0:0:0:0:
384,161,127836,6,0,B|313:127|313:127|249:97|261:37,1,190,4|0,3:0|1:0,0:0:0:0:
355,38,128440,2,0,B|318:140|318:140|242:182,1,190,2|2,0:0|0:3,0:0:0:0:
151,169,129044,2,0,L|162:275,1,95,0|2,1:0|0:3,0:0:0:0:
150,357,129446,6,0,B|136:237|136:237|69:199,1,190,4|0,3:0|1:0,0:0:0:0:
53,295,130050,2,0,B|30:249|55:201|85:215|111:167|87:122,1,190,8|2,0:3|0:3,0:0:0:0:
90,26,130654,1,0,1:0:0:0:
119,35,130755,1,8,3:0:0:0:
145,44,130856,1,2,1:3:0:0:
239,59,131057,6,0,P|308:125|406:119,1,190,4|0,3:0|1:0,0:0:0:0:
485,82,131661,2,0,B|475:145|475:145|466:196|423:221|381:205,1,190,2|2,0:0|0:3,0:0:0:0:
304,257,132265,1,0,1:0:0:0:
300,161,132467,1,2,0:3:0:0:
304,257,132668,6,0,B|245:259|220:212|220:212|145:261,1,190,4|0,3:0|1:0,0:0:0:0:
94,180,133272,2,0,B|171:132|171:132|139:90|165:37,1,190,2|2,0:0|0:3,0:0:0:0:
250,80,133876,2,0,L|315:89,2,47.5,0|8|2,1:0|0:3|1:3,0:0:0:0:
323,17,134279,6,0,B|458:31|458:31|498:68,1,190,4|0,3:0|1:0,0:0:0:0:
451,150,134883,2,0,B|381:135|381:135|309:120|269:160,1,190,2|2,0:0|3:0,0:0:0:0:
208,230,135487,2,0,P|255:252|307:247,1,95,0|2,1:0|0:3,0:0:0:0:
391,264,135889,5,4,3:0:0:0:
401,169,136091,1,2,0:0:0:0:
468,236,136292,1,0,1:0:0:0:
463,141,136493,1,2,0:0:0:0:
400,211,136695,2,0,P|347:147|253:173,1,190,8|0,3:0|1:0,0:0:0:0:
241,191,137198,1,8,3:0:0:0:
225,207,137299,1,2,1:3:0:0:
203,214,137399,1,0,1:0:0:0:
180,208,137500,6,0,B|364:283,1,190,4|0,3:0|1:0,0:0:0:0:
291,349,138104,2,0,L|423:206,1,190,2|2,0:0|0:3,0:0:0:0:
487,141,138708,1,0,1:0:0:0:
396,117,138909,1,2,0:3:0:0:
420,209,139111,6,0,B|367:200|330:226|330:226|301:191|243:193,1,190,4|0,3:0|1:0,0:0:0:0:
153,163,139715,2,0,P|239:195|314:143,1,190,2|2,0:0|3:0,0:0:0:0:
360,59,140319,2,0,L|388:11,2,47.5,0|8|2,1:0|3:0|3:0,0:0:0:0:
265,60,140722,6,0,B|360:224,1,190,4|0,3:0|1:0,0:0:0:0:
455,236,141326,2,0,P|399:311|311:305,1,190,2|2,0:0|0:3,0:0:0:0:
222,271,141930,2,0,P|265:257|295:211,1,95,0|2,1:0|0:3,0:0:0:0:
208,176,142332,6,0,B|147:180|147:180|109:151|109:151|22:158,1,190,4|0,3:0|1:0,0:0:0:0:
73,73,142936,2,0,B|134:69|134:69|172:98|172:98|259:91,1,190,2|2,0:0|0:3,0:0:0:0:
348,80,143540,1,0,1:0:0:0:
372,73,143641,1,8,3:0:0:0:
396,67,143742,1,2,1:3:0:0:
490,49,143943,6,0,P|536:118|501:216,1,190,4|0,0:0|1:0,0:0:0:0:
448,136,144547,2,0,P|432:217|338:261,1,190,2|2,1:2|0:3,0:0:0:0:
360,168,145151,2,0,P|292:213|193:178,1,190,4|4,1:2|3:0,0:0:0:0:
276,130,145755,2,0,P|195:113|151:19,1,190,2|2,1:2|0:0,0:0:0:0:
244,41,146359,2,0,P|188:102|80:89,1,190,4|2,0:0|1:2,0:0:0:0:
18,30,146963,1,2,0:3:0:0:
21,124,147164,6,0,B|30:197|30:197|42:273|104:275,1,190,4|0,0:0|1:0,0:0:0:0:
122,181,147768,2,0,B|111:108|111:108|102:31|161:12,1,190,2|2,1:2|0:3,0:0:0:0:
199,100,148372,2,0,B|208:173|208:173|220:249|282:251,1,190,4|4,1:2|3:0,0:0:0:0:
305,158,148976,1,2,0:0:0:0:
354,240,149178,1,0,1:0:0:0:
385,150,149379,1,2,0:0:0:0:
433,232,149581,2,0,B|422:159|422:159|413:82|472:63,1,190,4|2,0:0|1:2,0:0:0:0:
477,290,150386,6,0,B|437:322|385:306|393:274|341:258|301:290,1,190,4|0,0:0|1:0,0:0:0:0:
262,212,150990,2,0,B|309:234|317:288|285:295|293:349|339:371,1,190,2|2,1:2|0:3,0:0:0:0:
391,291,151594,2,0,B|351:259|299:275|307:307|255:323|215:291,1,190,4|4,1:2|3:0,0:0:0:0:
170,361,152198,2,0,B|220:344|233:291|202:280|216:227|264:210,1,190,2|2,1:2|3:0,0:0:0:0:
306,291,152802,2,4,B|258:303|258:303|170:279|170:279|122:291,1,190,4|2,0:0|1:2,0:0:0:0:
32,320,153406,1,2,0:3:0:0:
51,226,153607,6,0,L|239:158,1,190,4|0,0:0|1:0,0:0:0:0:
140,130,154211,2,0,L|328:198,1,190,2|2,1:2|0:3,0:0:0:0:
229,226,154815,2,0,L|417:158,1,190,4|4,1:2|3:0,0:0:0:0:
318,130,155419,2,0,L|506:198,1,190,2|2,1:2|0:0,0:0:0:0:
447,275,156023,2,0,L|259:207,1,190,4|2,0:0|1:2,0:0:0:0:
41,189,156829,6,0,B|88:151|88:151|99:80|99:80|146:43,1,190,4|0,0:0|1:0,0:0:0:0:
169,136,157433,2,0,B|202:185|202:185|191:256|191:256|223:306,1,190,2|2,1:2|0:3,0:0:0:0:
275,226,158037,2,0,B|322:188|322:188|333:117|333:117|380:80,1,190,4|4,1:2|0:3,0:0:0:0:
402,173,158641,2,0,B|435:222|435:222|424:293|424:293|456:343,1,190,2|2,1:2|0:3,0:0:0:0:
364,368,159245,2,0,B|332:318|332:318|343:247|343:247|311:197,1,190,4|2,0:0|1:2,0:0:0:0:
256,120,159849,1,2,0:3:0:0:
185,57,160050,6,0,P|161:127|225:213,1,190,4|0,0:0|1:0,0:0:0:0:
320,227,160654,2,0,B|394:236|394:236|471:244|489:185,1,190,2|2,1:2|0:3,0:0:0:0:
414,128,161258,2,0,B|374:96|322:112|330:144|278:160|238:128,1,190,4|4,1:2|3:0,0:0:0:0:
207,37,161862,1,2,0:0:0:0:
158,119,162064,1,0,1:0:0:0:
127,29,162265,1,2,0:0:0:0:
74,107,162466,2,0,B|107:156|107:156|96:227|96:227|128:277,1,190,8|0,3:0|1:2,0:0:0:0:
284,167,163272,5,4,1:0:0:0:
256,192,163372,12,0,169715,0:0:0:0:
