osu file format v14

[General]
AudioFilename: audio.mp3
AudioLeadIn: 0
PreviewTime: 8979
Countdown: 0
SampleSet: Soft
StackLeniency: 0.7
Mode: 3
LetterboxInBreaks: 0
SpecialStyle: 0
WidescreenStoryboard: 1

[Editor]
DistanceSpacing: 0.5
BeatDivisor: 3
GridSize: 16
TimelineZoom: 2.799999

[Metadata]
Title:Spectacular Spider-Man Theme (TV Size)
TitleUnicode:Spectacular Spider-Man Theme (TV Size)
Artist:The Tender Box
ArtistUnicode:The Tender Box
Creator:Kinpo
Version:Normal
Source:The Spectacular Spider-Man
Tags:spiderman marvel studio superhero cartoon english rock opening intro male vocals mirsaaa Stan Lee Steve Ditko Victor Cook
BeatmapID:3952362
BeatmapSetID:1915743

[Difficulty]
HPDrainRate:7
CircleSize:4
OverallDifficulty:7
ApproachRate:5
SliderMultiplier:1.4
SliderTickRate:1

[Events]
//Background and Video events
Video,-467,"spiderman_but_better.mp4"
0,0,"maxresdefault (1).jpg",0,0
//Break Periods
//Storyboard Layer 0 (Background)
//Storyboard Layer 1 (Fail)
//Storyboard Layer 2 (Pass)
//Storyboard Layer 3 (Foreground)
//Storyboard Layer 4 (Overlay)
//Storyboard Sound Samples
Sample,1255,0,"Ride.wav",20
Sample,1669,0,"Ride.wav",20
Sample,2083,0,"Ride.wav",20
Sample,2497,0,"Ride.wav",20
Sample,2910,0,"Ride.wav",20
Sample,3324,0,"Ride.wav",20
Sample,3738,0,"Ride.wav",20
Sample,4566,0,"Ride.wav",20
Sample,4979,0,"Ride.wav",20
Sample,5393,0,"Ride.wav",20
Sample,45945,0,"Ride.wav",20
Sample,46359,0,"Ride.wav",20
Sample,46773,0,"Ride.wav",20
Sample,47186,0,"Ride.wav",20
Sample,47600,0,"Ride.wav",20
Sample,48014,0,"Ride.wav",20
Sample,48428,0,"Ride.wav",20
Sample,49255,0,"Ride.wav",20
Sample,49669,0,"Ride.wav",20
Sample,50083,0,"Ride.wav",20
Sample,50497,0,"Ride.wav",20
Sample,50910,0,"Ride.wav",20
Sample,51324,0,"Ride.wav",20
Sample,51738,0,"Ride.wav",20

[TimingPoints]
15,413.793103448276,4,2,1,40,1,0
842,413.793103448276,4,2,1,40,1,0
35600,-100,4,2,1,40,0,1
44152,-100,4,2,1,40,0,0

[HitObjects]
64,192,15,5,0,0:0:0:40:Tom2.wav
192,192,152,1,0,0:0:0:40:Tom2.wav
320,192,290,1,0,0:0:0:40:Tom2.wav
64,192,428,1,0,0:0:0:40:Tom2.wav
192,192,566,1,0,0:0:0:40:Tom3.wav
448,192,704,1,0,0:0:0:40:Tom3.wav
64,192,842,1,2,0:0:0:0:
320,192,842,1,4,0:0:0:0:
64,192,1255,1,2,0:0:0:0:
448,192,1669,1,2,0:0:0:0:
192,192,2083,1,2,0:0:0:0:
448,192,2359,1,0,0:0:0:20:Ride.wav
320,192,2497,1,2,0:0:0:0:
64,192,2910,1,2,0:0:0:0:
448,192,3324,1,2,0:0:0:0:
192,192,3738,1,2,0:0:0:0:
64,192,4152,1,2,0:0:0:0:
448,192,4152,1,4,0:0:0:0:
192,192,4566,1,2,0:0:0:0:
448,192,4979,1,2,0:0:0:0:
320,192,5393,1,2,0:0:0:0:
64,192,5807,1,2,0:0:0:0:
192,192,5807,1,4,0:0:0:0:
448,192,6221,1,2,0:0:0:0:
192,192,6635,1,2,0:0:0:0:
320,192,7048,1,2,0:0:0:0:
64,192,7462,1,2,0:0:0:0:
448,192,7738,1,0,0:0:0:25:soft-hitclap.wav
320,192,7876,1,2,0:0:0:0:
192,192,8152,1,0,0:0:0:25:soft-hitclap.wav
320,192,8290,1,2,0:0:0:0:
192,192,8566,1,0,0:0:0:25:soft-hitclap.wav
64,192,8704,1,2,0:0:0:0:
320,192,8979,1,0,0:0:0:25:soft-hitclap.wav
64,192,9117,128,2,9393:0:0:0:0:
448,192,9117,1,4,0:0:0:0:
320,192,9393,1,2,0:0:0:0:
192,192,9531,1,8,0:0:0:0:
448,192,9531,128,0,9807:0:0:0:0:
320,192,9807,1,0,0:0:0:0:
64,192,9945,128,2,10221:0:0:0:0:
448,192,10221,1,2,0:0:0:0:
192,192,10359,1,8,0:0:0:0:
320,192,10359,128,0,10635:0:0:0:0:
448,192,10635,1,0,0:0:0:0:
64,192,10773,128,2,11048:0:0:0:0:
320,192,11048,1,2,0:0:0:0:
192,192,11186,1,8,0:0:0:0:
448,192,11186,128,0,11462:0:0:0:0:
320,192,11462,1,0,0:0:0:0:
64,192,11600,128,2,11876:0:0:0:0:
192,192,11876,1,2,0:0:0:0:
320,192,12014,128,8,12290:0:0:0:0:
448,192,12014,1,0,0:0:0:0:
448,192,12290,1,0,0:0:0:0:
64,192,12428,1,2,0:0:0:0:
192,192,12428,128,4,12704:0:0:0:0:
320,192,12704,1,2,0:0:0:0:
64,192,12842,1,8,0:0:0:0:
448,192,12842,128,0,13117:0:0:0:0:
320,192,13117,1,0,0:0:0:0:
192,192,13255,128,2,13531:0:0:0:0:
64,192,13531,1,2,0:0:0:0:
320,192,13669,1,8,0:0:0:0:
448,192,13669,128,0,13945:0:0:0:0:
192,192,13945,1,0,0:0:0:0:
64,192,14083,128,2,14359:0:0:0:0:
448,192,14359,1,2,0:0:0:0:
192,192,14497,1,8,0:0:0:0:
320,192,14497,128,0,14773:0:0:0:0:
448,192,14773,1,0,0:0:0:0:
64,192,14910,128,2,15186:0:0:0:0:
192,192,15186,1,2,0:0:0:0:
448,192,15324,1,8,0:0:0:0:
320,192,15462,1,8,0:0:0:0:
64,192,15600,1,8,0:0:0:0:
192,192,15738,1,2,0:0:0:0:
448,192,15738,1,4,0:0:0:0:
64,192,16152,1,8,0:0:0:0:
448,192,16152,128,0,16566:0:0:0:0:
320,192,16566,128,2,16979:0:0:0:0:
192,192,16842,1,2,0:0:0:0:
64,192,16979,1,8,0:0:0:0:
448,192,16979,128,0,17393:0:0:0:0:
320,192,17393,128,2,18221:0:0:0:0:
64,192,17807,1,8,0:0:0:0:
192,192,17807,1,0,0:0:0:0:
192,192,18221,128,2,19048:0:0:0:0:
320,192,18497,1,2,0:0:0:0:
64,192,18635,1,8,0:0:0:0:
448,192,18635,1,0,0:0:0:0:
320,192,19048,1,2,0:0:0:0:
448,192,19048,1,4,0:0:0:0:
64,192,19462,128,8,19876:0:0:0:0:
320,192,19462,1,0,0:0:0:0:
192,192,19876,128,2,20290:0:0:0:0:
320,192,20152,1,2,0:0:0:0:
64,192,20290,1,8,0:0:0:0:
448,192,20290,128,0,20704:0:0:0:0:
64,192,20704,128,2,21117:0:0:0:0:
192,192,21117,1,8,0:0:0:0:
448,192,21117,128,0,21531:0:0:0:0:
320,192,21393,1,8,0:0:0:0:
192,192,21531,128,6,21945:0:0:0:0:
64,192,21945,1,0,0:0:0:40:Tom3.wav
320,192,22359,128,2,22635:0:0:0:0:
448,192,22359,1,4,0:0:0:0:
64,192,22635,1,0,0:0:0:0:
192,192,22773,128,8,23048:0:0:0:0:
448,192,22773,1,0,0:0:0:0:
320,192,23048,1,0,0:0:0:0:
448,192,23186,128,2,23462:0:0:0:0:
64,192,23462,1,2,0:0:0:0:
192,192,23600,128,8,23876:0:0:0:0:
320,192,23600,1,0,0:0:0:0:
64,192,23876,1,0,0:0:0:0:
320,192,24014,128,2,24290:0:0:0:0:
448,192,24290,1,0,0:0:0:0:
64,192,24428,128,8,24704:0:0:0:0:
192,192,24428,1,0,0:0:0:0:
448,192,24704,1,0,0:0:0:0:
320,192,24842,128,2,25117:0:0:0:0:
192,192,25117,1,2,0:0:0:0:
64,192,25255,1,8,0:0:0:0:
320,192,25393,1,8,0:0:0:0:
192,192,25531,1,8,0:0:0:0:
64,192,25669,1,2,0:0:0:0:
448,192,25669,128,4,25945:0:0:0:0:
320,192,25945,1,0,0:0:0:0:
64,192,26083,1,8,0:0:0:0:
192,192,26083,128,0,26359:0:0:0:0:
448,192,26359,1,0,0:0:0:0:
64,192,26497,128,2,26773:0:0:0:0:
448,192,26773,1,2,0:0:0:0:
192,192,26910,1,8,0:0:0:0:
320,192,26910,128,0,27186:0:0:0:0:
448,192,27186,1,0,0:0:0:0:
64,192,27324,128,2,27600:0:0:0:0:
192,192,27600,1,0,0:0:0:0:
320,192,27738,128,8,28014:0:0:0:0:
448,192,27738,1,0,0:0:0:0:
64,192,28014,1,8,0:0:0:0:
192,192,28152,128,2,28428:0:0:0:0:
448,192,28290,1,8,0:0:0:0:
320,192,28428,1,2,0:0:0:0:
64,192,28566,1,8,0:0:0:0:
192,192,28704,1,8,0:0:0:0:
320,192,28842,1,8,0:0:0:0:
64,192,28979,1,2,0:0:0:0:
448,192,28979,1,4,0:0:0:0:
192,192,29393,1,8,0:0:0:0:
320,192,29393,128,0,29807:0:0:0:0:
448,192,29807,128,2,30221:0:0:0:0:
192,192,30083,1,2,0:0:0:0:
64,192,30221,1,8,0:0:0:0:
320,192,30221,128,0,30635:0:0:0:0:
192,192,30635,128,2,31462:0:0:0:0:
448,192,31048,1,8,0:0:0:0:
64,192,31462,128,2,31876:0:0:0:0:
320,192,31738,1,2,0:0:0:0:
448,192,31876,1,8,0:0:0:0:
64,192,32014,1,8,0:0:0:0:
192,192,32152,1,8,0:0:0:0:
320,192,32290,1,2,0:0:0:0:
448,192,32290,1,4,0:0:0:0:
320,192,32704,1,8,0:0:0:0:
448,192,32704,128,0,33117:0:0:0:0:
320,192,33117,128,2,33531:0:0:0:0:
64,192,33531,1,8,0:0:0:0:
192,192,33531,128,0,33945:0:0:0:0:
448,192,33669,1,8,0:0:0:0:
320,192,33807,1,8,0:0:0:0:
448,192,33945,128,6,34359:0:0:0:0:
64,192,34359,128,8,34773:0:0:0:0:
192,192,34359,1,0,0:0:0:0:
320,192,34497,1,8,0:0:0:0:
448,192,34635,1,8,0:0:0:0:
192,192,34773,128,6,35186:0:0:0:0:
448,192,35186,1,8,0:0:0:0:
320,192,35324,1,8,0:0:0:0:
192,192,35462,1,8,0:0:0:0:
64,192,35600,1,2,0:0:0:0:
320,192,35600,1,4,0:0:0:0:
320,192,36014,1,2,0:0:0:0:
448,192,36014,1,8,0:0:0:0:
192,192,36428,1,2,0:0:0:0:
320,192,36428,1,8,0:0:0:0:
64,192,36842,128,2,37117:0:0:0:0:
192,192,36842,1,8,0:0:0:0:
320,192,37255,1,2,0:0:0:0:
448,192,37255,1,8,0:0:0:0:
192,192,37669,1,2,0:0:0:0:
320,192,37669,1,8,0:0:0:0:
320,192,38083,1,2,0:0:0:0:
448,192,38083,128,8,38497:0:0:0:0:
64,192,38497,1,2,0:0:0:0:
192,192,38497,1,8,0:0:0:0:
320,192,38910,1,6,0:0:0:0:
448,192,38910,1,8,0:0:0:0:
192,192,39324,1,2,0:0:0:0:
320,192,39324,1,8,0:0:0:0:
320,192,39738,1,2,0:0:0:0:
448,192,39738,1,8,0:0:0:0:
64,192,40152,128,2,40428:0:0:0:0:
192,192,40152,1,8,0:0:0:0:
192,192,40566,1,2,0:0:0:0:
320,192,40566,1,8,0:0:0:0:
192,192,40979,1,2,0:0:0:0:
448,192,40979,1,8,0:0:0:0:
192,192,41393,128,2,41807:0:0:0:0:
320,192,41393,1,8,0:0:0:0:
64,192,41807,1,2,0:0:0:0:
448,192,41807,1,8,0:0:0:0:
64,192,42221,1,6,0:0:0:0:
448,192,42221,1,8,0:0:0:0:
320,192,42635,1,2,0:0:0:0:
448,192,42635,1,8,0:0:0:0:
192,192,43048,1,2,0:0:0:0:
320,192,43048,1,8,0:0:0:0:
64,192,43462,128,2,44704:0:0:0:0:
192,192,43462,1,8,0:0:0:0:
320,192,43876,1,8,0:0:0:0:
192,192,44152,1,2,0:0:0:0:
448,192,44152,128,4,44704:0:0:0:0:
320,192,44704,1,0,0:0:0:40:Tom2.wav
192,192,44979,128,2,45531:0:0:0:0:
448,192,44979,1,4,0:0:0:0:
64,192,45531,1,2,0:0:0:0:
320,192,45531,1,4,0:0:0:0:
448,192,45945,1,2,0:0:0:0:
64,192,46359,1,2,0:0:0:0:
192,192,46773,1,2,0:0:0:0:
448,192,47186,1,2,0:0:0:0:
448,192,47600,1,2,0:0:0:0:
64,192,48014,1,2,0:0:0:0:
448,192,48428,1,2,0:0:0:0:
64,192,48842,1,2,0:0:0:0:
320,192,48842,1,4,0:0:0:0:
192,192,49255,1,2,0:0:0:0:
192,192,49669,1,2,0:0:0:0:
448,192,50083,128,2,50359:0:0:0:0:
64,192,50497,1,2,0:0:0:0:
64,192,50910,1,2,0:0:0:0:
320,192,51324,128,2,51738:0:0:0:0:
64,192,51738,1,2,0:0:0:0:
192,192,52152,1,2,0:0:0:0:
448,192,52152,1,4,0:0:0:0:
320,192,52566,1,2,0:0:0:0:
64,192,52842,1,0,0:0:0:25:soft-hitclap.wav
192,192,52979,1,2,0:0:0:0:
448,192,53255,1,0,0:0:0:25:soft-hitclap.wav
320,192,53393,128,2,53669:0:0:0:0:
64,192,53669,1,0,0:0:0:25:soft-hitclap.wav
192,192,53807,1,2,0:0:0:0:
448,192,53807,1,4,0:0:0:0:
320,192,54083,1,6,0:0:0:0:
192,192,54221,1,0,0:0:0:25:soft-hitclap.wav
448,192,54497,1,0,0:0:0:25:soft-hitclap.wav
64,192,54635,1,2,0:0:0:0:
320,192,54635,128,4,55048:0:0:0:0:
192,192,54910,1,6,0:0:0:0:
448,192,55048,1,0,0:0:0:25:soft-hitclap.wav
448,192,55324,1,0,0:0:0:25:soft-hitclap.wav
64,192,55462,128,2,59600:0:0:0:0:
192,192,55462,1,4,0:0:0:0:
