osu file format v14

[General]
AudioFilename: audio.mp3
AudioLeadIn: 0
PreviewTime: 8979
Countdown: 0
SampleSet: Soft
StackLeniency: 0.7
Mode: 3
LetterboxInBreaks: 0
SpecialStyle: 0
WidescreenStoryboard: 1

[Editor]
DistanceSpacing: 0.5
BeatDivisor: 3
GridSize: 16
TimelineZoom: 2

[Metadata]
Title:Spectacular Spider-Man Theme (TV Size)
TitleUnicode:Spectacular Spider-Man Theme (TV Size)
Artist:The Tender Box
ArtistUnicode:The Tender Box
Creator:Kinpo
Version:Easy
Source:The Spectacular Spider-Man
Tags:spiderman marvel studio superhero cartoon english rock opening intro male vocals mirsaaa Stan Lee Steve Ditko Victor Cook
BeatmapID:3952359
BeatmapSetID:1915743

[Difficulty]
HPDrainRate:6.5
CircleSize:4
OverallDifficulty:6.5
ApproachRate:5
SliderMultiplier:1.4
SliderTickRate:1

[Events]
//Background and Video events
Video,-467,"spiderman_but_better.mp4"
0,0,"maxresdefault (1).jpg",0,0
//Break Periods
//Storyboard Layer 0 (Background)
//Storyboard Layer 1 (Fail)
//Storyboard Layer 2 (Pass)
//Storyboard Layer 3 (Foreground)
//Storyboard Layer 4 (Overlay)
//Storyboard Sound Samples
Sample,1255,0,"Ride.wav",20
Sample,1669,0,"Ride.wav",20
Sample,2083,0,"Ride.wav",20
Sample,2497,0,"Ride.wav",20
Sample,2910,0,"Ride.wav",20
Sample,3324,0,"Ride.wav",20
Sample,3738,0,"Ride.wav",20
Sample,4566,0,"Ride.wav",20
Sample,4979,0,"Ride.wav",20
Sample,5393,0,"Ride.wav",20
Sample,45945,0,"Ride.wav",20
Sample,46359,0,"Ride.wav",20
Sample,46773,0,"Ride.wav",20
Sample,47186,0,"Ride.wav",20
Sample,47600,0,"Ride.wav",20
Sample,48014,0,"Ride.wav",20
Sample,48428,0,"Ride.wav",20
Sample,49255,0,"Ride.wav",20
Sample,49669,0,"Ride.wav",20
Sample,50083,0,"Ride.wav",20
Sample,50497,0,"Ride.wav",20
Sample,50910,0,"Ride.wav",20
Sample,51324,0,"Ride.wav",20
Sample,51738,0,"Ride.wav",20

[TimingPoints]
15,413.793103448276,4,2,1,40,1,0
842,413.793103448276,4,2,1,40,1,0
35600,-100,4,2,1,40,0,1
44152,-100,4,2,1,40,0,0

[HitObjects]
64,192,15,128,0,428:0:0:0:40:Tom2.wav
448,192,428,128,0,842:0:0:0:40:Tom2.wav
192,192,842,1,6,0:0:0:0:
64,192,1255,1,2,0:0:0:0:
320,192,1669,1,2,0:0:0:0:
192,192,2083,1,2,0:0:0:0:
320,192,2497,1,2,0:0:0:0:
64,192,2910,1,2,0:0:0:0:
192,192,3324,1,2,0:0:0:0:
64,192,3738,1,2,0:0:0:0:
320,192,4152,1,2,0:0:0:0:
448,192,4152,1,4,0:0:0:0:
192,192,4566,1,2,0:0:0:0:
320,192,4979,1,2,0:0:0:0:
64,192,5393,1,2,0:0:0:0:
320,192,5807,1,2,0:0:0:0:
448,192,5807,1,4,0:0:0:0:
192,192,6221,1,2,0:0:0:0:
448,192,6635,1,2,0:0:0:0:
64,192,7048,1,2,0:0:0:0:
192,192,7462,128,2,7876:0:0:0:0:
448,192,7876,128,2,8290:0:0:0:0:
64,192,8290,128,2,8704:0:0:0:0:
320,192,8704,128,2,9117:0:0:0:0:
64,192,9117,1,2,0:0:0:0:
448,192,9117,1,4,0:0:0:0:
192,192,9531,1,8,0:0:0:0:
320,192,9945,1,2,0:0:0:0:
64,192,10359,1,8,0:0:0:0:
192,192,10773,1,2,0:0:0:0:
448,192,11186,1,8,0:0:0:0:
320,192,11600,1,2,0:0:0:0:
64,192,12014,1,8,0:0:0:0:
320,192,12428,1,2,0:0:0:0:
448,192,12428,1,4,0:0:0:0:
192,192,12842,1,8,0:0:0:0:
64,192,13255,1,2,0:0:0:0:
320,192,13669,1,8,0:0:0:0:
448,192,14083,1,2,0:0:0:0:
320,192,14497,1,8,0:0:0:0:
64,192,14910,1,2,0:0:0:0:
192,192,15324,128,8,15738:0:0:0:0:
64,192,15738,1,2,0:0:0:0:
320,192,15738,1,4,0:0:0:0:
448,192,16152,128,8,16566:0:0:0:0:
320,192,16566,128,2,16979:0:0:0:0:
64,192,16979,128,8,17393:0:0:0:0:
192,192,17393,128,2,18221:0:0:0:0:
448,192,17807,1,8,0:0:0:0:
320,192,18221,128,2,19048:0:0:0:0:
64,192,18635,1,8,0:0:0:0:
192,192,19048,1,2,0:0:0:0:
448,192,19048,1,4,0:0:0:0:
64,192,19462,128,8,19876:0:0:0:0:
192,192,19876,128,2,20290:0:0:0:0:
448,192,20290,128,8,20704:0:0:0:0:
320,192,20704,128,2,21117:0:0:0:0:
192,192,21117,128,8,21531:0:0:0:0:
64,192,21531,128,2,21945:0:0:0:0:
448,192,21531,1,4,0:0:0:0:
192,192,21945,1,0,0:0:0:40:Tom3.wav
320,192,22359,1,2,0:0:0:0:
448,192,22359,1,4,0:0:0:0:
192,192,22773,1,8,0:0:0:0:
448,192,23186,1,2,0:0:0:0:
320,192,23600,1,8,0:0:0:0:
448,192,24014,1,2,0:0:0:0:
64,192,24428,1,8,0:0:0:0:
320,192,24842,1,2,0:0:0:0:
192,192,25255,128,8,25669:0:0:0:0:
320,192,25669,1,2,0:0:0:0:
448,192,25669,1,4,0:0:0:0:
64,192,26083,1,8,0:0:0:0:
448,192,26497,1,2,0:0:0:0:
320,192,26910,1,8,0:0:0:0:
192,192,27324,1,2,0:0:0:0:
448,192,27738,1,8,0:0:0:0:
320,192,28014,1,8,0:0:0:0:
192,192,28290,1,8,0:0:0:0:
64,192,28566,128,8,28979:0:0:0:0:
192,192,28979,1,2,0:0:0:0:
320,192,28979,1,4,0:0:0:0:
320,192,29393,128,8,29807:0:0:0:0:
448,192,29807,128,2,30221:0:0:0:0:
64,192,30221,128,8,30635:0:0:0:0:
192,192,30635,128,2,31462:0:0:0:0:
448,192,31048,1,8,0:0:0:0:
320,192,31462,128,2,31876:0:0:0:0:
64,192,31876,128,8,32290:0:0:0:0:
192,192,32290,1,2,0:0:0:0:
448,192,32290,1,4,0:0:0:0:
448,192,32704,128,8,33117:0:0:0:0:
320,192,33117,128,2,33531:0:0:0:0:
64,192,33531,128,8,33945:0:0:0:0:
192,192,33945,128,2,34359:0:0:0:0:
448,192,33945,1,4,0:0:0:0:
320,192,34359,128,8,34773:0:0:0:0:
64,192,34773,1,2,0:0:0:0:
448,192,34773,128,4,35186:0:0:0:0:
192,192,35186,128,8,35600:0:0:0:0:
64,192,35600,1,2,0:0:0:0:
448,192,35600,1,4,0:0:0:0:
448,192,36014,1,10,0:0:0:0:
192,192,36428,1,10,0:0:0:0:
192,192,36842,1,10,0:0:0:0:
320,192,37255,1,10,0:0:0:0:
320,192,37669,1,10,0:0:0:0:
64,192,38083,128,10,38497:0:0:0:0:
448,192,38497,128,10,38910:0:0:0:0:
192,192,38910,1,14,0:0:0:0:
192,192,39324,1,10,0:0:0:0:
320,192,39738,1,10,0:0:0:0:
320,192,40152,1,10,0:0:0:0:
64,192,40566,1,10,0:0:0:0:
64,192,40979,1,10,0:0:0:0:
448,192,41393,128,10,41807:0:0:0:0:
192,192,41807,128,10,42221:0:0:0:0:
320,192,42221,1,14,0:0:0:0:
320,192,42635,1,10,0:0:0:0:
64,192,43048,1,10,0:0:0:0:
448,192,43462,128,10,43876:0:0:0:0:
320,192,43876,1,8,0:0:0:0:
64,192,44152,1,2,0:0:0:0:
192,192,44152,1,4,0:0:0:0:
192,192,44704,1,0,0:0:0:40:Tom2.wav
320,192,44979,1,2,0:0:0:0:
448,192,44979,1,4,0:0:0:0:
64,192,45531,1,2,0:0:0:0:
192,192,45531,1,4,0:0:0:0:
448,192,45945,1,2,0:0:0:0:
192,192,46359,1,2,0:0:0:0:
448,192,46773,1,2,0:0:0:0:
64,192,47186,1,2,0:0:0:0:
320,192,47600,1,2,0:0:0:0:
64,192,48014,1,2,0:0:0:0:
448,192,48428,1,2,0:0:0:0:
192,192,48842,1,2,0:0:0:0:
320,192,48842,1,4,0:0:0:0:
64,192,49255,1,2,0:0:0:0:
192,192,49669,1,2,0:0:0:0:
320,192,50083,1,2,0:0:0:0:
64,192,50497,1,2,0:0:0:0:
192,192,50910,1,2,0:0:0:0:
320,192,51324,1,2,0:0:0:0:
448,192,51738,1,2,0:0:0:0:
64,192,52152,1,2,0:0:0:0:
192,192,52152,1,4,0:0:0:0:
448,192,52566,1,2,0:0:0:0:
320,192,52979,1,2,0:0:0:0:
192,192,53393,1,2,0:0:0:0:
64,192,53807,1,2,0:0:0:0:
448,192,53807,1,4,0:0:0:0:
192,192,54083,1,2,0:0:0:0:
320,192,54083,1,4,0:0:0:0:
64,192,54635,1,2,0:0:0:0:
192,192,54635,1,4,0:0:0:0:
320,192,54910,1,2,0:0:0:0:
448,192,54910,1,4,0:0:0:0:
64,192,55462,1,2,0:0:0:0:
448,192,55462,128,4,59600:0:0:0:0:
