osu file format v14

[General]
AudioFilename: The Super Mario Players feat.Kate Davis - Jump Up, Super Star! (Short ver.).mp3
AudioLeadIn: 0
PreviewTime: 41418
Countdown: 0
SampleSet: None
StackLeniency: 0.7
Mode: 0
LetterboxInBreaks: 0
EpilepsyWarning: 1
WidescreenStoryboard: 1

[Editor]
Bookmarks: 584,111834
DistanceSpacing: 1.5
BeatDivisor: 6
GridSize: 4
TimelineZoom: 2

[Metadata]
Title:Jump Up, Super Star! (Short ver.)
TitleUnicode:Jump Up, Super Star! (Short ver.)
Artist:The Super Mario Players feat.Kate Davis
ArtistUnicode:The Super Mario Players feat.Kate Davis
Creator:Gero
Version:Third Kingdom
Source:スーパーマリオ オデッセイ
Tags:ODYSSEY Jazz Broadway Mahito Yokota 1-UP Girl E3 Nintendo Cappy Pauline TV Size Version
BeatmapID:1384738
BeatmapSetID:653168

[Difficulty]
HPDrainRate:7
CircleSize:4
OverallDifficulty:7
ApproachRate:8
SliderMultiplier:1.4
SliderTickRate:1

[Events]
//Background and Video events
0,0,"BG.jpg",0,0
Video,0,"Video.avi"
//Break Periods
//Storyboard Layer 0 (Background)
//Storyboard Layer 1 (Fail)
//Storyboard Layer 2 (Pass)
//Storyboard Layer 3 (Foreground)
//Storyboard Sound Samples

[TimingPoints]
1173,294.117647058824,4,3,1,50,1,0
11369,-100,4,2,1,30,0,0
11761,-100,4,3,1,50,0,0
12251,-100,4,3,1,50,0,0
12545,-100,4,2,1,40,0,0
12937,-100,4,3,1,50,0,0
13427,-100,4,3,1,50,0,0
13722,-100,4,3,1,50,0,0
32055,-100,4,3,1,50,0,0
32937,-100,4,3,1,50,0,0
35290,-133.333333333333,4,2,1,30,0,0
35315,-133.333333333333,4,2,1,5,0,0
36074,-133.333333333333,4,2,1,30,0,0
36173,-133.333333333333,4,3,1,50,0,0
36467,-133.333333333333,4,2,1,30,0,0
36491,-133.333333333333,4,2,1,5,0,0
37104,-133.333333333333,4,2,1,30,0,0
37202,-133.333333333333,4,3,1,50,0,0
37643,-100,4,3,1,50,0,0
41467,-100,4,3,1,40,0,0
42202,-100,4,3,1,50,0,1
54408,-100,4,3,1,50,0,1
54702,-100,4,3,1,50,0,1
54996,-100,4,3,1,50,0,1
55290,-100,4,3,1,50,0,1
56418,-100,4,3,1,50,0,0
56467,-100,4,3,1,50,0,1
75241,-100,4,3,1,50,0,0
75290,-100,4,3,1,50,0,1
79947,-100,4,3,1,50,0,0
79996,-100,4,3,1,50,0,1
85878,-100,4,3,1,50,0,0
102349,-100,4,3,1,50,0,0
103084,-100,4,3,1,50,0,0
103525,-100,4,3,1,50,0,0
109408,-100,4,3,1,50,0,0
109432,-100,4,3,1,5,0,0
111614,-100,4,3,1,50,0,0

[Colours]
Combo1 : 237,188,41
Combo2 : 248,71,71
Combo3 : 68,189,210
Combo4 : 101,203,75
SliderBorder : 255,21,21
SliderTrackOverride : 0,0,0

[HitObjects]
243,192,584,6,0,L|196:192,5,46.6666666666667,0|0|0|0|0|0,1:0|1:0|1:0|1:0|1:0|1:0,0:0:0:0:
135,156,1173,6,0,P|91:143|47:156,1,93.3333333333333,4|0,1:0|0:0,0:0:0:0:
47,228,1467,2,0,P|91:241|135:228,1,93.3333333333333,0|0,1:0|0:0,0:0:0:0:
199,260,1761,2,0,P|214:192|199:124,1,140,2|0,0:0|1:0,0:0:0:0:
377,228,2349,6,0,P|421:241|465:228,1,93.3333333333333,2|0,0:0|0:0,0:0:0:0:
465,156,2643,2,0,P|421:143|377:156,1,93.3333333333333,0|0,1:0|0:0,0:0:0:0:
313,124,2937,2,0,P|298:192|313:260,1,140,2|0,0:0|1:0,0:0:0:0:
377,56,3525,6,0,B|352:28|316:28|316:28|292:28,1,93.3333333333333,2|0,0:0|0:0,0:0:0:0:
221,28,3820,2,0,B|196:28|196:28|160:28|135:56,1,93.3333333333333,0|0,1:0|0:0,0:0:0:0:
86,6,4114,2,0,L|185:104,1,140,2|0,0:0|1:0,0:0:0:0:
135,328,4702,6,0,B|160:356|196:356|196:356|221:356,1,93.3333333333333,2|0,0:0|0:0,0:0:0:0:
292,356,4997,2,0,B|316:356|316:356|352:356|377:328,1,93.3333333333333,0|0,1:0|0:0,0:0:0:0:
426,378,5291,2,0,L|328:279,1,140,2|0,0:0|1:0,0:0:0:0:
186,104,5878,6,0,B|186:57|186:57|219:24,1,93.3333333333333,2|0,0:0|0:0,0:0:0:0:
293,24,6173,2,0,B|326:57|326:57|326:104,1,93.3333333333333,0|0,1:0|0:0,0:0:0:0:
292,167,6467,2,0,B|256:227|256:227|220:167,1,140,2|0,0:0|1:0,0:0:0:0:
320,358,7055,6,0,P|256:382|192:358,1,140,2|0,0:0|1:0,0:0:0:0:
256,228,7545,1,0,0:0:0:0:
292,167,7643,2,0,B|268:160|256:139|256:139|244:160|220:167,1,93.3333333333333,2|0,0:0|1:0,0:0:0:0:
184,106,7937,1,0,1:0:0:0:
256,24,8084,1,4,1:0:0:0:
256,24,8378,6,0,B|288:24|288:24|344:24|368:86,1,140,4|4,1:0|3:0,0:0:0:0:
452,148,8820,2,0,B|464:176|504:192|504:192|464:208|452:236,1,140,4|4,1:0|3:0,0:0:0:0:
368,297,9261,2,0,P|256:328|145:298,1,233.333333333333,4|4,1:0|3:0,0:0:0:0:
60,236,9898,5,0,1:0:0:0:
60,236,9996,2,0,L|6:192,1,70,4|0,3:0|1:0,0:0:0:0:
76,104,10290,2,0,B|110:96|110:96|144:104,1,70,4|4,3:0|3:0,0:0:0:0:
222,32,10584,2,0,B|256:40|256:40|290:32,1,70,4|4,3:0|3:0,0:0:0:0:
368,104,10878,2,0,B|402:96|402:96|436:104,1,70,4|4,3:0|1:0,0:0:0:0:
6,192,11761,6,0,L|39:225,3,46.6666666666667,0|0|0|0,1:0|1:0|1:0|1:0,0:0:0:0:
144,104,12251,2,2,B|208:76|208:76|272:104,1,140,4|2,1:0|0:0,1:0:0:0:
321,54,12643,1,2,0:0:0:0:
506,192,12937,6,0,L|473:159,3,46.6666666666667,0|0|0|0,1:0|1:0|1:0|1:0,0:0:0:0:
368,280,13427,2,2,B|304:308|304:308|240:280,1,140,4|2,1:0|0:0,1:0:0:0:
191,330,13819,1,0,1:0:0:0:
5,192,14114,6,0,P|38:158|79:137,1,93.3333333333333,4|0,3:0|0:0,0:0:0:0:
144,104,14408,2,0,B|184:104|184:104|196:79|219:66,1,93.3333333333333,0|0,1:0|0:0,0:0:0:0:
293,66,14702,2,0,B|316:79|328:104|328:104|368:104,1,93.3333333333333,4|0,3:0|0:0,0:0:0:0:
432,137,14996,2,0,P|473:158|506:192,1,93.3333333333333,2|2,1:0|0:1,0:0:0:0:
456,241,15290,5,4,3:0:0:0:
256,304,15584,1,0,1:0:0:0:
56,241,15878,1,4,3:0:0:0:
256,178,16173,1,0,1:0:0:0:
456,241,16467,6,0,P|469:285|456:329,1,93.3333333333333,4|0,3:0|0:0,0:0:0:0:
400,285,16761,2,0,B|385:285|385:285|343:285|323:326,1,93.3333333333333,0|0,1:0|0:0,0:0:0:0:
256,304,17055,1,4,3:0:0:0:
56,143,17349,1,0,1:0:0:0:
56,143,17643,6,0,P|43:99|56:55,1,93.3333333333333,4|0,0:0|0:0,0:0:0:0:
112,99,17937,2,0,B|127:99|127:99|169:99|189:58,1,93.3333333333333,0|0,1:0|0:0,0:0:0:0:
256,80,18231,1,4,0:0:0:0:
456,241,18525,1,4,1:2:0:0:
456,241,18820,1,4,0:0:0:0:
344,328,19016,6,2,B|308:251|232:251|232:251|189:251,1,186.666666666667,6|4,1:0|0:0,1:0:0:0:
49,251,19604,2,0,B|48:212|12:192|-12:192|-12:192|12:192|48:172|49:133,1,186.666666666667,6|4,1:0|0:0,0:0:0:0:
189,133,20192,2,2,B|232:133|232:133|308:133|344:56,1,186.666666666667,6|4,1:0|0:0,1:0:0:0:
456,143,20780,2,2,B|488:152|502:192|502:192|488:232|456:241,1,140,6|4,1:0|0:0,1:0:0:0:
404,192,21173,6,0,L|310:192,1,93.3333333333333,0|4,1:0|0:0,0:0:0:0:
256,236,21467,1,0,1:0:0:0:
150,329,21663,2,2,P|86:302|56:241,1,140,6|4,1:0|0:0,1:0:0:0:
108,192,22055,6,0,L|201:192,1,93.3333333333333,0|4,1:0|0:0,0:0:0:0:
256,148,22349,2,0,B|272:192|272:192|256:236,1,93.3333333333333,0|4,1:0|0:0,0:0:0:0:
310,280,22643,1,2,0:0:0:0:
388,348,22790,6,2,L|453:282,1,93.3333333333333,6|0,1:0|0:0,1:0:0:0:
404,232,23084,2,2,L|469:166,1,93.3333333333333,6|0,1:0|0:0,1:0:0:0:
420,116,23378,6,2,B|412:68|372:44|336:44|336:44|293:44,1,163.333333333333,6|0,1:0|0:0,1:0:0:0:
256,102,23820,2,0,P|227:139|185:157,1,93.3333333333333,0|0,1:0|0:0,0:0:0:0:
185,226,24114,2,0,P|227:244|256:281,1,93.3333333333333,4|0,0:0|0:0,0:0:0:0:
293,340,24408,1,0,1:0:0:0:
104,252,24702,6,0,B|64:228|64:228|17:228,1,93.3333333333333,2|2,0:1|0:1,0:0:0:0:
17,156,24996,2,0,B|64:156|64:156|104:132,1,93.3333333333333,0|2,1:0|0:1,0:0:0:0:
144,192,25290,2,0,L|256:276,1,140,4|2,0:0|1:0,0:0:0:0:
408,132,25878,6,0,B|448:156|448:156|494:156,1,93.3333333333333,4|0,0:0|0:0,0:0:0:0:
494,228,26172,2,0,B|448:228|448:228|408:252,1,93.3333333333333,0|0,1:0|0:0,0:0:0:0:
368,192,26467,2,0,L|256:276,1,140,4|0,0:0|1:0,0:0:0:0:
144,192,26957,5,2,0:1:0:0:
144,192,27055,2,0,P|170:155|212:136,1,93.3333333333333,2|2,0:1|0:1,0:0:0:0:
211,64,27349,2,0,B|256:52|256:52|301:64,1,93.3333333333333,0|2,1:0|0:1,0:0:0:0:
299,135,27643,2,0,P|341:154|368:192,1,93.3333333333333,4|0,0:0|0:0,0:0:0:0:
408,252,27937,1,0,1:0:0:0:
256,276,28133,1,0,0:0:0:0:
256,276,28231,1,4,0:0:0:0:
104,252,28427,5,2,0:1:0:0:
104,252,28525,2,0,B|56:252|56:252|17:228,1,93.3333333333333,0|0,1:0|0:0,0:0:0:0:
17,156,28820,2,0,B|56:132|56:132|104:132,1,93.3333333333333,2|0,0:1|0:0,0:0:0:0:
144,192,29114,2,0,B|160:221|160:221|168:226|168:226|161:230|161:230|168:235|168:235|186:264,1,93.3333333333333,2|0,1:0|0:0,0:0:0:0:
212,328,29408,2,0,P|256:342|300:328,1,93.3333333333333,2|2,0:1|0:1,0:0:0:0:
326,264,29702,2,0,B|343:235|343:235|350:230|350:230|343:226|343:226|351:221|351:221|368:192,1,93.3333333333333,2|0,1:0|0:0,0:0:0:0:
408,132,29996,6,0,L|375:99,2,46.6666666666667,0|0|0,1:0|1:0|1:0,0:0:0:0:
448,71,30290,2,0,L|415:38,2,46.6666666666667,0|0|0,1:0|1:0|1:0,0:0:0:0:
488,132,30584,6,0,P|501:176|488:220,1,93.3333333333333,4|4,1:2|0:0,0:0:0:0:
448,281,30878,1,4,0:0:0:0:
448,281,31025,6,0,L|317:379,1,163.333333333333,4|4,1:2|0:0,0:0:0:0:
272,324,31467,1,4,0:0:0:0:
200,232,31663,1,4,0:0:0:0:
200,232,31761,2,0,B|176:192|176:192|200:152,1,93.3333333333333,4|0,0:0|0:0,0:0:0:0:
256,192,32055,6,0,L|60:336,1,233.333333333333,4|0,1:0|0:0,0:0:0:0:
18,280,32643,2,0,P|4:236|18:192,1,93.3333333333333,4|0,1:0|0:0,0:0:0:0:
67,142,32937,6,0,B|113:142|113:142|146:108,1,93.3333333333333,4|0,0:0|0:0,0:0:0:0:
212,80,33231,2,0,B|256:65|256:65|300:80,1,93.3333333333333,2|4,1:0|0:0,0:0:0:0:
365,108,33525,1,4,0:0:0:0:
476,192,33722,2,0,L|377:290,1,140,2|0,0:1|0:0,0:0:0:0:
327,241,34114,6,0,L|261:306,1,93.3333333333333,2|0,0:1|0:0,0:0:0:0:
211,257,34408,1,0,1:0:0:0:
111,367,34604,2,0,P|48:341|18:280,1,140,2|0,0:1|0:0,0:0:0:0:
72,236,34996,1,0,1:0:0:0:
220,183,35290,6,0,P|256:70|292:183,1,315.000012016297,2|4,0:0|1:0,0:0:0:0:
145,60,36467,6,0,P|256:0|367:60,1,262.500010013581,2|4,0:0|1:0,0:0:0:0:
256,320,37643,6,0,B|200:320|156:348|156:348|112:320|56:320,1,210,6|6,1:0|1:0,0:0:0:0:
256,64,38673,6,0,B|304:80|356:56|364:6|364:6|372:56|424:80|472:64,1,280,6|6,1:0|1:0,0:0:0:0:
472,63,40192,5,6,1:0:0:0:
364,152,40388,1,6,1:0:0:0:
256,64,40584,1,6,1:0:0:0:
148,152,40780,1,6,1:0:0:0:
39,63,40976,1,6,1:0:0:0:
148,152,41173,1,6,1:0:0:0:
148,152,41467,6,0,P|172:216|148:280,1,140,4|4,0:0|0:0,0:0:0:0:
24,216,41957,1,4,0:0:0:0:
24,216,42202,6,0,L|187:216,1,163.333333333333,4|4,1:2|3:0,0:0:0:0:
252,192,42643,2,0,L|352:192,1,93.3333333333333,2|0,1:2|0:0,0:0:0:0:
409,168,42937,1,4,3:0:0:0:
507,266,43133,1,4,0:0:0:0:
507,266,43231,1,2,1:2:0:0:
409,364,43427,6,0,P|345:340|281:364,1,140,4|4,1:2|3:0,0:0:0:0:
230,314,43820,2,0,P|186:328|142:314,1,93.3333333333333,2|0,1:2|0:0,0:0:0:0:
91,263,44114,1,4,3:0:0:0:
212,192,44310,1,4,0:0:0:0:
212,192,44408,1,2,1:2:0:0:
91,121,44604,6,0,B|59:105|47:69|47:69|59:33|91:17,1,140,4|4,1:2|0:0,0:0:0:0:
139,69,44996,2,0,B|163:69|179:89|179:89|195:69|219:69,1,93.3333333333333,2|0,1:2|0:0,0:0:0:0:
293,69,45290,2,0,B|317:69|333:89|333:89|349:69|373:69,1,93.3333333333333,4|4,0:0|0:0,0:0:0:0:
421,121,45584,1,2,1:2:0:0:
300,192,45780,6,0,P|256:147|212:192,1,140,4|4,1:2|0:0,0:0:0:0:
212,262,46173,2,0,B|256:246|256:246|300:262,1,93.3333333333333,2|0,1:2|0:0,0:0:0:0:
328,324,46467,1,4,0:0:0:0:
184,324,46663,1,4,0:0:0:0:
184,324,46761,1,2,1:2:0:0:
328,324,46957,6,0,B|368:283|368:283|371:275|371:275|376:280|376:280|379:272|379:272|419:232,1,140,4|4,1:2|0:0,0:0:0:0:
476,192,47349,1,2,1:2:0:0:
421,61,47545,1,0,0:0:0:0:
421,61,47643,1,4,0:0:0:0:
366,192,47839,1,4,0:0:0:0:
366,192,47937,1,2,1:2:0:0:
256,108,48133,6,0,B|212:108|212:108|160:108|134:155,1,140,4|4,1:2|0:0,0:0:0:0:
76,120,48525,2,0,B|68:144|48:156|48:156|68:168|76:192,1,93.3333333333333,2|0,1:2|0:0,0:0:0:0:
134,228,48820,2,0,B|142:252|162:264|162:264|142:276|134:300,1,93.3333333333333,4|4,0:0|0:0,0:0:0:0:
76,336,49114,1,2,1:2:0:0:
232,264,49310,6,0,L|365:307,1,140,4|4,1:2|0:0,0:0:0:0:
476,128,49898,2,0,B|504:192|504:192|476:256,1,140,4|4,1:2|0:0,0:0:0:0:
365,76,50486,2,0,L|232:120,1,140,4|4,1:2|0:0,0:0:0:0:
182,70,50878,6,0,L|93:98,1,93.3333333333333,2|4,1:2|0:0,0:0:0:0:
43,148,51173,1,2,1:2:0:0:
176,192,51369,1,2,1:2:0:0:
176,192,51614,6,0,B|256:208|256:208|336:192,1,163.333333333333,4|4,1:2|0:0,0:0:0:0:
365,255,52055,2,0,P|379:299|365:343,1,93.3333333333333,2|0,1:2|0:0,0:0:0:0:
302,374,52349,2,0,B|256:367|256:367|210:374,1,93.3333333333333,4|4,0:0|0:0,0:0:0:0:
146,342,52643,1,2,1:2:0:0:
256,255,52839,6,0,P|282:192|256:129,1,140,4|4,1:2|0:0,0:0:0:0:
217,70,53231,2,0,P|256:48|295:70,1,93.3333333333333,2|0,1:2|0:0,0:0:0:0:
334,11,53525,2,0,P|373:33|412:11,1,93.3333333333333,4|4,0:0|0:0,0:0:0:0:
452,70,53820,1,2,1:2:0:0:
388,192,54016,5,4,0:0:0:0:
388,192,54114,2,0,P|337:238|311:302,1,140,4|2,1:2|1:2,0:0:0:0:
124,192,54702,2,0,P|175:238|201:302,1,140,4|2,0:0|1:2,0:0:0:0:
296,116,55290,6,0,B|256:92|256:92|216:116,1,93.3333333333333,4|4,1:2|0:0,0:0:0:0:
256,172,55584,1,2,1:2:0:0:
336,60,55780,2,0,B|256:12|256:12|176:60,1,186.666666666667,4|2,1:2|1:2,0:0:0:0:
212,268,56467,6,0,P|256:313|300:268,1,140,4|2,1:2|1:2,0:0:0:0:
296,116,56957,2,0,B|268:140|256:172|256:172|244:140|216:116,1,140,4|4,0:0|0:0,0:0:0:0:
256,60,57349,1,2,1:2:0:0:
336,172,57545,5,0,0:0:0:0:
336,172,57643,2,0,B|384:192|384:256|384:256|384:292,1,140,4|2,1:2|1:2,0:0:0:0:
176,172,58231,2,0,B|128:192|128:256|128:256|128:292,1,140,4|2,0:0|1:2,0:0:0:0:
296,116,58820,6,0,B|304:96|304:96|208:96|208:96|216:116,1,140,4|2,1:2|1:2,0:0:0:0:
256,252,59310,1,4,0:0:0:0:
256,252,59408,2,0,B|256:286|256:286|252:294|252:294|260:294|260:294|256:302|256:302|256:336,1,93.3333333333333,4|4,0:0|0:0,0:0:0:0:
309,380,59702,1,2,1:2:0:0:
384,260,59898,6,0,B|399:192|399:192|384:124,1,140,4|4,1:2|0:0,0:0:0:0:
351,61,60290,2,0,L|442:81,1,93.3333333333333,2|4,1:2|0:0,0:0:0:0:
500,38,60584,2,0,L|408:17,1,93.3333333333333,2|2,1:2|1:2,0:0:0:0:
351,61,60878,1,4,0:0:0:0:
256,164,61074,6,0,P|192:188|128:164,1,140,4|4,1:2|0:0,0:0:0:0:
72,120,61467,2,0,B|88:164|88:164|72:208,1,93.3333333333333,2|0,1:2|0:0,0:0:0:0:
16,250,61761,2,0,B|0:294|0:294|16:338,1,93.3333333333333,4|4,0:0|0:0,0:0:0:0:
72,380,62055,1,2,1:2:0:0:
188,304,62251,6,0,B|256:288|256:288|324:304,1,140,4|4,1:2|0:0,0:0:0:0:
373,254,62643,2,0,B|417:254|417:254|451:288,1,93.3333333333333,2|0,1:2|0:0,0:0:0:0:
496,236,62937,2,0,P|509:192|496:148,1,93.3333333333333,4|4,0:0|0:0,0:0:0:0:
451,95,63231,1,2,1:2:0:0:
324,80,63427,6,0,B|256:96|256:96|188:80,1,140,4|4,1:2|0:0,0:0:0:0:
139,130,63819,2,0,B|95:130|95:130|60:95,1,93.3333333333333,2|0,1:2|0:0,0:0:0:0:
16,148,64113,2,0,P|3:192|16:236,1,93.3333333333333,4|4,0:0|0:0,0:0:0:0:
60,288,64407,1,2,1:2:0:0:
188,304,64604,6,0,B|220:304|220:304|276:304|307:358,1,140,4|4,1:2|0:0,0:0:0:0:
372,332,64996,2,0,B|372:304|384:288|384:288|372:272|372:244,1,93.3333333333333,2|0,1:2|0:0,0:0:0:0:
324,192,65290,1,4,0:0:0:0:
256,72,65486,1,0,0:0:0:0:
256,72,65584,1,2,1:2:0:0:
188,192,65780,6,0,P|256:206|324:192,1,140,4|4,1:2|0:0,0:0:0:0:
361,132,66173,2,0,B|385:132|401:112|401:112|417:132|441:132,1,93.3333333333333,2|0,1:2|0:0,0:0:0:0:
478,192,66467,1,4,0:0:0:0:
401,308,66663,1,4,0:0:0:0:
401,308,66761,1,2,1:2:0:0:
324,192,66957,6,0,B|256:176|256:176|188:192,1,140,4|0,1:2|0:0,0:0:0:0:
151,131,67349,2,0,P|177:94|218:72,1,93.3333333333333,2|0,1:2|0:0,0:0:0:0:
293,72,67643,2,0,P|334:94|360:131,1,93.3333333333333,4|4,0:0|0:0,0:0:0:0:
324,192,67937,1,2,1:2:0:0:
256,316,68133,5,0,0:0:0:0:
256,316,68231,1,4,0:0:0:0:
188,192,68427,1,4,0:0:0:0:
188,192,68525,1,2,1:2:0:0:
308,264,68722,2,0,B|353:264|353:264|388:296,1,93.3333333333333,4|0,0:0|0:0,0:0:0:0:
424,236,69016,2,0,P|438:192|424:148,1,93.3333333333333,4|0,0:0|0:0,0:0:0:0:
388,87,69310,2,0,B|353:120|353:120|308:120,1,93.3333333333333,4|0,0:0|0:0,0:0:0:0:
256,72,69604,1,4,0:0:0:0:
204,120,69702,6,0,B|159:120|159:120|123:87,1,93.3333333333333,6|4,1:2|0:0,0:0:0:0:
88,148,69996,1,4,0:0:0:0:
25,273,70192,1,4,1:2:0:0:
25,273,70486,6,0,B|61:289|89:277|93:273|97:269|125:257|161:273,1,140,4|4,1:2|0:0,0:0:0:0:
221,313,70878,2,0,B|221:289|201:273|201:273|221:257|221:233,1,93.3333333333333,2|0,1:2|0:0,0:0:0:0:
291,232,71173,2,0,B|291:256|311:272|311:272|291:288|291:312,1,93.3333333333333,4|4,0:0|0:0,0:0:0:0:
256,372,71467,1,2,1:2:0:0:
221,232,71663,6,0,B|256:171|256:171|291:232,1,140,4|4,1:2|0:0,0:0:0:0:
340,181,72055,2,0,B|293:100,1,93.3333333333333,2|0,1:2|0:0,0:0:0:0:
218,100,72349,2,0,B|172:181,1,93.3333333333333,4|4,0:0|0:0,0:0:0:0:
221,232,72643,2,0,B|256:263|256:263|291:232,1,93.3333333333333,2|0,1:2|0:0,0:0:0:0:
340,283,72937,6,0,B|376:283|400:314|400:314|424:283|460:283,1,140,4|2,1:2|1:2,0:0:0:0:
172,283,73525,2,0,B|136:283|112:314|112:314|88:283|52:283,1,140,4|2,0:0|1:2,0:0:0:0:
221,152,74114,6,0,B|232:152|248:148|256:126|256:126|264:148|280:152|291:152,1,93.3333333333333,4|4,1:2|0:0,0:0:0:0:
256,212,74408,1,2,1:2:0:0:
186,92,74555,2,0,B|256:50|256:50|326:92,1,163.333333333333,4|4,1:2|0:0,0:0:0:0:
361,152,74996,1,2,1:2:0:0:
172,283,75290,6,0,P|128:296|84:283,1,93.3333333333333,4|0,1:2|0:0,0:0:0:0:
34,332,75584,1,2,1:2:0:0:
34,192,75780,1,0,0:0:0:0:
34,192,75878,1,4,0:0:0:0:
34,52,76074,1,0,0:0:0:0:
83,101,76173,2,0,P|127:88|171:101,1,93.3333333333333,2|0,1:2|0:0,0:0:0:0:
127,158,76467,6,0,L|231:65,1,140,4|2,0:0|1:2,0:0:0:0:
127,226,77055,2,0,L|231:318,1,140,4|2,0:0|1:2,0:0:0:0:
340,101,77643,6,0,P|384:88|428:101,1,93.3333333333333,4|0,1:2|0:0,0:0:0:0:
478,52,77937,1,2,1:2:0:0:
478,192,78133,1,0,0:0:0:0:
478,192,78231,1,4,0:0:0:0:
478,332,78427,1,0,0:0:0:0:
429,283,78526,2,0,P|385:296|341:283,1,93.3333333333333,2|0,1:2|0:0,0:0:0:0:
385,226,78820,6,0,L|280:318,1,140,4|2,0:0|1:2,0:0:0:0:
385,158,79408,2,0,L|280:65,1,140,4|2,0:0|1:2,0:0:0:0:
172,283,79996,5,4,1:2:0:0:
478,192,80290,1,2,1:2:0:0:
172,101,80584,1,4,0:0:0:0:
385,192,80878,1,2,1:2:0:0:
172,283,81173,6,0,P|129:265|100:229,1,93.3333333333333,4|8,1:2|0:0,0:0:0:0:
100,154,81467,2,0,P|129:118|171:101,1,93.3333333333333,8|8,0:0|0:0,0:0:0:0:
216,156,81761,2,0,L|262:156,2,46.6666666666667,8|8|8,0:0|0:0|0:0,0:0:0:0:
216,228,82055,2,0,L|262:228,2,46.6666666666667,4|4|4,0:0|0:0|0:0,0:0:0:0:
172,283,82349,5,4,0:0:0:0:
256,348,82496,2,0,B|324:348|324:348|383:307,1,140,4|4,1:2|0:0,0:0:0:0:
476,256,82937,2,0,P|500:192|476:128,1,140,4|4,1:2|0:0,0:0:0:0:
383,76,83378,2,0,B|324:36|324:36|256:36,1,140,4|4,1:2|0:0,0:0:0:0:
172,101,83820,1,4,0:0:0:0:
256,166,83967,6,0,B|292:192|332:192|332:192|292:192|256:218,1,163.333333333333,4|4,1:2|0:0,0:0:0:0:
192,192,84408,2,0,B|144:192|144:192|111:224,1,93.3333333333333,8|0,0:0|0:0,0:0:0:0:
145,284,84702,6,0,P|111:292|77:284,2,70,4|0|0,0:0|1:0|1:0,0:0:0:0:
256,320,85143,1,0,1:0:0:0:
367,284,85290,2,0,P|401:292|435:284,2,70,0|0|0,1:0|1:0|1:0,0:0:0:0:
256,320,85731,1,0,1:0:0:0:
145,284,85878,6,0,B|119:276|111:255|111:255|103:276|77:284,1,93.3333333333333,6|0,1:0|0:0,0:0:0:0:
28,232,86173,2,0,B|4:192|4:192|28:152,1,93.3333333333333,0|2,1:0|0:1,0:0:0:0:
77,100,86467,2,0,B|103:108|111:129|111:129|119:108|145:100,1,93.3333333333333,4|2,0:0|0:1,0:0:0:0:
111,37,86761,1,2,1:0:0:0:
226,89,86957,5,0,0:0:0:0:
226,89,87055,2,0,P|290:113|354:89,1,140,2|0,0:1|1:0,0:0:0:0:
427,25,87496,2,0,P|403:89|427:153,1,140,2|2,0:1|0:1,0:0:0:0:
501,227,87937,2,0,P|508:261|501:295,1,70,2|0,1:0|0:0,0:0:0:0:
402,261,88231,6,0,B|357:261|357:261|323:294,1,93.3333333333333,2|0,0:1|0:0,0:0:0:0:
272,245,88525,2,0,B|238:278|238:278|193:278,1,93.3333333333333,2|2,1:0|0:1,0:0:0:0:
134,318,88820,2,0,B|110:278|110:278|134:238,1,93.3333333333333,4|2,0:0|0:1,0:0:0:0:
76,197,89114,2,0,B|100:157|100:157|76:117,1,93.3333333333333,2|0,1:0|0:0,0:0:0:0:
97,50,89408,6,0,L|168:170,1,140,4|0,0:0|1:0,0:0:0:0:
415,50,89996,2,0,L|343:170,1,140,4|0,0:0|1:0,0:0:0:0:
300,300,90486,5,0,0:0:0:0:
300,300,90584,2,0,P|256:314|212:300,1,93.3333333333333,2|0,0:1|0:0,0:0:0:0:
256,244,90878,2,0,P|300:230|344:244,1,93.3333333333333,0|2,1:0|0:1,0:0:0:0:
388,300,91173,2,0,L|438:378,1,93.3333333333333,4|2,0:0|0:1,0:0:0:0:
482,321,91467,2,0,L|431:242,1,93.3333333333333,2|0,1:0|0:0,0:0:0:0:
474,184,91761,6,0,B|442:131|442:131|435:126|435:126|427:122|427:122|395:68,1,140,2|0,0:1|1:0,0:0:0:0:
304,16,92202,2,0,B|272:16|272:16|216:16|186:72,1,140,2|2,0:1|0:1,0:0:0:0:
243,159,92643,2,0,B|254:192|254:192|243:225,1,70,2|0,1:0|0:0,0:0:0:0:
186,312,92937,6,0,P|142:325|98:312,1,93.3333333333333,2|0,0:1|0:0,0:0:0:0:
44,356,93231,2,0,P|31:312|44:268,1,93.3333333333333,2|2,1:0|0:1,0:0:0:0:
97,225,93525,2,0,P|110:181|97:137,1,93.3333333333333,4|2,0:0|0:1,0:0:0:0:
128,72,93820,1,2,1:0:0:0:
252,127,94016,5,0,0:0:0:0:
252,127,94114,2,0,B|288:143|316:131|320:127|324:123|352:111|388:127,1,140,4|0,0:0|1:0,0:0:0:0:
260,257,94702,2,0,B|224:241|196:253|192:257|188:261|160:273|124:257,1,140,4|0,0:0|1:0,0:0:0:0:
252,127,95290,6,0,B|275:103|275:103|278:95|278:95|283:100|283:100|286:92|286:92|310:68,1,93.3333333333333,6|0,1:0|0:0,0:0:0:0:
360,117,95584,2,0,B|384:84|420:84|420:84|441:84,1,93.3333333333333,0|2,1:0|0:1,0:0:0:0:
472,148,95878,2,0,B|488:192|488:192|472:236,1,93.3333333333333,4|2,0:0|0:1,0:0:0:0:
441,300,96173,2,0,B|420:300|420:300|384:300|360:267,1,93.3333333333333,2|0,1:0|0:0,0:0:0:0:
311,317,96467,6,0,B|276:328|256:358|256:358|236:328|201:317,1,140,2|0,0:1|1:0,0:0:0:0:
256,228,96908,2,0,B|316:192|316:192|256:156,1,140,2|2,0:1|0:1,0:0:0:0:
201,67,97349,1,2,1:0:0:0:
256,156,97496,1,0,0:0:0:0:
311,67,97643,6,0,P|354:81|383:117,1,93.3333333333333,2|0,0:1|0:0,0:0:0:0:
446,148,97937,2,0,B|462:192|462:192|446:236,1,93.3333333333333,2|2,1:0|0:1,0:0:0:0:
383,266,98231,2,0,P|354:302|311:317,1,93.3333333333333,4|2,0:0|0:1,0:0:0:0:
256,360,98525,1,0,0:0:0:0:
256,219,98722,5,0,0:0:0:0:
256,219,98820,2,0,P|229:258|191:284,1,93.3333333333333,4|2,0:0|0:1,0:0:0:0:
148,228,99114,2,0,L|54:228,1,93.3333333333333,0|0,1:0|0:0,0:0:0:0:
54,156,99408,2,0,L|148:156,1,93.3333333333333,2|2,0:1|0:1,0:0:0:0:
191,99,99702,2,0,P|229:125|256:164,1,93.3333333333333,0|2,1:0|0:1,0:0:0:0:
316,124,99996,6,0,B|364:124|364:124|396:156,1,93.3333333333333,4|0,0:0|0:0,0:0:0:0:
466,156,100290,2,0,B|476:180|494:192|494:192|476:204|466:228,1,93.3333333333333,0|2,1:0|0:1,0:0:0:0:
396,228,100584,2,0,B|364:260|364:260|316:260,1,93.3333333333333,4|2,0:0|0:1,0:0:0:0:
256,296,100878,1,2,1:0:0:0:
120,256,101074,5,0,0:0:0:0:
120,256,101173,2,0,P|96:192|120:128,1,140,2|0,0:1|1:0,0:0:0:0:
204,64,101614,2,0,P|228:128|204:192,1,140,2|2,0:1|0:1,0:0:0:0:
120,256,102055,1,2,1:0:0:0:
204,320,102202,1,0,0:0:0:0:
204,320,102349,6,0,B|266:280|334:316|338:320|342:324|410:360|472:320,1,280,2|4,0:1|0:0,0:0:0:0:
410,234,103084,2,0,B|400:200|368:168|324:168|324:168|300:168,1,140,2|2,0:1|0:1,0:0:0:0:
237,82,103525,5,4,0:0:0:0:
237,82,103820,2,0,L|283:82,2,46.6666666666667,4|4|4,0:0|0:0|0:0,0:0:0:0:
187,32,104114,1,4,0:0:0:0:
88,130,104310,2,0,B|56:192|56:192|88:254,1,140,4|0,1:0|0:0,0:0:0:0:
136,192,104702,6,0,P|108:254|136:316,1,140,4|4,1:0|0:0,0:0:0:0:
256,254,105192,2,0,P|228:192|256:130,1,140,4|4,1:0|0:0,0:0:0:0:
304,192,105584,2,0,P|276:130|304:68,1,140,4|4,1:0|0:0,0:0:0:0:
424,130,106074,2,0,P|396:192|424:254,1,140,4|4,1:0|0:0,0:0:0:0:
472,192,106467,2,0,P|444:254|472:316,1,140,4|4,1:0|0:0,0:0:0:0:
304,192,107055,6,0,B|272:176|256:143|256:143|240:176|208:192,1,140,6|4,1:0|0:0,0:0:0:0:
256,324,107545,1,4,0:0:0:0:
256,324,107643,1,2,1:0:0:0:
377,254,107839,2,0,P|405:192|377:130,2,140,2|2|2,1:0|1:0|1:0,0:0:0:0:
329,192,108525,1,2,1:0:0:0:
329,192,109408,5,4,1:0:0:0:
256,192,109506,12,4,111834,0:0:0:0:
