osu file format v14

[General]
AudioFilename: audio.mp3
AudioLeadIn: 0
PreviewTime: 41469
Countdown: 0
SampleSet: Normal
StackLeniency: 0.7
Mode: 1
LetterboxInBreaks: 0
WidescreenStoryboard: 0

[Editor]
Bookmarks: 1175,9410,11763,21175,30587,35293,42351,51763,61175,70587,82351,85881,95293,104704,109410,111837
DistanceSpacing: 1.5
BeatDivisor: 6
GridSize: 32
TimelineZoom: 2.6

[Metadata]
Title:Jump Up, Super Star! (Short ver.)
TitleUnicode:Jump Up, Super Star! (Short ver.)
Artist:The Super Mario Players feat.Kate Davis
ArtistUnicode:The Super Mario Players feat.Kate Davis
Creator:strickluke
Version:Odyssey Oni!
Source:スーパーマリオ オデッセイ
Tags:SUPER MARIO ODYSSEY Jazz Broadway Mahito Yokota 1-UP Girl Mario E3 Nintendo Cappy Pauline TV Size Version Big Band
BeatmapID:1466019
BeatmapSetID:692798

[Difficulty]
HPDrainRate:5
CircleSize:5
OverallDifficulty:5
ApproachRate:9
SliderMultiplier:1.4
SliderTickRate:1

[Events]
//Background and Video events
0,0,"BG.jpg",0,40
//Break Periods
//Storyboard Layer 0 (Background)
//Storyboard Layer 1 (Fail)
//Storyboard Layer 2 (Pass)
//Storyboard Layer 3 (Foreground)
//Storyboard Sound Samples

[TimingPoints]
-1,294.117647058824,4,1,0,60,1,0
42646,-100,4,1,0,60,0,1
85881,-100,4,1,0,60,0,0

[HitObjects]
256,192,587,5,0,0:0:0:0:
256,192,685,1,0,0:0:0:0:
256,192,783,1,8,0:0:0:0:
256,192,881,1,0,0:0:0:0:
256,192,954,1,8,0:0:0:0:
256,192,1028,1,8,0:0:0:0:
256,192,1175,1,4,0:0:0:0:
256,192,1469,1,8,0:0:0:0:
256,192,1665,1,0,0:0:0:0:
256,192,1763,1,0,0:0:0:0:
256,192,1959,1,0,0:0:0:0:
256,192,2057,1,8,0:0:0:0:
256,192,2253,1,8,0:0:0:0:
256,192,2351,1,0,0:0:0:0:
256,192,2449,1,0,0:0:0:0:
256,192,2548,1,8,0:0:0:0:
256,192,2646,1,0,0:0:0:0:
256,192,2940,1,8,0:0:0:0:
256,192,3038,1,0,0:0:0:0:
256,192,3136,1,0,0:0:0:0:
256,192,3234,1,0,0:0:0:0:
256,192,3430,1,8,0:0:0:0:
256,192,3822,1,0,0:0:0:0:
256,192,4018,1,0,0:0:0:0:
256,192,4116,1,8,0:0:0:0:
256,192,4312,1,8,0:0:0:0:
256,192,4410,1,0,0:0:0:0:
256,192,4606,1,8,0:0:0:0:
256,192,4704,1,0,0:0:0:0:
256,192,4802,1,0,0:0:0:0:
256,192,4900,1,8,0:0:0:0:
256,192,4999,1,8,0:0:0:0:
256,192,5293,1,8,0:0:0:0:
256,192,5391,1,8,0:0:0:0:
256,192,5489,1,0,0:0:0:0:
256,192,5587,1,0,0:0:0:0:
256,192,5783,1,8,0:0:0:0:
256,192,6175,1,0,0:0:0:0:
256,192,6371,1,0,0:0:0:0:
256,192,6469,1,8,0:0:0:0:
256,192,6665,1,8,0:0:0:0:
256,192,6763,1,8,0:0:0:0:
256,192,6959,1,0,0:0:0:0:
256,192,7057,1,0,0:0:0:0:
256,192,7155,1,0,0:0:0:0:
256,192,7253,1,8,0:0:0:0:
256,192,7351,1,0,0:0:0:0:
256,192,7646,1,8,0:0:0:0:
256,192,7842,1,8,0:0:0:0:
256,192,7940,1,8,0:0:0:0:
256,192,8136,1,8,0:0:0:0:
256,192,8381,1,4,0:0:0:0:
256,192,8822,1,4,0:0:0:0:
256,192,9263,1,4,0:0:0:0:
256,192,9410,8,0,11028,0:0:0:0:
256,192,11763,5,8,0:0:0:0:
256,192,11910,1,0,0:0:0:0:
256,192,11959,1,0,0:0:0:0:
256,192,12008,1,0,0:0:0:0:
256,192,12204,1,12,0:0:0:0:
256,192,12548,1,0,0:0:0:0:
256,192,12646,1,0,0:0:0:0:
256,192,12842,1,8,0:0:0:0:
256,192,12940,1,0,0:0:0:0:
256,192,13136,1,8,0:0:0:0:
256,192,13185,1,8,0:0:0:0:
256,192,13234,1,8,0:0:0:0:
256,192,13381,1,4,0:0:0:0:
256,192,13724,1,0,0:0:0:0:
256,192,13822,1,8,0:0:0:0:
256,192,14018,1,8,0:0:0:0:
256,192,14116,1,0,0:0:0:0:
256,192,14410,1,8,0:0:0:0:
256,192,14606,1,0,0:0:0:0:
256,192,14704,1,8,0:0:0:0:
256,192,14802,1,8,0:0:0:0:
256,192,14900,1,0,0:0:0:0:
256,192,14999,1,0,0:0:0:0:
256,192,15195,1,0,0:0:0:0:
256,192,15293,1,8,0:0:0:0:
256,192,15489,1,8,0:0:0:0:
256,192,15783,1,0,0:0:0:0:
256,192,15881,1,0,0:0:0:0:
256,192,16077,1,8,0:0:0:0:
256,192,16469,1,0,0:0:0:0:
256,192,16763,1,8,0:0:0:0:
256,192,16959,1,0,0:0:0:0:
256,192,17057,1,8,0:0:0:0:
256,192,17155,1,0,0:0:0:0:
256,192,17253,1,0,0:0:0:0:
256,192,17548,1,8,0:0:0:0:
256,192,17646,1,0,0:0:0:0:
256,192,17940,1,0,0:0:0:0:
256,192,18136,1,0,0:0:0:0:
256,192,18234,1,8,0:0:0:0:
256,192,18332,1,8,0:0:0:0:
256,192,18430,1,0,0:0:0:0:
256,192,18724,1,8,0:0:0:0:
256,192,18822,1,8,0:0:0:0:
256,192,19018,1,4,0:0:0:0:
256,192,19410,1,8,0:0:0:0:
256,192,19606,1,4,0:0:0:0:
256,192,19999,1,8,0:0:0:0:
256,192,20195,1,4,0:0:0:0:
256,192,20587,1,8,0:0:0:0:
256,192,20783,1,0,0:0:0:0:
256,192,20881,1,8,0:0:0:0:
256,192,21077,1,8,0:0:0:0:
256,192,21175,1,0,0:0:0:0:
256,192,21371,1,0,0:0:0:0:
256,192,21469,1,0,0:0:0:0:
256,192,21665,1,12,0:0:0:0:
256,192,21959,1,0,0:0:0:0:
256,192,22057,1,0,0:0:0:0:
256,192,22253,1,8,0:0:0:0:
256,192,22351,1,0,0:0:0:0:
256,192,22548,1,0,0:0:0:0:
256,192,22646,1,0,0:0:0:0:
256,192,22793,1,8,0:0:0:0:
256,192,23087,1,8,0:0:0:0:
256,192,23234,1,8,0:0:0:0:
256,192,23381,1,8,0:0:0:0:
256,192,23822,1,0,0:0:0:0:
256,192,24018,1,0,0:0:0:0:
256,192,24116,1,8,0:0:0:0:
256,192,24214,1,0,0:0:0:0:
256,192,24312,1,0,0:0:0:0:
256,192,24410,1,8,0:0:0:0:
256,192,24704,1,0,0:0:0:0:
256,192,24802,1,0,0:0:0:0:
256,192,24900,1,8,0:0:0:0:
256,192,24999,1,0,0:0:0:0:
256,192,25146,1,8,0:0:0:0:
256,192,25489,1,8,0:0:0:0:
256,192,25587,1,0,0:0:0:0:
256,192,25783,1,0,0:0:0:0:
256,192,25881,1,8,0:0:0:0:
256,192,26175,1,0,0:0:0:0:
256,192,26469,1,8,0:0:0:0:
256,192,26567,1,0,0:0:0:0:
256,192,26665,1,8,0:0:0:0:
256,192,26763,1,0,0:0:0:0:
256,192,26959,1,8,0:0:0:0:
256,192,27057,1,0,0:0:0:0:
256,192,27351,1,0,0:0:0:0:
256,192,27548,1,8,0:0:0:0:
256,192,27646,1,8,0:0:0:0:
256,192,27744,1,0,0:0:0:0:
256,192,27842,1,0,0:0:0:0:
256,192,27940,1,8,0:0:0:0:
256,192,28136,1,0,0:0:0:0:
256,192,28430,1,8,0:0:0:0:
256,192,28528,1,0,0:0:0:0:
256,192,28626,1,0,0:0:0:0:
256,192,28724,1,0,0:0:0:0:
256,192,28822,1,8,0:0:0:0:
256,192,29116,1,8,0:0:0:0:
256,192,29410,1,8,0:0:0:0:
256,192,29508,1,8,0:0:0:0:
256,192,29606,1,0,0:0:0:0:
256,192,29704,1,8,0:0:0:0:
256,192,29802,1,0,0:0:0:0:
256,192,29900,1,8,0:0:0:0:
256,192,29999,1,0,0:0:0:0:
256,192,30195,1,0,0:0:0:0:
256,192,30293,1,8,0:0:0:0:
256,192,30587,1,8,0:0:0:0:
256,192,30783,1,0,0:0:0:0:
256,192,30881,1,0,0:0:0:0:
256,192,31077,1,8,0:0:0:0:
256,192,31371,1,0,0:0:0:0:
256,192,31469,1,0,0:0:0:0:
256,192,31616,1,8,0:0:0:0:
256,192,32057,1,12,0:0:0:0:
256,192,32646,1,8,0:0:0:0:
256,192,32940,1,0,0:0:0:0:
256,192,33234,1,8,0:0:0:0:
256,192,33430,1,0,0:0:0:0:
256,192,33528,1,0,0:0:0:0:
256,192,33724,1,8,0:0:0:0:
256,192,33822,1,0,0:0:0:0:
256,192,34116,1,8,0:0:0:0:
256,192,34214,1,0,0:0:0:0:
256,192,34312,1,0,0:0:0:0:
256,192,34410,1,8,0:0:0:0:
256,192,34606,1,0,0:0:0:0:
256,192,34999,1,8,0:0:0:0:
256,192,36175,1,4,0:0:0:0:
256,192,37204,1,4,0:0:0:0:
256,192,37646,1,12,0:0:0:0:
256,192,37842,1,0,0:0:0:0:
256,192,37940,1,0,0:0:0:0:
256,192,38136,1,12,0:0:0:0:
256,192,38430,1,0,0:0:0:0:
256,192,38528,1,0,0:0:0:0:
256,192,38724,1,12,0:0:0:0:
256,192,39018,1,0,0:0:0:0:
256,192,39116,1,0,0:0:0:0:
256,192,39312,1,12,0:0:0:0:
256,192,39606,1,0,0:0:0:0:
256,192,39704,1,8,0:0:0:0:
256,192,39802,1,0,0:0:0:0:
256,192,39900,1,8,0:0:0:0:
256,192,40146,1,4,0:0:0:0:
256,192,40391,1,4,0:0:0:0:
256,192,40587,1,4,0:0:0:0:
256,192,40783,1,4,0:0:0:0:
256,192,40979,1,4,0:0:0:0:
256,192,41175,1,4,0:0:0:0:
256,192,41469,1,8,0:0:0:0:
256,192,41763,1,8,0:0:0:0:
256,192,41959,1,8,0:0:0:0:
256,192,42253,1,8,0:0:0:0:
256,192,42351,1,0,0:0:0:0:
256,192,42646,1,12,0:0:0:0:
256,192,42842,1,0,0:0:0:0:
256,192,42940,1,8,0:0:0:0:
256,192,43038,1,8,0:0:0:0:
256,192,43136,1,8,0:0:0:0:
256,192,43234,1,0,0:0:0:0:
256,192,43430,1,8,0:0:0:0:
256,192,43528,1,0,0:0:0:0:
256,192,43822,1,8,0:0:0:0:
256,192,44018,1,0,0:0:0:0:
256,192,44116,1,8,0:0:0:0:
256,192,44214,1,0,0:0:0:0:
256,192,44312,1,0,0:0:0:0:
256,192,44410,1,8,0:0:0:0:
256,192,44606,1,8,0:0:0:0:
256,192,44900,1,0,0:0:0:0:
256,192,44999,1,8,0:0:0:0:
256,192,45195,1,8,0:0:0:0:
256,192,45293,1,8,0:0:0:0:
256,192,45391,1,0,0:0:0:0:
256,192,45489,1,8,0:0:0:0:
256,192,45587,1,0,0:0:0:0:
256,192,45783,1,8,0:0:0:0:
256,192,45881,1,8,0:0:0:0:
256,192,45979,1,0,0:0:0:0:
256,192,46077,1,0,0:0:0:0:
256,192,46175,1,0,0:0:0:0:
256,192,46469,1,8,0:0:0:0:
256,192,46567,1,8,0:0:0:0:
256,192,46665,1,0,0:0:0:0:
256,192,46763,1,8,0:0:0:0:
256,192,46959,1,0,0:0:0:0:
256,192,47253,1,8,0:0:0:0:
256,192,47351,1,8,0:0:0:0:
256,192,47548,1,0,0:0:0:0:
256,192,47646,1,8,0:0:0:0:
256,192,47744,1,0,0:0:0:0:
256,192,47842,1,8,0:0:0:0:
256,192,47940,1,0,0:0:0:0:
256,192,48136,1,8,0:0:0:0:
256,192,48430,1,0,0:0:0:0:
256,192,48528,1,8,0:0:0:0:
256,192,48626,1,8,0:0:0:0:
256,192,48724,1,0,0:0:0:0:
256,192,48822,1,8,0:0:0:0:
256,192,48920,1,0,0:0:0:0:
256,192,49018,1,0,0:0:0:0:
256,192,49116,1,8,0:0:0:0:
256,192,49312,1,8,0:0:0:0:
256,192,49410,1,0,0:0:0:0:
256,192,49606,1,4,0:0:0:0:
256,192,49900,1,4,0:0:0:0:
256,192,50195,1,4,0:0:0:0:
256,192,50489,1,4,0:0:0:0:
256,192,50783,1,0,0:0:0:0:
256,192,50881,1,8,0:0:0:0:
256,192,50979,1,0,0:0:0:0:
256,192,51077,1,8,0:0:0:0:
256,192,51175,1,0,0:0:0:0:
256,192,51371,1,12,0:0:0:0:
256,192,51616,1,12,0:0:0:0:
256,192,51959,1,0,0:0:0:0:
256,192,52057,1,8,0:0:0:0:
256,192,52253,1,0,0:0:0:0:
256,192,52351,1,8,0:0:0:0:
256,192,52449,1,0,0:0:0:0:
256,192,52548,1,0,0:0:0:0:
256,192,52646,1,8,0:0:0:0:
256,192,52842,1,8,0:0:0:0:
256,192,53136,1,8,0:0:0:0:
256,192,53234,1,0,0:0:0:0:
256,192,53430,1,0,0:0:0:0:
256,192,53528,1,8,0:0:0:0:
256,192,53626,1,0,0:0:0:0:
256,192,53724,1,8,0:0:0:0:
256,192,53822,1,8,0:0:0:0:
256,192,54018,1,8,0:0:0:0:
256,192,54116,1,8,0:0:0:0:
256,192,54214,1,0,0:0:0:0:
256,192,54312,1,0,0:0:0:0:
256,192,54410,1,8,0:0:0:0:
256,192,54606,1,0,0:0:0:0:
256,192,54704,1,8,0:0:0:0:
256,192,54802,1,0,0:0:0:0:
256,192,54900,1,8,0:0:0:0:
256,192,54999,1,8,0:0:0:0:
256,192,55097,1,0,0:0:0:0:
256,192,55195,1,8,0:0:0:0:
256,192,55293,1,0,0:0:0:0:
256,192,55489,1,0,0:0:0:0:
256,192,55587,1,0,0:0:0:0:
256,192,55783,1,8,0:0:0:0:
256,192,56077,1,8,0:0:0:0:
256,192,56175,1,8,0:0:0:0:
256,192,56469,1,4,0:0:0:0:
256,192,56763,1,8,0:0:0:0:
256,192,56959,1,0,0:0:0:0:
256,192,57253,1,8,0:0:0:0:
256,192,57351,1,0,0:0:0:0:
256,192,57646,1,8,0:0:0:0:
256,192,57842,1,0,0:0:0:0:
256,192,57940,1,0,0:0:0:0:
256,192,58234,1,8,0:0:0:0:
256,192,58332,1,0,0:0:0:0:
256,192,58430,1,0,0:0:0:0:
256,192,58528,1,8,0:0:0:0:
256,192,58822,1,0,0:0:0:0:
256,192,59018,1,0,0:0:0:0:
256,192,59116,1,8,0:0:0:0:
256,192,59410,1,0,0:0:0:0:
256,192,59704,1,8,0:0:0:0:
256,192,59802,1,0,0:0:0:0:
256,192,59900,1,8,0:0:0:0:
256,192,59999,1,8,0:0:0:0:
256,192,60293,1,0,0:0:0:0:
256,192,60489,1,0,0:0:0:0:
256,192,60587,1,0,0:0:0:0:
256,192,60783,1,12,0:0:0:0:
256,192,61077,1,12,0:0:0:0:
256,192,61469,1,8,0:0:0:0:
256,192,61665,1,0,0:0:0:0:
256,192,61763,1,8,0:0:0:0:
256,192,61861,1,8,0:0:0:0:
256,192,61959,1,8,0:0:0:0:
256,192,62057,1,0,0:0:0:0:
256,192,62253,1,8,0:0:0:0:
256,192,62548,1,0,0:0:0:0:
256,192,62646,1,0,0:0:0:0:
256,192,62744,1,8,0:0:0:0:
256,192,62842,1,0,0:0:0:0:
256,192,62940,1,8,0:0:0:0:
256,192,63136,1,8,0:0:0:0:
256,192,63234,1,0,0:0:0:0:
256,192,63430,1,8,0:0:0:0:
256,192,63724,1,8,0:0:0:0:
256,192,63822,1,0,0:0:0:0:
256,192,63920,1,0,0:0:0:0:
256,192,64018,1,0,0:0:0:0:
256,192,64116,1,8,0:0:0:0:
256,192,64312,1,0,0:0:0:0:
256,192,64410,1,8,0:0:0:0:
256,192,64606,1,8,0:0:0:0:
256,192,64900,1,0,0:0:0:0:
256,192,64999,1,8,0:0:0:0:
256,192,65195,1,0,0:0:0:0:
256,192,65293,1,0,0:0:0:0:
256,192,65391,1,8,0:0:0:0:
256,192,65489,1,0,0:0:0:0:
256,192,65587,1,0,0:0:0:0:
256,192,65783,1,8,0:0:0:0:
256,192,66077,1,8,0:0:0:0:
256,192,66175,1,0,0:0:0:0:
256,192,66371,1,0,0:0:0:0:
256,192,66469,1,0,0:0:0:0:
256,192,66567,1,0,0:0:0:0:
256,192,66665,1,8,0:0:0:0:
256,192,66763,1,8,0:0:0:0:
256,192,66959,1,8,0:0:0:0:
256,192,67253,1,0,0:0:0:0:
256,192,67351,1,8,0:0:0:0:
256,192,67548,1,0,0:0:0:0:
256,192,67646,1,0,0:0:0:0:
256,192,67940,1,8,0:0:0:0:
256,192,68234,1,12,0:0:0:0:
256,192,68430,1,12,0:0:0:0:
256,192,68749,1,12,0:0:0:0:
256,192,69018,1,12,0:0:0:0:
256,192,69312,1,12,0:0:0:0:
256,192,69606,1,8,0:0:0:0:
256,192,69704,5,0,0:0:0:0:
256,192,69900,5,8,0:0:0:0:
256,192,69999,1,8,0:0:0:0:
256,192,70195,5,4,0:0:0:0:
256,192,70489,5,8,0:0:0:0:
256,192,70881,5,12,0:0:0:0:
256,192,71077,1,0,0:0:0:0:
256,192,71175,1,8,0:0:0:0:
256,192,71273,1,0,0:0:0:0:
256,192,71371,1,8,0:0:0:0:
256,192,71469,1,0,0:0:0:0:
256,192,71665,1,8,0:0:0:0:
256,192,71959,1,0,0:0:0:0:
256,192,72057,1,0,0:0:0:0:
256,192,72253,1,8,0:0:0:0:
256,192,72351,1,8,0:0:0:0:
256,192,72449,1,0,0:0:0:0:
256,192,72548,1,8,0:0:0:0:
256,192,72842,1,0,0:0:0:0:
256,192,72940,1,8,0:0:0:0:
256,192,73234,1,8,0:0:0:0:
256,192,73430,1,8,0:0:0:0:
256,192,73528,1,0,0:0:0:0:
256,192,73724,1,8,0:0:0:0:
256,192,73822,1,8,0:0:0:0:
256,192,73920,1,0,0:0:0:0:
256,192,74018,1,0,0:0:0:0:
256,192,74116,1,8,0:0:0:0:
256,192,74312,1,8,0:0:0:0:
256,192,74410,1,0,0:0:0:0:
256,192,74606,1,8,0:0:0:0:
256,192,74900,1,0,0:0:0:0:
256,192,74999,1,0,0:0:0:0:
256,192,75293,1,12,0:0:0:0:
256,192,75587,1,0,0:0:0:0:
256,192,75783,1,8,0:0:0:0:
256,192,75881,1,0,0:0:0:0:
256,192,75979,1,0,0:0:0:0:
256,192,76077,1,8,0:0:0:0:
256,192,76175,1,0,0:0:0:0:
256,192,76371,1,8,0:0:0:0:
256,192,76469,1,0,0:0:0:0:
256,192,76763,1,0,0:0:0:0:
256,192,76959,1,0,0:0:0:0:
256,192,77057,1,8,0:0:0:0:
256,192,77155,1,0,0:0:0:0:
256,192,77253,1,8,0:0:0:0:
256,192,77351,1,8,0:0:0:0:
256,192,77646,1,8,0:0:0:0:
256,192,77940,1,8,0:0:0:0:
256,192,78136,1,0,0:0:0:0:
256,192,78234,1,0,0:0:0:0:
256,192,78430,1,8,0:0:0:0:
256,192,78724,1,8,0:0:0:0:
256,192,78822,1,0,0:0:0:0:
256,192,78920,1,0,0:0:0:0:
256,192,79018,1,0,0:0:0:0:
256,192,79116,1,8,0:0:0:0:
256,192,79410,1,8,0:0:0:0:
256,192,79606,1,0,0:0:0:0:
256,192,79704,1,0,0:0:0:0:
256,192,79999,1,8,0:0:0:0:
256,192,80195,1,0,0:0:0:0:
256,192,80293,1,8,0:0:0:0:
256,192,80391,1,0,0:0:0:0:
256,192,80489,1,0,0:0:0:0:
256,192,80587,1,8,0:0:0:0:
256,192,80881,1,0,0:0:0:0:
256,192,81175,1,8,0:0:0:0:
256,192,81371,1,0,0:0:0:0:
256,192,81469,1,8,0:0:0:0:
256,192,81567,1,0,0:0:0:0:
256,192,81665,1,8,0:0:0:0:
256,192,81763,1,8,0:0:0:0:
256,192,82057,1,8,0:0:0:0:
256,192,82155,1,0,0:0:0:0:
256,192,82253,1,0,0:0:0:0:
256,192,82351,5,8,0:0:0:0:
256,192,82548,1,4,0:0:0:0:
256,192,82940,1,4,0:0:0:0:
256,192,83381,1,4,0:0:0:0:
256,192,83969,1,12,0:0:0:0:
256,192,84116,8,0,85734,0:0:0:0:
256,192,85881,5,0,0:0:0:0:
256,192,86175,1,8,0:0:0:0:
256,192,86322,1,0,0:0:0:0:
256,192,86616,1,0,0:0:0:0:
256,192,86763,1,8,0:0:0:0:
256,192,86910,1,0,0:0:0:0:
256,192,87057,1,0,0:0:0:0:
256,192,87351,1,8,0:0:0:0:
256,192,87499,1,0,0:0:0:0:
256,192,87793,1,0,0:0:0:0:
256,192,87940,1,8,0:0:0:0:
256,192,88087,1,0,0:0:0:0:
256,192,88234,1,8,0:0:0:0:
256,192,88528,1,8,0:0:0:0:
256,192,88675,1,0,0:0:0:0:
256,192,88969,1,0,0:0:0:0:
256,192,89116,1,8,0:0:0:0:
256,192,89263,1,0,0:0:0:0:
256,192,89704,1,8,0:0:0:0:
256,192,89999,1,0,0:0:0:0:
256,192,90293,1,8,0:0:0:0:
256,192,90587,1,0,0:0:0:0:
256,192,90881,1,8,0:0:0:0:
256,192,91028,1,8,0:0:0:0:
256,192,91322,1,0,0:0:0:0:
256,192,91469,1,8,0:0:0:0:
256,192,91616,1,8,0:0:0:0:
256,192,91763,1,0,0:0:0:0:
256,192,92057,1,8,0:0:0:0:
256,192,92204,1,0,0:0:0:0:
256,192,92499,1,0,0:0:0:0:
256,192,92646,1,8,0:0:0:0:
256,192,92793,1,0,0:0:0:0:
256,192,92940,1,8,0:0:0:0:
256,192,93234,1,8,0:0:0:0:
256,192,93381,1,8,0:0:0:0:
256,192,93675,1,8,0:0:0:0:
256,192,93822,1,8,0:0:0:0:
256,192,93969,1,8,0:0:0:0:
256,192,94116,1,0,0:0:0:0:
256,192,94410,1,8,0:0:0:0:
256,192,94704,1,0,0:0:0:0:
256,192,94999,1,8,0:0:0:0:
256,192,95293,1,12,0:0:0:0:
256,192,95587,1,8,0:0:0:0:
256,192,95734,1,8,0:0:0:0:
256,192,95881,1,0,0:0:0:0:
256,192,96028,1,0,0:0:0:0:
256,192,96175,1,8,0:0:0:0:
256,192,96322,1,0,0:0:0:0:
256,192,96469,1,0,0:0:0:0:
256,192,96763,1,8,0:0:0:0:
256,192,96910,1,8,0:0:0:0:
256,192,97204,1,0,0:0:0:0:
256,192,97351,1,8,0:0:0:0:
256,192,97499,1,0,0:0:0:0:
256,192,97646,1,8,0:0:0:0:
256,192,97793,1,8,0:0:0:0:
256,192,97940,1,0,0:0:0:0:
256,192,98087,1,0,0:0:0:0:
256,192,98381,1,0,0:0:0:0:
256,192,98528,1,8,0:0:0:0:
256,192,98675,1,8,0:0:0:0:
256,192,98822,1,0,0:0:0:0:
256,192,98969,1,8,0:0:0:0:
256,192,99116,1,0,0:0:0:0:
256,192,99410,1,8,0:0:0:0:
256,192,99631,1,0,0:0:0:0:
256,192,99704,1,8,0:0:0:0:
256,192,99925,1,8,0:0:0:0:
256,192,99999,1,0,0:0:0:0:
256,192,100293,1,8,0:0:0:0:
256,192,100440,1,8,0:0:0:0:
256,192,100587,1,0,0:0:0:0:
256,192,100734,1,0,0:0:0:0:
256,192,100881,1,8,0:0:0:0:
256,192,101028,1,0,0:0:0:0:
256,192,101175,1,0,0:0:0:0:
256,192,101469,1,8,0:0:0:0:
256,192,101616,1,8,0:0:0:0:
256,192,101763,1,0,0:0:0:0:
256,192,101910,1,0,0:0:0:0:
256,192,102057,1,8,0:0:0:0:
256,192,102204,1,8,0:0:0:0:
256,192,102351,1,8,0:0:0:0:
256,192,102646,1,8,0:0:0:0:
256,192,102793,1,0,0:0:0:0:
256,192,102940,1,0,0:0:0:0:
256,192,103087,1,0,0:0:0:0:
256,192,103234,1,8,0:0:0:0:
256,192,103381,1,8,0:0:0:0:
256,192,103528,1,0,0:0:0:0:
256,192,103724,1,0,0:0:0:0:
256,192,103822,1,8,0:0:0:0:
256,192,103920,1,0,0:0:0:0:
256,192,104018,1,8,0:0:0:0:
256,192,104116,1,8,0:0:0:0:
256,192,104263,1,4,0:0:0:0:
256,192,104704,1,12,0:0:0:0:
256,192,105195,1,0,0:0:0:0:
256,192,105587,1,8,0:0:0:0:
256,192,105881,1,0,0:0:0:0:
256,192,106077,1,8,0:0:0:0:
256,192,106322,1,0,0:0:0:0:
256,192,106396,1,0,0:0:0:0:
256,192,106469,1,8,0:0:0:0:
256,192,106763,1,0,0:0:0:0:
256,192,107057,1,8,0:0:0:0:
256,192,107548,1,8,0:0:0:0:
256,192,107646,1,8,0:0:0:0:
256,192,107842,1,8,0:0:0:0:
256,192,108136,1,8,0:0:0:0:
256,192,108430,1,8,0:0:0:0:
256,192,108528,1,8,0:0:0:0:
256,192,109410,1,4,0:0:0:0:
256,192,109557,8,0,111837,0:0:0:0:
