osu file format v14

[General]
AudioFilename: The Super Mario Players feat.Kate Davis - Jump Up, Super Star! (Short ver.).mp3
AudioLeadIn: 0
PreviewTime: 41418
Countdown: 0
SampleSet: None
StackLeniency: 0.7
Mode: 0
LetterboxInBreaks: 0
EpilepsyWarning: 1
WidescreenStoryboard: 1

[Editor]
Bookmarks: 1173,111834
DistanceSpacing: 0.8
BeatDivisor: 4
GridSize: 4
TimelineZoom: 2

[Metadata]
Title:Jump Up, Super Star! (Short ver.)
TitleUnicode:Jump Up, Super Star! (Short ver.)
Artist:The Super Mario Players feat.Kate Davis
ArtistUnicode:The Super Mario Players feat.Kate Davis
Creator:Gero
Version:Second Kingdom
Source:スーパーマリオ オデッセイ
Tags:ODYSSEY Jazz Broadway Mahito Yokota 1-UP Girl E3 Nintendo Cappy Pauline TV Size Version
BeatmapID:1459358
BeatmapSetID:653168

[Difficulty]
HPDrainRate:4
CircleSize:4
OverallDifficulty:4
ApproachRate:5
SliderMultiplier:1.2
SliderTickRate:1

[Events]
//Background and Video events
0,0,"BG.jpg",0,0
Video,0,"Video.avi"
//Break Periods
//Storyboard Layer 0 (Background)
//Storyboard Layer 1 (Fail)
//Storyboard Layer 2 (Pass)
//Storyboard Layer 3 (Foreground)
//Storyboard Sound Samples

[TimingPoints]
1173,294.117647058824,4,3,1,50,1,0
11369,-100,4,2,1,30,0,0
11761,-100,4,3,1,50,0,0
12251,-100,4,3,1,50,0,0
12545,-100,4,2,1,40,0,0
12937,-100,4,3,1,50,0,0
13427,-100,4,3,1,50,0,0
13722,-100,4,3,1,50,0,0
32055,-100,4,3,1,50,0,0
32937,-100,4,3,1,50,0,0
35290,-100,4,2,1,30,0,0
35315,-100,4,2,1,5,0,0
36074,-100,4,2,1,30,0,0
36173,-100,4,3,1,50,0,0
36467,-100,4,2,1,30,0,0
36491,-100,4,2,1,5,0,0
37104,-100,4,2,1,30,0,0
37202,-100,4,3,1,50,0,0
37643,-100,4,3,1,50,0,0
41467,-100,4,3,1,40,0,0
42202,-100,4,3,1,50,0,1
54408,-100,4,3,1,50,0,1
54702,-100,4,3,1,50,0,1
54996,-100,4,3,1,50,0,1
55290,-100,4,3,1,50,0,1
56418,-100,4,3,1,50,0,0
56467,-100,4,3,1,50,0,1
75241,-100,4,3,1,50,0,0
75290,-100,4,3,1,50,0,1
79947,-100,4,3,1,50,0,0
79996,-100,4,3,1,50,0,1
85878,-100,4,3,1,50,0,0
102349,-100,4,3,1,50,0,0
103084,-100,4,3,1,50,0,0
103525,-100,4,3,1,50,0,0
109408,-100,4,3,1,50,0,0
109432,-100,4,3,1,5,0,0
111614,-100,4,3,1,50,0,0

[Colours]
Combo1 : 237,188,41
Combo2 : 248,71,71
Combo3 : 68,189,210
Combo4 : 101,203,75
SliderBorder : 255,21,21
SliderTrackOverride : 0,0,0

[HitObjects]
372,248,1173,6,0,P|391:192|372:136,1,120,4|0,1:0|1:0,0:0:0:0:
304,68,1761,1,2,0:0:0:0:
208,68,2055,1,0,1:0:0:0:
140,136,2349,2,0,P|121:192|140:248,1,120,2|0,0:0|1:0,0:0:0:0:
208,316,2937,1,2,0:0:0:0:
304,316,3231,1,0,1:0:0:0:
372,248,3525,6,0,L|456:163,1,120,2|0,0:0|1:0,0:0:0:0:
388,95,4114,2,0,L|303:179,1,120,2|0,0:0|1:0,0:0:0:0:
208,179,4702,2,0,L|124:95,1,120,2|0,0:0|1:0,0:0:0:0:
55,163,5290,2,0,L|140:248,1,120,2|0,0:0|1:0,0:0:0:0:
208,316,5878,6,0,B|240:324|256:349|256:349|272:324|304:316,1,120,2|0,0:0|1:0,0:0:0:0:
372,248,6467,2,0,B|388:216|360:179|324:179|324:179|304:179,1,120,2|0,0:0|1:0,0:0:0:0:
207,179,7055,2,0,B|188:179|188:179|152:179|124:216|140:248,1,120,2|0,0:0|1:0,0:0:0:0:
208,316,7643,6,0,B|228:336|228:336|228:367,1,60,2|0,0:0|1:0,0:0:0:0:
284,367,7937,2,0,B|284:336|284:336|304:316,1,60,0|4,1:0|1:0,0:0:0:0:
256,232,8378,2,0,L|256:52,1,180,4|4,1:0|1:0,0:0:0:0:
372,128,9261,2,0,P|373:336|140:128,1,720,4|4,1:0|1:0,0:0:0:0:
372,56,11761,6,0,B|400:46|400:46|428:56,2,60,0|0|0,1:0|1:0|1:0,0:0:0:0:
315,136,12275,2,2,L|255:273,1,150,6|2,1:0|0:0,1:0:0:0:
140,328,12937,2,0,B|112:338|112:338|84:328,2,60,0|0|0,1:0|0:0|1:0,0:0:0:0:
197,248,13452,2,2,L|256:110,1,150,6|0,1:0|1:0,1:0:0:0:
372,56,14114,6,0,B|432:56|432:56|474:98,1,120,4|0,3:0|1:0,0:0:0:0:
392,148,14702,1,4,3:0:0:0:
392,236,14996,1,2,1:0:0:0:
474,285,15290,2,0,B|432:328|432:328|372:328,1,120,4|0,3:0|1:0,0:0:0:0:
292,380,15878,2,0,B|256:332|256:332|220:380,1,120,4|0,3:0|1:0,0:0:0:0:
140,328,16467,6,0,B|80:328|80:328|38:286,1,120,4|0,3:0|1:0,0:0:0:0:
120,236,17055,1,4,3:0:0:0:
120,148,17349,1,0,1:0:0:0:
38,99,17643,2,0,B|80:56|80:56|140:56,1,120,4|0,0:0|1:0,0:0:0:0:
220,4,18231,2,0,B|256:52|256:52|292:4,1,120,4|4,0:0|1:2,0:0:0:0:
316,48,18673,1,4,0:0:0:0:
362,165,19040,6,2,P|361:284|291:379,1,240,6|6,1:0|1:0,1:0:0:0:
150,218,20217,2,2,P|150:99|220:4,1,240,6|6,1:0|1:0,1:0:0:0:
256,92,21099,6,0,P|328:74|400:92,1,150,4|0,0:0|1:0,0:0:0:0:
434,126,21614,1,6,1:0:0:0:
256,292,22275,2,0,P|184:310|112:292,1,150,4|2,0:0|0:0,0:0:0:0:
78,258,22790,1,6,1:0:0:0:
8,192,23084,2,2,L|50:149,1,60,6|0,1:0|0:0,1:0:0:0:
16,115,23378,6,2,B|42:44|112:44|112:44|163:44,1,180,6|0,1:0|1:0,1:0:0:0:
256,76,24114,1,4,0:0:0:0:
348,44,24408,1,0,1:0:0:0:
441,76,24702,2,0,L|356:160,1,120,2|0,0:1|1:0,0:0:0:0:
392,193,25143,2,0,P|317:151|242:193,1,180,2|2,0:1|1:0,0:0:0:0:
173,261,25878,5,4,0:0:0:0:
241,328,26173,1,0,1:0:0:0:
173,261,26467,2,0,B|133:241|133:241|93:261,1,90,4|0,0:0|1:0,0:0:0:0:
28,192,26981,2,0,P|5:122|28:52,1,150,2|0,0:1|1:0,0:0:0:0:
92,122,27644,1,4,0:0:0:0:
156,52,27937,5,0,1:0:0:0:
156,52,28084,2,0,B|207:52|207:52|277:52|303:123,1,180,0|0,0:0|1:0,0:0:0:0:
368,192,28820,1,2,0:1:0:0:
433,124,29114,1,2,1:0:0:0:
498,192,29408,2,0,B|506:221|506:221|498:250,2,60,2|2|2,0:1|0:1|1:0,0:0:0:0:
433,124,29996,2,0,B|425:95|425:95|433:66,2,60,0|0|0,1:0|1:0|1:0,0:0:0:0:
368,192,30584,6,0,L|325:234,1,60,4|0,1:2|0:0,0:0:0:0:
359,268,30878,1,4,0:0:0:0:
393,302,31025,2,0,B|352:343|352:343|289:343,1,120,4|0,1:2|0:0,0:0:0:0:
256,308,31467,1,4,0:0:0:0:
222,343,31614,2,0,B|160:343|160:343|119:302,1,120,4|0,0:0|0:0,0:0:0:0:
153,268,32055,2,0,P|256:216|360:268,1,240,4|4,1:0|1:0,0:0:0:0:
416,192,32937,5,4,0:0:0:0:
359,116,33231,2,0,B|280:116|280:116|271:120|271:120|263:124|263:124|180:124,1,180,2|0,1:0|0:0,0:0:0:0:
132,124,33820,1,0,1:0:0:0:
64,192,34114,2,0,B|52:148|9:124|9:124|52:100|64:56,2,180,2|2|0,0:1|0:1|1:0,0:0:0:0:
132,260,35290,6,0,B|200:304|300:288|324:216|256:168|188:216|212:288|312:304|380:260,1,360,2|4,0:0|1:0,0:0:0:0:
448,192,36467,2,0,B|505:104|505:104|448:16,1,210,2|0,0:0|0:0,0:0:0:0:
396,66,37202,2,0,B|340:43|340:43|284:66,1,120,4|0,1:0|0:0,0:0:0:0:
256,28,37643,6,0,P|145:191|256:356,2,420,6|6|4,1:0|1:0|0:0,0:0:0:0:
256,192,39996,12,6,41173,1:0:0:0:
182,131,42202,6,0,B|204:92|236:92|236:92|276:92|276:92|308:92|330:131,1,180,4|2,1:2|1:2,0:0:0:0:
296,220,42937,2,0,B|268:208|256:178|256:178|244:208|216:220,1,120,4|2,3:0|1:2,0:0:0:0:
182,253,43378,2,0,P|256:296|330:253,1,180,4|2,1:2|1:2,0:0:0:0:
404,192,44114,1,4,3:0:0:0:
404,192,44261,1,4,0:0:0:0:
477,131,44555,6,0,B|412:67|412:67|323:67,1,180,4|2,1:2|1:2,0:0:0:0:
256,136,45290,2,0,P|200:117|144:136,1,120,4|2,0:0|1:2,0:0:0:0:
110,101,45731,2,0,L|237:228,1,180,4|2,1:2|1:2,0:0:0:0:
169,296,46467,1,4,0:0:0:0:
169,296,46614,1,4,0:0:0:0:
238,364,46908,6,0,B|280:339|320:360|324:364|328:368|368:389|410:364,1,180,4|2,1:2|1:2,0:0:0:0:
479,296,47643,2,0,B|463:267|479:239|479:239|463:211|479:182,1,120,4|2,0:0|1:2,0:0:0:0:
512,147,48084,2,0,B|469:174|427:149|427:149|385:174|342:147,1,180,4|2,1:2|1:2,0:0:0:0:
256,108,48820,1,4,0:0:0:0:
169,147,49114,5,2,1:2:0:0:
169,147,49261,2,0,P|343:354|343:147,1,660,4|2,1:2|1:2,0:0:0:0:
256,108,51173,1,2,1:2:0:0:
256,108,51320,1,2,1:2:0:0:
343,69,51614,6,0,B|256:46|256:46|169:69,1,180,4|2,1:2|1:2,0:0:0:0:
82,108,52349,1,4,0:0:0:0:
169,147,52643,1,2,1:2:0:0:
169,147,52790,2,0,P|146:233|169:319,1,180,4|2,1:2|1:2,0:0:0:0:
256,276,53525,1,4,0:0:0:0:
343,318,53820,1,2,1:2:0:0:
430,275,54114,6,0,B|463:241|463:241|466:233|466:233|471:238|471:238|474:230|474:230|507:197,1,120,4|2,1:2|1:2,0:0:0:0:
420,160,54702,2,0,B|453:126|453:126|456:118|456:118|461:123|461:123|464:115|464:115|497:82,1,120,4|2,0:0|1:2,0:0:0:0:
416,40,55290,2,0,P|360:21|304:40,1,120,4|2,1:2|1:2,0:0:0:0:
304,87,55731,2,0,P|332:171|304:255,1,180,4|2,1:2|1:2,0:0:0:0:
207,254,56467,6,0,P|180:170|208:87,2,180,4|4|2,1:2|0:0|1:2,0:0:0:0:
256,336,57643,1,4,1:2:0:0:
384,192,58231,1,4,0:0:0:0:
256,48,58820,2,0,B|320:164|224:316|144:288|30:192|144:96|224:68|320:220|256:336,1,600,4|2,1:2|1:2,0:0:0:0:
351,336,60584,1,2,1:2:0:0:
351,336,60731,1,2,1:2:0:0:
446,336,61025,6,0,L|512:168,1,180,4|2,1:2|1:2,0:0:0:0:
443,100,61761,2,0,P|388:79|333:100,1,120,4|2,0:0|1:2,0:0:0:0:
299,65,62202,2,0,B|242:65|200:116|200:116|135:116,1,180,4|2,1:2|1:2,0:0:0:0:
76,192,62937,1,4,0:0:0:0:
76,192,63084,1,4,0:0:0:0:
15,267,63378,6,0,P|70:335|157:335,1,180,4|2,1:2|1:2,0:0:0:0:
228,268,64114,2,0,B|248:248|256:216|256:216|264:248|284:268,1,120,4|2,0:0|1:2,0:0:0:0:
256,308,64555,2,0,L|256:128,1,180,4|2,1:2|1:2,0:0:0:0:
340,80,65290,1,4,0:0:0:0:
340,80,65437,1,4,0:0:0:0:
424,32,65731,6,0,B|448:32|448:32|496:32|528:72|528:120|508:144,1,180,4|2,1:2|1:2,0:0:0:0:
508,240,66467,2,0,B|528:264|528:312|496:352|448:352|448:352|424:352,2,180,4|4|2,0:0|1:2|1:2,0:0:0:0:
424,192,67643,1,4,0:0:0:0:
340,240,67937,1,2,1:2:0:0:
256,192,68231,6,0,L|136:192,2,120,4|2|4,0:0|1:2|0:0,0:0:0:0:
340,144,69114,1,2,1:2:0:0:
256,96,69408,1,0,0:0:0:0:
340,48,69702,2,0,B|400:48|400:48|444:88,1,120,6|4,1:2|0:0,0:0:0:0:
480,120,70143,1,4,1:2:0:0:
424,191,70437,6,0,P|357:251|335:337,1,180,4|2,1:2|1:2,0:0:0:0:
256,276,71173,2,0,L|256:96,2,180,4|4|2,0:0|1:2|1:2,0:0:0:0:
177,335,72349,1,4,0:0:0:0:
98,276,72643,1,2,1:2:0:0:
19,216,72937,6,0,P|49:166|104:144,1,120,4|2,1:2|1:2,0:0:0:0:
200,144,73525,2,0,P|256:163|312:144,1,120,4|2,0:0|1:2,0:0:0:0:
407,144,74114,2,0,P|462:166|492:216,1,120,4|2,1:2|1:2,0:0:0:0:
459,250,74555,2,0,B|403:305|403:305|393:309|393:309|385:312|385:312|326:370,1,180,4|2,1:2|1:2,0:0:0:0:
256,308,75290,5,4,1:2:0:0:
184,245,75584,2,0,P|256:199|328:245,1,180,2|0,1:2|0:0,0:0:0:0:
364,276,76173,1,2,1:2:0:0:
406,191,76467,2,0,P|367:146|314:120,1,120,4|2,0:0|1:2,0:0:0:0:
256,44,77055,1,4,0:0:0:0:
197,120,77349,2,0,B|169:131|169:131|141:120,1,60,2|0,1:2|0:0,0:0:0:0:
96,104,77643,5,4,1:2:0:0:
56,192,77937,2,0,B|89:225|87:273|87:273|135:271|169:305,1,180,2|0,1:2|0:0,0:0:0:0:
256,344,78673,1,0,0:0:0:0:
256,344,78820,1,4,0:0:0:0:
343,305,79114,2,0,B|387:250|351:196|347:192|343:188|307:134|343:79,1,240,2|2,1:2|1:2,0:0:0:0:
422,130,79996,5,4,1:2:0:0:
501,79,80290,2,0,L|266:26,1,240,2|2,1:2|1:2,0:0:0:0:
240,120,81173,2,0,L|64:80,1,180,4|8,1:2|0:0,0:0:0:0:
28,48,81761,2,0,P|46:104|28:160,1,120,8|4,0:0|0:0,0:0:0:0:
64,192,82202,1,4,0:0:0:0:
131,259,82496,6,0,B|81:270|69:317|69:317|22:329|10:379,2,180,4|4|4,1:2|1:2|1:2,0:0:0:0:
198,192,83673,1,4,0:0:0:0:
198,192,83820,1,4,0:0:0:0:
198,192,83967,2,0,P|256:135|314:192,1,180,4|8,1:2|0:0,0:0:0:0:
368,112,84702,6,0,L|368:52,2,60,4|0|0,0:0|1:0|1:0,0:0:0:0:
402,146,85143,1,0,1:0:0:0:
436,112,85290,2,0,L|436:52,2,60,0|0|0,1:0|1:0|1:0,0:0:0:0:
491,192,85878,5,6,1:0:0:0:
436,272,86173,2,0,B|376:272|376:272|333:314,1,120,0|4,1:0|0:0,0:0:0:0:
256,256,86761,1,2,1:0:0:0:
178,314,87055,2,0,B|136:272|136:272|76:272,1,120,2|0,0:1|1:0,0:0:0:0:
21,192,87643,1,4,0:0:0:0:
76,112,87937,1,2,1:0:0:0:
131,192,88231,5,2,0:1:0:0:
186,112,88525,2,0,B|192:44|256:24|256:24|320:44|326:112,1,240,2|2,1:0|1:0,0:0:0:0:
381,192,89408,1,4,0:0:0:0:
326,272,89702,2,0,B|320:340|256:360|256:360|192:340|186:272,1,240,0|0,1:0|1:0,0:0:0:0:
131,192,90584,5,2,0:1:0:0:
76,112,90878,2,0,P|131:91|186:112,1,120,0|4,1:0|0:0,0:0:0:0:
256,44,91467,1,2,1:0:0:0:
326,112,91761,2,0,P|381:91|436:112,1,120,2|0,0:1|1:0,0:0:0:0:
381,192,92349,1,4,0:0:0:0:
436,272,92643,1,2,1:0:0:0:
491,192,92937,5,2,0:1:0:0:
436,272,93231,2,0,P|381:293|326:272,1,120,2|4,1:0|0:0,0:0:0:0:
256,340,93820,1,2,1:0:0:0:
186,272,94114,1,4,0:0:0:0:
256,204,94408,2,0,B|206:180|186:110|186:110|166:180|116:204,1,240,0|0,1:0|1:0,0:0:0:0:
47,135,95290,5,6,1:0:0:0:
117,66,95584,2,0,B|144:16|196:16|196:16|217:16,1,120,0|4,1:0|0:0,0:0:0:0:
256,104,96173,1,2,1:0:0:0:
294,16,96467,2,0,B|316:16|316:16|368:16|395:66,1,120,2|0,0:1|1:0,0:0:0:0:
465,135,97055,1,4,0:0:0:0:
394,203,97349,1,2,1:0:0:0:
394,203,97643,5,2,0:1:0:0:
326,272,97937,2,0,B|326:330|326:330|356:384,1,120,2|4,1:0|0:0,0:0:0:0:
256,384,98525,1,2,1:0:0:0:
156,384,98820,2,0,B|186:330|186:330|186:272,1,120,4|0,0:0|1:0,0:0:0:0:
118,203,99408,1,2,0:1:0:0:
118,203,99702,1,0,1:0:0:0:
47,135,99996,5,2,0:1:0:0:
118,67,100290,2,0,B|161:110|161:110|221:110,1,120,0|4,1:0|0:0,0:0:0:0:
256,20,100878,1,2,1:0:0:0:
291,110,101173,2,0,B|351:110|351:110|394:67,2,120,2|0|4,0:1|1:0|0:0,0:0:0:0:
256,200,102055,1,2,1:0:0:0:
221,290,102349,6,0,B|256:339|256:339|291:290,1,120,2|0,0:1|1:0,0:0:0:0:
256,200,102937,2,0,L|256:16,2,180,4|2|4,0:0|0:1|0:0,0:0:0:0:
256,296,104114,1,4,0:0:0:0:
256,296,104261,1,4,1:0:0:0:
156,192,104702,6,0,B|256:160|256:160|356:192,1,210,4|4,1:0|0:0,0:0:0:0:
440,280,105584,2,0,P|392:192|440:104,1,210,4|4,1:0|0:0,0:0:0:0:
356,16,106467,1,4,1:0:0:0:
256,16,106761,1,4,0:0:0:0:
156,16,107055,6,0,B|156:80|100:116|100:116|156:152|156:216,1,240,6|2,1:0|1:0,0:0:0:0:
207,266,107864,1,2,1:0:0:0:
304,264,108158,2,0,B|344:264|344:264|400:264|432:320,1,150,2|2,1:0|1:0,0:0:0:0:
256,192,109408,12,4,111834,0:0:0:0:
