osu file format v14

[General]
AudioFilename: The Super Mario Players feat.Kate Davis - Jump Up, Super Star! (Short ver.).mp3
AudioLeadIn: 0
PreviewTime: 41418
Countdown: 0
SampleSet: None
StackLeniency: 0.3
Mode: 0
LetterboxInBreaks: 0
EpilepsyWarning: 1
WidescreenStoryboard: 1

[Editor]
Bookmarks: 584,111834
DistanceSpacing: 1.1
BeatDivisor: 6
GridSize: 4
TimelineZoom: 2

[Metadata]
Title:Jump Up, Super Star! (Short ver.)
TitleUnicode:Jump Up, Super Star! (Short ver.)
Artist:The Super Mario Players feat.Kate Davis
ArtistUnicode:The Super Mario Players feat.Kate Davis
Creator:Gero
Version:Odyssey, Ya see!
Source:スーパーマリオ オデッセイ
Tags:ODYSSEY Jazz Broadway Mahito Yokota 1-UP Girl E3 Nintendo Cappy Pauline TV Size Version
BeatmapID:1384740
BeatmapSetID:653168

[Difficulty]
HPDrainRate:6
CircleSize:4
OverallDifficulty:8
ApproachRate:9
SliderMultiplier:1.6
SliderTickRate:1

[Events]
//Background and Video events
0,0,"BG.jpg",0,0
Video,0,"Video.avi"
//Break Periods
//Storyboard Layer 0 (Background)
//Storyboard Layer 1 (Fail)
//Storyboard Layer 2 (Pass)
//Storyboard Layer 3 (Foreground)
//Storyboard Sound Samples

[TimingPoints]
1173,294.117647058824,4,3,1,50,1,0
11369,-100,4,2,1,30,0,0
11761,-100,4,3,1,50,0,0
12251,-50,4,3,1,50,0,0
12545,-100,4,2,1,40,0,0
12937,-100,4,3,1,50,0,0
13427,-285.714285714286,4,3,1,50,0,0
13722,-100,4,3,1,50,0,0
32055,-66.6666666666667,4,3,1,50,0,0
32937,-100,4,3,1,50,0,0
35290,-285.714285714286,4,2,1,30,0,0
35315,-285.714285714286,4,2,1,5,0,0
36074,-285.714285714286,4,2,1,30,0,0
36173,-50,4,3,1,50,0,0
36467,-285.714285714286,4,2,1,30,0,0
36491,-285.714285714286,4,2,1,5,0,0
37104,-285.714285714286,4,2,1,30,0,0
37202,-50,4,3,1,50,0,0
37643,-100,4,3,1,50,0,0
41467,-100,4,3,1,40,0,0
42202,-100,4,3,1,50,0,1
54408,-86.9565217391304,4,3,1,50,0,1
54702,-76.9230769230769,4,3,1,50,0,1
54996,-68.9655172413793,4,3,1,50,0,1
55290,-100,4,3,1,50,0,1
56418,-100,4,3,1,50,0,0
56467,-100,4,3,1,50,0,1
75241,-100,4,3,1,50,0,0
75290,-100,4,3,1,50,0,1
79947,-100,4,3,1,50,0,0
79996,-100,4,3,1,50,0,1
85878,-100,4,3,1,50,0,0
102349,-90.9090909090909,4,3,1,50,0,0
103084,-83.3333333333333,4,3,1,50,0,0
103525,-76.9230769230769,4,3,1,50,0,0
109408,-285.714285714286,4,3,1,50,0,0
109432,-285.714285714286,4,3,1,5,0,0
111614,-285.714285714286,4,3,1,50,0,0

[Colours]
Combo1 : 237,188,41
Combo2 : 248,71,71
Combo3 : 68,189,210
Combo4 : 101,203,75
SliderBorder : 255,21,21
SliderTrackOverride : 0,0,0

[HitObjects]
350,176,584,5,0,1:0:0:0:
318,171,682,1,0,1:0:0:0:
285,176,780,1,0,1:0:0:0:
256,192,878,1,0,1:0:0:0:
227,207,976,1,0,1:0:0:0:
194,213,1074,1,0,1:0:0:0:
162,207,1173,6,0,P|113:189|64:207,1,106.666666666667,4|0,1:0|0:0,0:0:0:0:
15,271,1467,2,0,P|64:289|113:271,1,106.666666666667,0|0,1:0|0:0,0:0:0:0:
160,334,1761,1,2,0:0:0:0:
256,270,1957,1,0,0:0:0:0:
256,270,2055,1,0,1:0:0:0:
350,207,2251,5,0,0:0:0:0:
350,207,2349,2,0,P|399:189|448:207,1,106.666666666667,2|0,0:0|0:0,0:0:0:0:
497,271,2643,2,0,P|448:289|399:271,1,106.666666666667,0|0,1:0|0:0,0:0:0:0:
352,334,2937,1,2,0:0:0:0:
256,270,3133,1,0,0:0:0:0:
256,270,3231,1,0,1:0:0:0:
162,207,3427,5,0,0:0:0:0:
162,207,3525,2,0,B|139:159|139:159|162:111,1,106.666666666667,2|0,0:0|0:0,0:0:0:0:
219,53,3820,2,0,B|246:38|256:16|256:16|266:38|293:53,1,106.666666666667,0|0,1:0|0:0,0:0:0:0:
350,111,4114,2,0,B|373:159|373:159|350:207,1,106.666666666667,2|0,0:0|0:0,0:0:0:0:
293,263,4408,2,0,B|266:278|256:300|256:300|246:278|219:263,1,106.666666666667,0|0,1:0|0:0,0:0:0:0:
162,207,4702,5,2,0:0:0:0:
256,136,4898,1,0,0:0:0:0:
256,136,4996,1,0,1:0:0:0:
350,207,5192,1,0,0:0:0:0:
350,207,5290,2,0,L|393:238,2,53.3333333333333,2|0|0,0:0|0:0|0:0,0:0:0:0:
414,159,5584,2,0,B|446:181|446:181|451:189|451:189|455:183|455:183|459:191|459:191|492:214,1,106.666666666667,0|0,1:0|0:0,0:0:0:0:
457,286,5878,6,0,B|436:336|384:361,1,106.666666666667,2|0,0:0|0:0,0:0:0:0:
304,344,6173,2,0,B|280:328|256:322|256:322|232:328|208:344,1,106.666666666667,0|0,1:0|0:0,0:0:0:0:
127,361,6467,2,0,B|76:336|55:286,1,106.666666666667,2|0,0:0|0:0,0:0:0:0:
18,215,6761,2,0,B|53:191|53:191|57:183|57:183|61:189|61:189|66:181|66:181|98:159,1,106.666666666667,0|0,1:0|0:0,0:0:0:0:
162,207,7055,5,2,0:0:0:0:
256,276,7251,1,0,0:0:0:0:
256,276,7349,1,0,1:0:0:0:
350,207,7545,1,0,0:0:0:0:
350,207,7643,2,0,B|384:182|384:182|388:174|388:174|392:180|392:180|397:172|397:172|429:150,1,106.666666666667,2|0,0:0|1:0,0:0:0:0:
486,94,7937,1,0,1:0:0:0:
401,9,8084,5,4,1:0:0:0:
401,9,8378,6,0,L|271:103,1,160,4|4,1:0|3:0,0:0:0:0:
386,182,8820,6,0,L|256:276,1,160,4|4,1:0|3:0,0:0:0:0:
130,276,9261,6,0,B|192:232|252:272|256:276|260:280|320:320|382:276,1,266.666666666667,4|4,1:0|3:0,0:0:0:0:
488,230,9898,1,0,1:0:0:0:
488,230,9996,2,0,P|499:192|488:154,1,80,4|0,3:0|1:0,0:0:0:0:
382,108,10290,5,4,3:0:0:0:
288,192,10437,1,4,3:0:0:0:
382,276,10584,1,4,3:0:0:0:
256,192,10731,1,4,3:0:0:0:
382,108,10878,1,4,3:0:0:0:
224,192,11025,5,4,1:0:0:0:
224,192,11369,5,2,0:0:0:0:
160,143,11467,2,0,P|142:192|160:241,1,106.666666666667,2|2,0:0|0:0,0:0:0:0:
224,290,11761,5,0,1:0:0:0:
242,310,11859,1,0,1:0:0:0:
263,336,11957,1,0,1:0:0:0:
283,361,12055,1,0,1:0:0:0:
440,236,12251,6,2,B|480:284|480:284|512:192|512:192|480:100|480:100|440:148,1,320,4|2,1:0|0:0,1:0:0:0:
372,192,12643,6,0,B|402:148|402:148|372:104,1,106.666666666667,2|2,0:0|0:0,0:0:0:0:
305,61,12937,5,0,1:0:0:0:
286,87,13035,1,0,1:0:0:0:
265,112,13133,1,0,1:0:0:0:
245,136,13231,1,0,1:0:0:0:
96,290,13427,6,2,B|128:336,1,55.9999982910157,4|2,1:0|0:0,1:0:0:0:
194,293,13820,5,0,1:0:0:0:
320,192,14016,5,0,0:0:0:0:
320,192,14114,2,0,P|334:141|372:104,1,106.666666666667,4|0,3:0|0:0,0:0:0:0:
300,48,14408,2,0,B|272:40|256:19|256:19|240:40|212:48,1,106.666666666667,0|0,1:0|0:0,0:0:0:0:
139,104,14702,2,0,P|177:141|191:192,1,106.666666666667,4|0,3:0|0:0,0:0:0:0:
256,240,14996,2,0,L|256:293,2,53.3333333333333,2|8|2,1:0|3:0|0:1,0:0:0:0:
320,192,15290,5,4,3:0:0:0:
256,44,15486,1,2,0:1:0:0:
256,44,15584,1,0,1:0:0:0:
192,192,15780,1,2,0:1:0:0:
192,192,15878,1,4,3:0:0:0:
256,340,16074,1,2,0:1:0:0:
256,340,16173,1,0,1:0:0:0:
320,192,16369,5,0,0:0:0:0:
320,192,16467,2,0,P|368:172|416:192,1,106.666666666667,4|0,3:0|0:0,0:0:0:0:
480,240,16761,2,0,P|460:192|480:144,1,106.666666666667,0|0,1:0|0:0,0:0:0:0:
415,288,17055,2,0,P|435:336|415:384,1,106.666666666667,4|0,3:0|0:0,0:0:0:0:
351,336,17349,1,0,1:0:0:0:
256,192,17545,5,0,0:0:0:0:
256,192,17643,2,0,L|149:192,1,106.666666666667,4|0,0:0|0:0,0:0:0:0:
111,124,17937,2,0,B|141:108|149:88|149:88|157:108|187:124,1,106.666666666667,0|0,1:0|0:0,0:0:0:0:
294,53,18231,2,0,B|264:69|256:89|256:89|248:69|218:53,1,106.666666666667,4|0,0:0|0:0,0:0:0:0:
325,124,18525,2,0,B|355:108|363:88|363:88|371:108|401:124,1,106.666666666667,4|4,1:2|0:0,0:0:0:0:
362,192,18820,1,4,0:0:0:0:
150,341,19016,6,2,P|126:266|150:191,1,160,6|4,1:0|0:0,1:0:0:0:
111,124,19408,1,4,0:0:0:0:
174,342,19604,6,2,P|150:267|174:192,1,160,6|4,1:0|0:0,1:0:0:0:
135,125,19996,1,4,0:0:0:0:
362,341,20192,6,2,P|386:266|362:191,1,160,6|4,1:0|0:0,1:0:0:0:
401,124,20584,1,4,0:0:0:0:
338,342,20780,6,2,P|362:267|338:192,1,160,6|4,1:0|0:0,1:0:0:0:
377,125,21172,1,0,1:0:0:0:
256,232,21369,1,4,0:0:0:0:
256,232,21467,1,0,1:0:0:0:
135,125,21663,6,2,B|135:85|102:59|102:59|185:59,1,160,6|4,1:0|0:0,1:0:0:0:
241,2,22055,1,0,1:0:0:0:
55,125,22251,1,4,0:0:0:0:
55,125,22349,2,0,B|40:160|40:160|59:225,1,106.666666666667,0|4,1:0|0:0,0:0:0:0:
116,282,22643,1,2,0:0:0:0:
207,359,22790,6,2,P|256:377|305:359,1,106.666666666667,6|0,1:0|0:0,1:0:0:0:
305,205,23084,2,2,P|256:187|207:205,1,106.666666666667,6|0,1:0|0:0,1:0:0:0:
256,282,23378,1,6,1:0:0:0:
449,299,23525,6,0,B|437:260|437:260|438:251|438:251|431:254|431:254|432:245|432:245|420:207,1,106.666666666667,4|0,0:0|0:0,0:0:0:0:
459,75,23820,2,0,B|471:113|471:113|470:122|470:122|477:119|477:119|476:128|476:128|488:167,1,106.666666666667,0|0,1:0|0:0,0:0:0:0:
411,22,24114,2,0,P|459:2|507:22,1,106.666666666667,4|0,0:0|0:0,0:0:0:0:
388,92,24408,2,0,P|340:112|292:92,1,106.666666666667,0|0,1:0|0:0,0:0:0:0:
269,22,24702,6,0,B|292:8|292:8|315:22,1,53.3333333333333,2|4,0:1|0:0,0:0:0:0:
220,92,24898,1,2,0:1:0:0:
220,92,24996,2,0,P|172:112|124:92,1,106.666666666667,0|2,1:0|0:1,0:0:0:0:
5,22,25290,2,0,P|53:2|101:22,1,106.666666666667,4|2,0:0|0:1,0:0:0:0:
24,167,25584,2,0,B|36:128|36:128|35:119|35:119|42:122|42:122|41:113|41:113|53:75,1,106.666666666667,2|0,1:0|0:0,0:0:0:0:
92,207,25878,6,0,B|80:245|80:245|81:254|81:254|74:251|74:251|75:260|75:260|63:299,1,106.666666666667,4|0,0:0|0:0,0:0:0:0:
24,370,26173,1,0,1:0:0:0:
152,276,26369,1,0,0:0:0:0:
152,276,26467,2,0,P|202:260|252:276,1,106.666666666667,4|2,0:0|0:1,0:0:0:0:
402,340,26761,2,0,P|352:356|302:340,1,106.666666666667,0|2,1:0|0:1,0:0:0:0:
202,213,27055,6,0,P|252:197|302:213,1,106.666666666667,2|2,0:1|0:1,0:0:0:0:
452,276,27349,2,0,P|402:292|352:276,1,106.666666666667,0|2,1:0|0:1,0:0:0:0:
402,69,27643,2,0,P|432:141|402:213,1,160,4|0,0:0|1:0,0:0:0:0:
256,141,28133,5,0,0:0:0:0:
256,141,28231,2,0,B|304:118|304:118|352:141,1,106.666666666667,4|2,0:0|0:1,0:0:0:0:
304,204,28525,2,0,B|256:227|256:227|208:204,1,106.666666666667,0|0,1:0|0:0,0:0:0:0:
140,160,28820,2,0,B|160:176|168:204|168:204|160:232|140:248,1,106.666666666667,2|0,0:1|0:0,0:0:0:0:
72,204,29114,2,0,B|52:188|44:160|44:160|52:132|72:116,1,106.666666666667,2|0,1:0|0:0,0:0:0:0:
208,115,29408,2,0,B|228:131|236:159|236:159|228:187|208:203,1,106.666666666667,2|2,0:1|0:1,0:0:0:0:
140,160,29702,2,0,B|120:144|112:116|112:116|120:88|140:72,1,106.666666666667,2|0,1:0|0:0,0:0:0:0:
276,70,29996,6,0,B|296:86|304:114|304:114,1,53.3333333333333,0|0,1:0|1:0,0:0:0:0:
235,247,30192,2,0,B|215:231|207:203|207:203,1,53.3333333333333,0|0,1:0|1:0,0:0:0:0:
366,70,30388,2,0,B|386:86|394:114|394:114,1,53.3333333333333,0|0,1:0|1:0,0:0:0:0:
325,247,30584,6,0,B|305:227|280:219|280:219|305:211|325:191,1,106.666666666667,4|4,1:2|0:0,0:0:0:0:
401,219,30878,1,4,0:0:0:0:
196,336,31025,2,0,B|213:271|213:271|202:218|202:218|219:154,1,186.666666666667,4|4,1:2|0:0,0:0:0:0:
170,12,31467,2,0,L|143:116,1,106.666666666667,4|4,0:0|0:0,0:0:0:0:
67,155,31761,1,4,0:0:0:0:
67,155,32055,6,0,P|210:192|67:229,1,400.00001525879,4|0,1:0|0:0,0:0:0:0:
134,192,32643,6,0,L|174:346,1,160.000006103516,4|0,1:0|0:0,0:0:0:0:
235,104,32937,6,0,L|208:207,1,106.666666666667,4|0,0:0|0:0,0:0:0:0:
304,140,33231,2,0,L|277:36,1,106.666666666667,2|4,1:0|0:0,0:0:0:0:
373,104,33525,1,4,0:0:0:0:
277,243,33722,1,2,0:1:0:0:
277,243,33820,1,0,1:0:0:0:
442,68,34016,5,0,0:0:0:0:
442,68,34114,2,0,B|466:52|474:27|474:27|482:52|506:68,1,106.666666666667,2|0,0:1|0:0,0:0:0:0:
474,224,34408,2,0,B|458:200|433:192|433:192|458:184|474:160,1,106.666666666667,0|2,1:0|0:1,0:0:0:0:
506,316,34702,2,0,B|482:332|474:357|474:357|466:332|442:316,1,106.666666666667,2|0,0:1|0:0,0:0:0:0:
474,160,34996,2,0,B|490:184|515:192|515:192|490:200|474:224,1,106.666666666667,0|0,1:0|0:0,0:0:0:0:
373,192,35290,6,0,P|302:172|231:192,1,149.333328776042,2|2,0:0|0:0,0:0:0:0:
192,258,36173,6,2,B|232:192|232:192|192:61,1,213.333333333333,4|0,1:0|0:0,1:0:0:0:
239,4,36467,6,0,B|122:39,1,121.333329630534,2|2,0:0|0:0,0:0:0:0:
76,96,37202,6,2,B|336:16|336:16|256:78,1,373.333333333333,4|0,1:0|0:0,1:0:0:0:
191,257,37643,6,0,L|276:192,1,106.666666666667,6|4,1:0|0:0,0:0:0:0:
340,144,37937,1,4,0:0:0:0:
213,338,38084,6,0,L|340:240,1,160,6|4,1:0|0:0,0:0:0:0:
404,192,38476,1,4,0:0:0:0:
149,289,38673,6,0,L|276:191,1,160,6|4,1:0|0:0,0:0:0:0:
340,144,39065,1,4,0:0:0:0:
211,15,39261,6,0,B|163:79|163:79|211:143,1,160,6|4,1:0|0:0,0:0:0:0:
180,167,39653,5,4,0:0:0:0:
148,192,39751,1,4,0:0:0:0:
116,216,39849,1,4,0:0:0:0:
85,240,39947,1,4,0:0:0:0:
85,240,40192,5,6,1:0:0:0:
256,44,40388,1,6,1:0:0:0:
233,303,40584,1,6,1:0:0:0:
99,80,40780,1,6,1:0:0:0:
338,181,40976,1,6,1:0:0:0:
85,240,41173,5,6,1:0:0:0:
297,113,41467,6,0,B|322:101|338:80|338:80|354:101|379:113,1,106.666666666667,4|0,0:0|0:0,0:0:0:0:
420,181,41761,1,4,0:0:0:0:
315,303,41957,1,4,0:0:0:0:
315,303,42202,6,0,B|304:352|256:370|256:370|208:352|197:303,1,186.666666666667,4|4,1:2|3:0,0:0:0:0:
256,140,42643,2,0,P|267:192|256:244,1,106.666666666667,2|0,1:2|0:0,0:0:0:0:
197,303,42937,1,4,3:0:0:0:
80,192,43133,1,4,0:0:0:0:
80,192,43231,1,2,1:2:0:0:
197,81,43427,6,0,B|216:40|256:32|256:32|296:40|315:81,1,160,4|4,1:2|3:0,0:0:0:0:
256,244,43820,2,0,P|245:192|256:140,1,106.666666666667,2|0,1:2|0:0,0:0:0:0:
315,81,44114,1,4,3:0:0:0:
432,192,44310,1,4,0:0:0:0:
432,192,44408,1,2,1:2:0:0:
315,303,44604,6,0,B|274:283|242:299|238:303|234:307|202:323|161:303,1,160,4|4,1:2|0:0,0:0:0:0:
8,244,44996,2,0,B|32:228|32:228|80:228|80:228|104:244,1,106.666666666667,2|0,1:2|0:0,0:0:0:0:
160,185,45290,1,4,0:0:0:0:
56,64,45486,1,4,0:0:0:0:
56,64,45584,1,2,1:2:0:0:
216,245,45780,6,0,B|240:178|240:178|239:169|239:169|238:160|238:160|262:92,1,160,4|4,1:2|0:0,0:0:0:0:
307,203,46173,2,0,L|271:304,1,106.666666666667,2|0,1:2|0:0,0:0:0:0:
170,133,46467,2,0,L|206:32,1,106.666666666667,4|4,0:0|0:0,0:0:0:0:
262,93,46761,1,2,1:2:0:0:
102,218,46957,6,0,B|77:175|77:175|113:71,1,160,4|4,1:2|0:0,0:0:0:0:
176,208,47349,2,0,P|163:258|122:291,1,106.666666666667,2|0,1:2|0:0,0:0:0:0:
28,228,47643,2,0,P|40:177|81:144,1,106.666666666667,4|4,0:0|0:0,0:0:0:0:
102,218,47937,1,2,1:2:0:0:
140,372,48133,6,0,B|181:392|213:376|217:372|221:368|253:352|294:372,1,160,4|4,1:2|0:0,0:0:0:0:
455,315,48525,2,0,B|403:303|403:303|351:315,1,106.666666666667,2|0,1:2|0:0,0:0:0:0:
191,258,48820,2,0,B|243:246|243:246|295:258,1,106.666666666667,4|4,0:0|0:0,0:0:0:0:
351,201,49114,1,2,1:2:0:0:
294,372,49310,5,4,1:2:0:0:
420,80,49604,1,4,0:0:0:0:
218,372,49898,1,4,1:2:0:0:
92,80,50192,1,4,0:0:0:0:
294,372,50486,1,4,1:2:0:0:
294,144,50780,5,4,0:0:0:0:
294,144,50878,2,0,B|268:132|256:108|256:108|244:132|218:144,1,106.666666666667,2|4,1:2|0:0,0:0:0:0:
152,192,51173,1,2,1:2:0:0:
360,192,51369,1,2,1:2:0:0:
360,192,51614,6,0,P|325:108|360:24,1,186.666666666667,4|4,1:2|0:0,0:0:0:0:
423,142,52055,2,0,P|439:192|423:242,1,106.666666666667,2|0,1:2|0:0,0:0:0:0:
297,242,52349,2,0,P|281:192|297:142,1,106.666666666667,4|4,0:0|0:0,0:0:0:0:
360,192,52643,1,2,1:2:0:0:
486,292,52839,6,0,B|447:302|423:338|423:338|399:302|360:292,1,160,4|4,1:2|0:0,0:0:0:0:
297,242,53231,2,0,B|278:292|278:292|297:342,1,106.666666666667,2|0,1:2|0:0,0:0:0:0:
360,192,53525,2,0,B|379:142|379:142|360:92,1,106.666666666667,4|4,0:0|0:0,0:0:0:0:
234,192,53820,2,0,B|215:242|215:242|234:292,1,106.666666666667,2|4,1:2|0:0,0:0:0:0:
297,142,54114,6,0,L|334:42,1,106.666666666667,4|0,1:2|0:0,0:0:0:0:
297,242,54408,6,0,L|339:356,1,122.666669006348,2|0,1:2|0:0,0:0:0:0:
379,142,54702,6,0,L|427:11,1,138.666660319011,4|4,0:0|0:0,0:0:0:0:
379,242,54996,6,0,L|433:386,1,154.666671386719,2|0,1:2|0:0,0:0:0:0:
461,142,55290,5,4,1:2:0:0:
297,192,55486,1,4,0:0:0:0:
297,192,55584,1,2,1:2:0:0:
461,242,55780,1,4,1:2:0:0:
461,242,55878,1,4,0:0:0:0:
215,192,56074,1,4,0:0:0:0:
215,192,56173,1,2,1:2:0:0:
379,142,56369,5,4,0:0:0:0:
379,142,56467,2,0,P|395:192|379:242,1,106.666666666667,4|0,1:2|0:0,0:0:0:0:
348,316,56761,1,2,1:2:0:0:
456,116,56957,2,0,B|481:192|481:192|456:268,1,160,4|4,0:0|0:0,0:0:0:0:
425,341,57349,1,2,1:2:0:0:
316,192,57545,5,0,0:0:0:0:
316,192,57643,2,0,P|300:142|316:92,1,106.666666666667,4|0,1:2|0:0,0:0:0:0:
196,192,57937,2,0,P|212:142|196:92,1,106.666666666667,2|0,1:2|0:0,0:0:0:0:
379,142,58231,2,0,P|395:92|379:42,1,106.666666666667,4|4,0:0|0:0,0:0:0:0:
133,142,58525,2,0,P|117:92|133:42,1,106.666666666667,2|0,1:2|0:0,0:0:0:0:
316,91,58820,6,0,B|276:104|256:141|256:141|236:104|196:91,1,160,4|2,1:2|1:2,0:0:0:0:
256,243,59310,1,4,0:0:0:0:
256,243,59408,1,4,0:0:0:0:
316,91,59604,1,4,0:0:0:0:
316,91,59702,1,2,1:2:0:0:
196,192,59898,5,4,1:2:0:0:
196,192,59996,1,0,0:0:0:0:
256,340,60192,1,4,0:0:0:0:
256,340,60290,1,2,1:2:0:0:
316,192,60486,1,4,0:0:0:0:
316,192,60584,1,2,1:2:0:0:
256,44,60780,1,2,1:2:0:0:
256,44,60878,1,4,0:0:0:0:
256,44,61074,6,0,P|316:0|376:44,1,160,4|4,1:2|0:0,0:0:0:0:
316,192,61467,2,0,P|296:144|316:96,1,106.666666666667,2|0,1:2|0:0,0:0:0:0:
376,244,61761,2,0,P|396:292|376:340,1,106.666666666667,4|4,0:0|0:0,0:0:0:0:
436,192,62055,1,2,1:2:0:0:
316,292,62251,6,0,B|164:344,1,160,4|4,1:2|0:0,0:0:0:0:
5,257,62643,2,0,B|106:292,1,106.666666666667,2|0,1:2|0:0,0:0:0:0:
265,206,62937,2,0,B|165:241,1,106.666666666667,4|4,0:0|0:0,0:0:0:0:
106,190,63231,1,2,1:2:0:0:
152,10,63427,6,0,B|192:108|192:108|175:159,1,160,4|4,1:2|0:0,0:0:0:0:
12,152,63820,2,0,L|110:111,1,106.666666666667,2|0,1:2|0:0,0:0:0:0:
274,119,64114,2,0,L|175:159,1,106.666666666667,4|4,0:0|0:0,0:0:0:0:
110,111,64408,1,2,1:2:0:0:
239,206,64604,6,0,B|279:304|279:304|262:355,1,160,4|4,1:2|0:0,0:0:0:0:
99,348,64997,2,0,L|197:307,1,106.666666666667,2|0,1:2|0:0,0:0:0:0:
361,315,65291,2,0,L|262:355,1,106.666666666667,4|4,0:0|0:0,0:0:0:0:
197,307,65585,1,2,1:2:0:0:
379,235,65780,6,0,P|436:285|426:361,1,160,4|4,1:2|0:0,0:0:0:0:
506,235,66173,2,0,P|461:263|442:312,1,106.666666666667,2|0,1:2|0:0,0:0:0:0:
315,157,66467,2,0,P|359:186|379:235,1,106.666666666667,4|4,0:0|0:0,0:0:0:0:
505,79,66761,2,0,P|460:107|441:156,1,106.666666666667,2|4,1:2|1:2,0:0:0:0:
506,235,67055,5,4,0:0:0:0:
361,315,67251,1,0,0:0:0:0:
361,315,67349,2,0,L|262:355,1,106.666666666667,2|0,1:2|0:0,0:0:0:0:
99,268,67643,2,0,L|198:308,1,106.666666666667,4|4,0:0|0:0,0:0:0:0:
361,221,67937,2,0,L|262:261,1,106.666666666667,2|0,1:2|0:0,0:0:0:0:
197,213,68231,5,4,0:0:0:0:
256,64,68427,1,4,0:0:0:0:
256,64,68525,1,2,1:2:0:0:
131,165,68722,1,4,0:0:0:0:
131,165,68820,1,4,0:0:0:0:
263,261,69016,5,4,0:0:0:0:
263,261,69114,1,2,1:2:0:0:
322,112,69310,1,4,0:0:0:0:
322,112,69408,1,4,0:0:0:0:
197,213,69604,1,4,0:0:0:0:
197,213,69702,1,6,1:2:0:0:
329,309,69898,5,4,0:0:0:0:
329,309,69996,1,4,0:0:0:0:
388,160,70192,1,4,1:2:0:0:
388,160,70486,6,0,L|446:11,1,160,4|4,1:2|0:0,0:0:0:0:
322,129,70878,2,0,L|361:229,1,106.666666666667,2|0,1:2|0:0,0:0:0:0:
453,190,71173,2,0,L|414:90,1,106.666666666667,4|4,0:0|0:0,0:0:0:0:
345,55,71467,1,2,1:2:0:0:
190,129,71663,6,0,B|214:191|214:191|213:200|213:200|220:197|220:197|219:206|219:206|243:269,1,160,4|4,1:2|0:0,0:0:0:0:
145,225,72055,2,0,P|111:266|108:318,1,106.666666666667,2|0,1:2|0:0,0:0:0:0:
287,170,72349,2,0,P|338:179|376:215,1,106.666666666667,4|4,0:0|0:0,0:0:0:0:
336,299,72643,1,2,1:2:0:0:
195,354,72840,1,0,0:0:0:0:
195,354,72937,6,0,L|156:254,1,106.666666666667,4|0,1:2|0:0,0:0:0:0:
336,299,73232,2,0,L|297:199,1,106.666666666667,2|0,1:2|0:0,0:0:0:0:
265,326,73525,2,0,L|226:226,1,106.666666666667,4|4,0:0|0:0,0:0:0:0:
407,272,73820,2,0,L|368:172,1,106.666666666667,2|0,1:2|0:0,0:0:0:0:
399,45,74114,6,0,L|438:145,1,106.666666666667,4|4,1:2|0:0,0:0:0:0:
368,172,74408,1,2,1:2:0:0:
226,226,74555,2,0,B|184:250|140:230|136:226|132:222|88:202|46:226,1,186.666666666667,4|4,1:2|0:0,0:0:0:0:
187,127,74997,2,0,L|226:227,1,106.666666666667,2|4,1:2|0:0,0:0:0:0:
195,354,75290,6,0,L|156:254,1,106.666666666667,4|0,1:2|0:0,0:0:0:0:
87,226,75584,1,2,1:2:0:0:
294,254,75780,1,0,0:0:0:0:
294,254,75878,2,0,P|344:270|394:254,1,106.666666666667,4|0,0:0|0:0,0:0:0:0:
394,130,76173,2,0,P|344:114|294:130,1,106.666666666667,2|0,1:2|0:0,0:0:0:0:
344,192,76467,6,0,B|394:210|394:210|444:192,1,106.666666666667,4|0,0:0|0:0,0:0:0:0:
444,68,76761,2,0,B|394:50|394:50|344:68,1,106.666666666667,2|0,1:2|0:0,0:0:0:0:
168,192,77055,2,0,B|118:210|118:210|68:192,1,106.666666666667,4|0,0:0|0:0,0:0:0:0:
68,68,77349,2,0,B|118:50|118:50|168:68,1,106.666666666667,2|0,1:2|0:0,0:0:0:0:
218,254,77643,6,0,P|168:270|118:254,1,106.666666666667,4|0,1:2|0:0,0:0:0:0:
118,130,77938,2,0,P|168:114|218:130,1,106.666666666667,2|0,1:2|0:0,0:0:0:0:
294,254,78231,2,0,P|344:270|394:254,1,106.666666666667,4|0,0:0|0:0,0:0:0:0:
394,130,78526,2,0,P|344:114|294:130,1,106.666666666667,2|0,1:2|0:0,0:0:0:0:
168,192,78820,5,4,0:0:0:0:
444,68,79114,1,2,1:2:0:0:
256,254,79408,1,4,0:0:0:0:
68,68,79702,1,2,1:2:0:0:
394,254,79996,6,0,B|416:276|416:276|442:302|439:345,1,106.666666666667,4|0,1:2|0:0,0:0:0:0:
492,244,80290,2,0,P|502:192|492:140,1,106.666666666667,2|0,1:2|0:0,0:0:0:0:
439,38,80584,2,0,B|442:81|416:107|416:107|394:130,1,106.666666666667,4|0,0:0|0:0,0:0:0:0:
344,192,80878,1,2,1:2:0:0:
230,307,81074,5,0,0:0:0:0:
230,307,81173,2,0,B|178:319|178:319|126:307,1,106.666666666667,4|8,1:2|0:0,0:0:0:0:
17,250,81467,2,0,B|43:244|43:244|69:250,2,53.3333333333333,8|8|8,0:0|0:0|0:0,0:0:0:0:
178,192,81761,2,0,B|152:198|152:198|126:192,2,53.3333333333333,8|8|8,0:0|0:0|0:0,0:0:0:0:
256,160,82055,5,4,0:0:0:0:
247,182,82128,1,4,0:0:0:0:
237,204,82202,1,4,0:0:0:0:
228,226,82275,1,4,0:0:0:0:
218,248,82349,1,4,0:0:0:0:
334,127,82496,6,0,P|380:69|334:11,1,160,4|4,1:2|0:0,0:0:0:0:
178,127,82937,2,0,P|132:69|178:11,1,160,4|4,1:2|0:0,0:0:0:0:
256,160,83378,2,0,B|256:199|256:199|252:207|252:207|260:207|260:207|256:215|256:215|256:247|256:247|252:255|252:255|260:255|260:255|256:263|256:263|256:300,1,160,4|4,1:2|0:0,0:0:0:0:
256,69,83820,1,4,0:0:0:0:
178,257,83967,6,0,P|256:301|334:257,1,186.666666666667,4|4,1:2|0:0,0:0:0:0:
304,184,84408,2,0,B|256:161|256:161|208:184,1,106.666666666667,8|0,0:0|0:0,0:0:0:0:
178,257,84702,1,4,0:0:0:0:
334,111,84849,5,0,1:0:0:0:
256,300,84996,1,0,1:0:0:0:
256,69,85143,1,0,1:0:0:0:
334,257,85290,5,0,1:0:0:0:
178,111,85437,1,0,1:0:0:0:
380,184,85584,1,0,1:0:0:0:
132,184,85731,1,0,1:0:0:0:
334,257,85878,6,0,P|380:280|426:257,1,106.666666666667,6|0,1:0|0:0,0:0:0:0:
426,110,86173,2,0,P|380:87|334:110,1,106.666666666667,0|2,1:0|0:1,0:0:0:0:
288,184,86467,2,0,B|265:198|256:225|256:225|247:198|224:184,1,106.666666666667,4|2,0:0|0:1,0:0:0:0:
113,110,86761,2,0,B|136:96|145:69|145:69|154:96|177:110,1,106.666666666667,2|0,1:0|0:0,0:0:0:0:
66,183,87055,6,0,B|33:110|33:110|66:37,1,160,2|0,0:1|1:0,0:0:0:0:
177,110,87496,2,0,B|210:183|210:183|177:256,1,160,2|2,0:1|0:1,0:0:0:0:
66,327,87937,1,2,1:0:0:0:
66,183,88084,1,0,0:0:0:0:
177,256,88231,6,0,B|227:274|227:274|277:256,1,106.666666666667,2|0,0:1|0:0,0:0:0:0:
440,192,88525,2,0,B|390:174|390:174|340:192,1,106.666666666667,2|2,1:0|0:1,0:0:0:0:
276,128,88820,2,0,B|260:108|256:79|256:79|252:108|236:128,1,106.666666666667,4|2,0:0|0:1,0:0:0:0:
132,62,89114,2,0,B|148:82|152:111|152:111|156:82|172:62,1,106.666666666667,2|0,1:0|0:0,0:0:0:0:
60,16,89408,6,0,B|36:62|60:108|60:108|36:124|26:160,1,160,4|0,0:0|1:0,0:0:0:0:
452,16,89996,2,0,B|476:62|452:108|452:108|476:124|485:160,1,160,4|0,0:0|1:0,0:0:0:0:
372,273,90486,5,0,0:0:0:0:
372,273,90584,2,0,P|324:295|293:338,1,106.666666666667,2|0,0:1|0:0,0:0:0:0:
140,273,90878,2,0,P|187:295|218:338,1,106.666666666667,0|2,1:0|0:1,0:0:0:0:
256,260,91173,2,0,B|256:220|256:220|252:212|252:212|260:212|260:212|256:204|256:204|256:164,1,106.666666666667,4|2,0:0|0:1,0:0:0:0:
334,42,91467,2,0,B|334:82|334:82|330:90|330:90|338:90|338:90|334:98|334:98|334:138,1,106.666666666667,2|0,1:0|0:0,0:0:0:0:
412,25,91761,6,0,B|334:42|334:42|256:25,1,160,2|0,0:1|1:0,0:0:0:0:
22,115,92202,2,0,B|100:98|100:98|178:115,1,160,2|2,0:1|0:1,0:0:0:0:
100,205,92643,1,2,1:0:0:0:
178,294,92790,1,0,0:0:0:0:
256,205,92937,6,0,L|331:280,1,106.666666666667,2|0,0:1|0:0,0:0:0:0:
387,336,93231,2,0,P|437:352|487:336,1,106.666666666667,2|2,1:0|0:1,0:0:0:0:
437,148,93525,2,0,B|421:156|409:192|409:192|421:228|437:236,1,106.666666666667,4|2,0:0|0:1,0:0:0:0:
487,48,93820,2,0,P|437:32|387:48,1,106.666666666667,2|0,1:0|0:0,0:0:0:0:
292,120,94114,6,0,P|262:192|292:264,1,160,4|0,0:0|1:0,0:0:0:0:
512,192,94702,1,4,0:0:0:0:
292,120,94996,1,0,1:0:0:0:
72,192,95290,6,0,B|112:192|112:192|120:188|120:188|120:196|120:196|128:192|128:192|168:192,1,106.666666666667,6|0,1:0|0:0,0:0:0:0:
225,248,95584,2,0,L|266:346,1,106.666666666667,0|2,1:0|0:1,0:0:0:0:
289,192,95878,2,0,L|396:192,1,106.666666666667,4|2,0:0|0:1,0:0:0:0:
225,136,96173,2,0,L|266:37,1,106.666666666667,2|0,1:0|0:0,0:0:0:0:
457,122,96467,6,0,P|490:192|457:262,1,160,2|0,0:1|1:0,0:0:0:0:
336,262,96908,2,0,P|303:192|336:122,1,160,2|2,0:1|0:1,0:0:0:0:
396,20,97349,1,2,1:0:0:0:
457,122,97496,1,0,0:0:0:0:
396,224,97643,6,0,B|373:230|362:262|362:262|373:294|396:300,1,106.666666666667,2|0,0:1|0:0,0:0:0:0:
274,230,97937,2,0,B|297:224|308:192|308:192|297:160|274:154,1,106.666666666667,2|2,1:0|0:1,0:0:0:0:
396,84,98231,2,0,B|373:90|362:122|362:122|373:154|396:160,1,106.666666666667,4|2,0:0|0:1,0:0:0:0:
464,192,98525,1,2,1:0:0:0:
308,192,98722,1,0,0:0:0:0:
308,192,98820,6,0,B|256:203|256:203|204:192,1,106.666666666667,4|2,0:0|0:1,0:0:0:0:
112,276,99114,2,0,B|164:265|164:265|216:276,1,106.666666666667,0|0,1:0|0:0,0:0:0:0:
400,276,99408,2,0,B|348:265|348:265|296:276,1,106.666666666667,2|2,0:1|0:1,0:0:0:0:
256,352,99702,1,0,1:0:0:0:
204,192,99898,5,2,0:1:0:0:
204,192,99996,2,0,B|193:140|193:140|204:88,1,106.666666666667,4|0,0:0|0:0,0:0:0:0:
308,192,100290,2,0,B|319:140|319:140|308:88,1,106.666666666667,0|2,1:0|0:1,0:0:0:0:
120,140,100584,2,0,B|142:35,1,106.666666666667,4|2,0:0|0:1,0:0:0:0:
392,140,100878,2,0,B|369:35,1,106.666666666667,2|0,1:0|0:0,0:0:0:0:
193,140,101173,6,0,B|232:148|256:185|256:185|280:148|319:140,1,160,2|0,0:1|1:0,0:0:0:0:
256,25,101614,2,0,L|256:185,1,160,2|2,0:1|0:1,0:0:0:0:
171,269,102055,1,2,1:0:0:0:
256,353,102202,1,0,0:0:0:0:
341,269,102349,6,2,B|372:236|356:180|304:152|256:185|256:185|208:152|156:180|140:236|171:269,1,352.000010742188,2|4,0:1|0:0,1:0:0:0:
256,352,103084,6,2,B|309:345|341:385|341:385|373:345|426:352,1,191.999994140625,2|2,0:1|0:1,1:0:0:0:
511,269,103525,6,0,P|530:203|511:137,1,138.666660319011,4|4,0:0|0:0,0:0:0:0:
456,82,103820,2,0,L|505:32,2,69.3333301595054,4|4|4,0:0|0:0|0:0,0:0:0:0:
401,138,104114,5,4,0:0:0:0:
293,245,104310,2,0,B|241:273|197:249|193:245|189:241|145:217|93:245,1,207.999990478516,4|4,1:0|0:0,1:0:0:0:
64,268,104653,1,4,0:0:0:0:
35,290,104702,6,2,B|0:192|0:192|35:94,1,207.999990478516,4|4,1:0|0:0,1:0:0:0:
193,139,105192,2,2,B|275:139|275:139|295:147|295:147|315:155|315:155|397:155,1,207.999990478516,4|4,1:0|0:0,1:0:0:0:
397,229,105584,2,2,B|315:229|315:229|295:237|295:237|275:245|275:245|193:245,1,207.999990478516,4|4,1:0|0:0,1:0:0:0:
35,290,106074,2,2,B|72:360|144:360|144:360|215:360,1,207.999990478516,4|4,1:0|0:0,1:0:0:0:
256,292,106467,1,4,1:0:0:0:
29,192,106761,1,4,0:0:0:0:
256,92,107055,6,2,B|256:152|256:152|274:192|274:192|256:232|256:232|256:292,1,207.999990478516,6|4,1:0|0:0,1:0:0:0:
140,192,107545,1,4,0:0:0:0:
140,192,107643,1,2,1:0:0:0:
370,136,107839,2,2,B|414:136|414:136|435:192|435:192|414:248|414:248|370:248,2,207.999990478516,2|2|2,1:0|1:0|1:0,1:0:0:0:
312,192,108525,1,2,1:0:0:0:
312,192,109408,6,0,B|312:75|312:75|256:131|256:131|200:75|200:75|200:192,1,391.99998803711,4|0,1:0|0:0,0:0:0:0:
256,263,111614,5,4,0:0:0:0:
256,263,111687,1,4,0:0:0:0:
256,263,111761,1,4,0:0:0:0:
256,263,111834,1,4,0:0:0:0:
