osu file format v14

[General]
AudioFilename: The Super Mario Players feat.Kate Davis - Jump Up, Super Star! (Short ver.).mp3
AudioLeadIn: 0
PreviewTime: 41418
Countdown: 0
SampleSet: None
StackLeniency: 0.7
Mode: 0
LetterboxInBreaks: 0
EpilepsyWarning: 1
WidescreenStoryboard: 1

[Editor]
Bookmarks: 1173,111834
DistanceSpacing: 1.1
BeatDivisor: 4
GridSize: 4
TimelineZoom: 2

[Metadata]
Title:Jump Up, Super Star! (Short ver.)
TitleUnicode:Jump Up, Super Star! (Short ver.)
Artist:The Super Mario Players feat.Kate Davis
ArtistUnicode:The Super Mario Players feat.Kate Davis
Creator:Gero
Version:First Kingdom
Source:スーパーマリオ オデッセイ
Tags:ODYSSEY Jazz Broadway Mahito Yokota 1-UP Girl E3 Nintendo Cappy Pauline TV Size Version
BeatmapID:1384737
BeatmapSetID:653168

[Difficulty]
HPDrainRate:2
CircleSize:3
OverallDifficulty:2
ApproachRate:3
SliderMultiplier:0.8
SliderTickRate:1

[Events]
//Background and Video events
0,0,"BG.jpg",0,0
Video,0,"Video.avi"
//Break Periods
//Storyboard Layer 0 (Background)
//Storyboard Layer 1 (Fail)
//Storyboard Layer 2 (Pass)
//Storyboard Layer 3 (Foreground)
//Storyboard Sound Samples

[TimingPoints]
1173,294.117647058824,4,3,1,50,1,0
11369,-100,4,2,1,30,0,0
11761,-100,4,3,1,50,0,0
12251,-100,4,3,1,50,0,0
12545,-100,4,2,1,40,0,0
12937,-100,4,3,1,50,0,0
13427,-100,4,3,1,50,0,0
13722,-100,4,3,1,50,0,0
32055,-100,4,3,1,50,0,0
32937,-100,4,3,1,50,0,0
35290,-100,4,2,1,30,0,0
35315,-100,4,2,1,5,0,0
36074,-100,4,2,1,30,0,0
36173,-100,4,3,1,50,0,0
36467,-100,4,2,1,30,0,0
36491,-100,4,2,1,5,0,0
37104,-100,4,2,1,30,0,0
37202,-100,4,3,1,50,0,0
37643,-100,4,3,1,50,0,0
41467,-100,4,3,1,40,0,0
42202,-100,4,3,1,50,0,1
54408,-100,4,3,1,50,0,1
54702,-100,4,3,1,50,0,1
54996,-100,4,3,1,50,0,1
55290,-100,4,3,1,50,0,1
56418,-100,4,3,1,50,0,0
56467,-100,4,3,1,50,0,1
75241,-100,4,3,1,50,0,0
75290,-100,4,3,1,50,0,1
79947,-100,4,3,1,50,0,0
79996,-100,4,3,1,50,0,1
85878,-100,4,3,1,50,0,0
102349,-100,4,3,1,50,0,0
103084,-100,4,3,1,50,0,0
103525,-100,4,3,1,50,0,0
109408,-100,4,3,1,50,0,0
109432,-100,4,3,1,5,0,0
111614,-100,4,3,1,50,0,0

[Colours]
Combo1 : 237,188,41
Combo2 : 248,71,71
Combo3 : 68,189,210
Combo4 : 101,203,75
SliderBorder : 255,21,21
SliderTrackOverride : 0,0,0

[HitObjects]
184,144,1173,6,0,B|228:144|256:115|256:115|284:144|328:144,1,160,4|2,1:0|0:0,0:0:0:0:
404,192,2055,1,0,1:0:0:0:
328,240,2349,2,0,B|284:240|256:269|256:269|228:240|184:240,1,160,2|2,0:0|0:0,0:0:0:0:
108,192,3231,1,0,1:0:0:0:
184,144,3525,6,0,P|256:114|328:144,1,160,2|2,0:0|0:0,0:0:0:0:
404,96,4408,1,0,1:0:0:0:
480,144,4702,2,0,L|366:257,1,160,2|2,0:0|0:0,0:0:0:0:
256,115,5878,6,0,L|142:228,1,160,2|2,0:0|0:0,0:0:0:0:
80,290,6761,1,0,1:0:0:0:
18,229,7055,2,0,B|3:192|3:192|18:155,1,80,2|0,0:0|1:0,0:0:0:0:
80,94,7643,6,0,B|113:60|113:60|121:57|121:57|116:52|116:52|124:49|124:49|157:16,1,120,2|4,0:0|1:0,0:0:0:0:
220,78,8378,2,0,B|228:108|256:124|256:124|284:108|292:78,1,120,4|4,1:0|1:0,0:0:0:0:
388,172,9261,2,0,B|308:188|264:260|256:351|256:351|248:260|204:188|124:172,1,480,4|4,1:0|1:0,0:0:0:0:
300,40,11761,6,0,B|352:40|352:40|396:40|430:74,1,140,0|4,1:0|1:0,0:0:0:0:
212,40,12937,2,0,B|160:40|160:40|116:40|81:74,1,140,0|4,1:0|1:0,0:0:0:0:
36,292,14114,6,0,B|68:352|128:352|128:352|172:352,1,160,4|4,3:0|3:0,0:0:0:0:
256,324,14996,1,2,1:0:0:0:
341,352,15290,2,0,B|384:352|384:352|444:352|476:292,1,160,4|4,3:0|3:0,0:0:0:0:
328,192,16467,5,4,3:0:0:0:
256,140,16761,2,0,P|180:119|104:140,1,160,0|0,1:0|1:0,0:0:0:0:
32,192,17643,1,4,0:0:0:0:
104,244,17937,2,0,P|180:310|256:244,1,220,0|4,1:0|0:0,0:0:0:0:
328,296,19040,6,2,B|340:240|372:204|435:192|435:192|372:180|340:144|328:88,1,320,6|6,1:0|1:0,1:0:0:0:
504,154,20805,2,2,B|516:192|516:192|504:230,1,80,6|4,1:0|0:0,1:0:0:0:
350,244,21614,6,2,B|304:244|284:192|284:192|304:140|350:140,1,180,6|4,1:0|0:0,0:0:0:0:
188,192,22790,2,2,B|108:192,1,80,6|6,1:0|1:0,1:0:0:0:
28,231,23378,6,2,B|17:204|-15:192|-15:192|17:180|28:153,1,120,6|0,1:0|1:0,1:0:0:0:
73,76,24114,2,0,B|112:76|112:76|144:44,1,80,4|0,0:0|1:0,0:0:0:0:
203,109,24702,2,0,B|256:137|256:137|309:109,2,120,2|2|2,0:1|1:0|1:0,0:0:0:0:
256,40,25878,6,0,L|256:200,1,160,4|4,0:0|0:0,0:0:0:0:
216,280,26761,1,0,1:0:0:0:
176,360,27055,2,0,L|336:360,1,160,2|4,0:1|0:0,0:0:0:0:
296,280,27937,1,0,1:0:0:0:
335,199,28231,6,0,P|232:147|211:33,1,240,4|2,0:0|1:0,0:0:0:0:
300,33,29408,2,0,P|279:147|176:199,1,240,2|0,0:1|1:0,0:0:0:0:
216,280,30584,6,0,B|216:336|164:368|164:368|256:348|348:368|348:368|296:336|296:280,1,400,4|4,1:2|1:0,0:0:0:0:
448,192,32643,1,4,1:0:0:0:
296,104,33231,6,0,B|227:104|227:104|219:112|219:112|211:120|211:120|142:120,1,160,2|0,1:0|1:0,0:0:0:0:
73,175,34114,2,0,P|52:120|73:65,2,120,2|2|0,0:1|1:0|1:0,0:0:0:0:
3,230,35290,5,2,0:0:0:0:
256,16,36467,1,2,0:0:0:0:
509,230,37643,2,0,B|256:349|256:349|3:230,1,560,6|4,1:0|0:0,0:0:0:0:
256,192,39996,12,6,41173,1:0:0:0:
256,96,42202,6,0,B|209:96|209:96|201:100|201:100|201:92|201:92|193:96|193:96|146:96,1,120,4|2,1:2|1:2,0:0:0:0:
77,151,42937,2,0,P|56:96|77:41,2,120,4|4|2,3:0|1:2|1:2,0:0:0:0:
145,206,44114,1,4,3:0:0:0:
256,288,44555,6,0,B|303:288|303:288|311:284|311:284|311:292|311:292|319:288|319:288|366:288,1,120,4|2,1:2|1:2,0:0:0:0:
435,233,45290,2,0,P|456:288|435:343,2,120,4|4|2,0:0|1:2|1:2,0:0:0:0:
367,178,46467,1,4,0:0:0:0:
472,98,46908,6,0,B|440:54|396:54|396:54|367:54,1,120,4|2,1:2|1:2,0:0:0:0:
308,116,47643,2,0,B|284:136|256:145|256:145|228:136|204:116,2,120,4|4|2,0:0|1:2|1:2,0:0:0:0:
367,178,48820,1,4,0:0:0:0:
460,271,49261,2,0,P|256:342|52:271,1,440,4|2,1:2|1:2,0:0:0:0:
114,208,51173,1,2,1:2:0:0:
207,114,51614,6,0,P|256:85|305:114,1,120,4|2,1:2|1:2,0:0:0:0:
305,208,52349,2,0,P|256:237|207:208,2,120,4|4|2,0:0|1:2|1:2,0:0:0:0:
380,161,53525,1,4,0:0:0:0:
455,208,53820,1,2,1:2:0:0:
380,255,54114,6,0,P|369:293|380:331,2,80,4|2|4,1:2|1:2|0:0,0:0:0:0:
305,208,54996,1,2,1:2:0:0:
380,161,55290,2,0,P|401:106|380:51,2,120,4|4|2,1:2|1:2|1:2,0:0:0:0:
305,208,56467,6,0,B|272:208|256:179|256:179|240:208|207:208,2,120,4|4|2,1:2|0:0|1:2,0:0:0:0:
380,255,57643,1,4,1:2:0:0:
256,380,58231,1,4,0:0:0:0:
132,255,58820,2,0,P|256:89|380:255,1,480,4|2,1:2|1:2,0:0:0:0:
280,176,61025,6,0,B|256:231|256:231|232:176,1,120,4|2,1:2|1:2,0:0:0:0:
232,92,61761,2,0,B|256:37|256:37|280:92,2,120,4|4|2,0:0|1:2|1:2,0:0:0:0:
152,134,62937,1,4,0:0:0:0:
59,227,63378,6,0,B|99:267|99:267|107:270|107:270|146:309,1,120,4|2,1:2|1:2,0:0:0:0:
201,240,64114,2,0,B|226:224|226:224|286:224|286:224|311:240,2,120,4|4|2,0:0|1:2|1:2,0:0:0:0:
256,309,65290,1,4,0:0:0:0:
387,309,65731,6,0,B|418:263|418:263|425:259|425:259|459:212,1,120,4|2,1:2|1:2,0:0:0:0:
392,156,66467,2,0,B|422:110|422:110|430:106|430:106|463:59,2,120,4|4|2,0:0|1:2|1:2,0:0:0:0:
326,98,67643,2,0,B|303:98|291:82|291:82|279:98|256:98,1,80,4|2,0:0|1:2,0:0:0:0:
191,43,68231,6,0,P|79:192|191:341,1,400,4|6,0:0|1:2,0:0:0:0:
256,286,69996,1,4,0:0:0:0:
356,192,70437,6,0,B|389:158|389:158|397:155|397:155|392:150|392:150|400:147|400:147|433:114,1,120,4|2,1:2|1:2,0:0:0:0:
364,60,71173,2,0,B|337:49|325:17|325:17|313:49|286:60,2,120,4|4|2,0:0|1:2|1:2,0:0:0:0:
433,5,72349,1,4,0:0:0:0:
502,60,72643,1,2,1:2:0:0:
434,112,72937,6,0,L|377:169,1,80,4|2,1:2|1:2,0:0:0:0:
446,224,73525,2,0,L|389:280,1,80,4|2,0:0|1:2,0:0:0:0:
457,335,74114,2,0,B|436:372|392:372|392:372|350:372,2,120,4|4|2,1:2|1:2|1:2,0:0:0:0:
389,280,75290,5,4,1:2:0:0:
321,225,75584,2,0,P|300:170|321:115,1,120,2|0,1:2|0:0,0:0:0:0:
389,60,76320,2,0,L|189:60,1,200,0|4,0:0|0:0,0:0:0:0:
112,16,77349,1,2,1:2:0:0:
35,60,77643,5,4,1:2:0:0:
112,104,77937,2,0,B|112:156|112:156|116:164|116:164|120:172|120:172|120:224,2,120,2|0|4,1:2|0:0|0:0,0:0:0:0:
189,60,79114,2,0,P|256:23|323:60,1,160,2|2,1:2|1:2,0:0:0:0:
400,16,79996,5,4,1:2:0:0:
477,60,80290,2,0,L|363:172,1,160,2|2,1:2|1:2,0:0:0:0:
425,235,81173,2,0,L|311:347,1,160,4|8,1:2|0:0,0:0:0:0:
256,232,82202,6,0,P|86:192|256:152,1,480,4|4,0:0|1:2,0:0:0:0:
310,36,84408,2,0,B|350:192|350:192|311:347,1,320,8|0,0:0|1:0,0:0:0:0:
227,317,85878,5,6,1:0:0:0:
143,286,86173,2,0,B|100:279|71:313|71:313|86:271|59:238,1,160,0|2,1:0|1:0,0:0:0:0:
136,192,87055,1,2,0:1:0:0:
59,146,87349,2,0,B|86:112|71:70|71:70|100:104|143:98,1,160,0|2,1:0|1:0,0:0:0:0:
227,67,88231,5,2,0:1:0:0:
310,36,88525,2,0,L|350:192,1,160,2|2,1:0|1:0,0:0:0:0:
256,192,89408,1,4,0:0:0:0:
162,192,89702,2,0,L|201:347,1,160,0|0,1:0|1:0,0:0:0:0:
285,317,90584,5,2,0:1:0:0:
369,286,90878,2,0,B|411:279|440:313|440:313|425:271|452:238,1,160,0|2,1:0|1:0,0:0:0:0:
376,192,91761,1,2,0:1:0:0:
452,146,92055,2,0,B|425:112|440:70|440:70|411:104|369:98,1,160,0|2,1:0|1:0,0:0:0:0:
285,67,92937,5,2,0:1:0:0:
201,37,93231,2,0,B|121:37|121:37|75:102,1,160,2|2,1:0|1:0,0:0:0:0:
75,192,94114,1,4,0:0:0:0:
75,281,94408,2,0,B|121:347|121:347|201:347,1,160,0|0,1:0|1:0,0:0:0:0:
256,280,95290,5,6,1:0:0:0:
310,212,95584,2,0,P|245:169|208:98,1,160,0|2,1:0|1:0,0:0:0:0:
256,24,96467,1,2,0:1:0:0:
303,98,96761,2,0,P|266:169|201:212,1,160,0|2,1:0|1:0,0:0:0:0:
256,280,97643,5,2,0:1:0:0:
311,347,97937,2,0,B|391:347|391:347|436:281,1,160,2|2,1:0|1:0,0:0:0:0:
437,192,98819,1,4,0:0:0:0:
436,102,99114,2,0,B|391:37|391:37|311:37,1,160,0|0,1:0|1:0,0:0:0:0:
256,104,99996,6,0,B|216:104|216:104|187:132,1,80,2|0,0:1|1:0,0:0:0:0:
104,156,100584,2,0,B|104:176|89:192|89:192|104:208|104:228,1,80,4|2,0:0|1:0,0:0:0:0:
187,251,101173,2,0,B|216:280|216:280|256:280,1,80,2|0,0:1|1:0,0:0:0:0:
328,228,101761,2,0,B|328:208|343:192|343:192|328:176|328:156,1,80,4|2,0:0|1:0,0:0:0:0:
400,104,102349,6,0,B|400:84|385:68|385:68|400:52|400:32,1,80,2|0,0:1|0:0,0:0:0:0:
480,68,102937,2,0,B|492:113|492:113|498:120|498:120|490:122|490:122|496:128|496:128|508:174,2,120,4|2|4,0:0|0:1|0:0,0:0:0:0:
400,31,104114,1,4,0:0:0:0:
256,144,104702,6,0,P|140:192|256:240,2,320,4|4|6,1:0|0:0|1:0,0:0:0:0:
432,144,107643,2,0,B|452:180|481:192|481:192|452:204|432:240,1,140,2|2,1:0|1:0,0:0:0:0:
332,192,108525,1,2,1:0:0:0:
256,192,109408,12,4,111834,0:0:0:0:
