osu file format v14

[General]
AudioFilename: audio.mp3
AudioLeadIn: 0
PreviewTime: 204534
Countdown: 1
SampleSet: Soft
StackLeniency: 0.7
Mode: 0
LetterboxInBreaks: 0
WidescreenStoryboard: 1

[Editor]
DistanceSpacing: 1.3
BeatDivisor: 6
GridSize: 16
TimelineZoom: 2.8

[Metadata]
Title:Jump Up, Super Star!
TitleUnicode:Jump Up, Super Star!
Artist:The Super Mario Players feat.Kate Davis
ArtistUnicode:The Super Mario Players feat.Kate Davis
Creator:9Tag
Version:1-Up!
Source:Mario Odyssey
Tags:Cappy Pauline Ship Sky Hat
BeatmapID:1643501
BeatmapSetID:782697

[Difficulty]
HPDrainRate:6
CircleSize:4
OverallDifficulty:9
ApproachRate:9.3
SliderMultiplier:1.7
SliderTickRate:0.5

[Events]
//Background and Video events
0,0,"Super Mario Odyssey (Unoffical) - Copy.jpg",0,0
//Break Periods
//Storyboard Layer 0 (Background)
//Storyboard Layer 1 (Fail)
//Storyboard Layer 2 (Pass)
//Storyboard Layer 3 (Foreground)
//Storyboard Sound Samples

[TimingPoints]
858,294.117647058824,4,2,0,100,1,0
858,-142.857142857143,4,2,0,100,0,0
1446,-125,4,2,0,100,0,0
2034,-133.333333333333,4,2,0,100,0,0
2622,-125,4,2,0,100,0,0
3210,-117.647058823529,4,2,0,100,0,0
4975,-113.636363636364,4,2,0,100,0,0
8063,-117.647058823529,4,2,0,100,0,0
8995,-153.846153846153,4,2,0,100,0,0
10710,-666.666666666667,4,2,0,100,0,0
11446,-100,4,2,0,100,0,0
14975,-90.9090909090909,4,2,0,100,0,0
16446,-86.9565217391304,4,2,0,100,0,0
17181,-83.3333333333333,4,2,0,100,0,0
17475,-86.9565217391304,4,2,0,100,0,0
18407,-333.333333333333,4,2,0,100,0,0
18701,-47.6190476190476,4,2,0,100,0,1
18995,-333.333333333333,4,2,0,100,0,0
19289,-41.6666666666667,4,2,0,100,0,1
19583,-333.333333333333,4,2,0,100,0,0
19877,-36.3636363636364,4,2,0,100,0,1
20171,-333.333333333333,4,2,0,100,0,0
20465,-33.3333333333333,4,2,0,100,0,1
20710,-100,4,2,0,100,0,0
21348,-33.3333333333333,4,2,0,100,0,1
21740,-90.9090909090909,4,2,0,100,0,0
23505,-86.9565217391304,4,2,0,100,0,0
24877,-133.333333333333,4,2,0,100,0,0
25563,-100,4,2,0,100,0,0
29387,-90.9090909090909,4,2,0,100,0,0
31691,-83.3333333333333,4,2,0,100,0,0
32622,-86.9565217391304,4,2,0,100,0,0
32916,-117.647058823529,4,2,0,100,0,0
33210,-86.9565217391304,4,2,0,100,0,0
35858,-40,4,2,0,100,0,0
36152,-86.9565217391304,4,2,0,100,0,0
36887,-40,4,2,0,100,0,0
37132,-86.9565217391304,4,2,0,100,0,0
41887,-80,4,2,0,100,0,0

[Colours]
Combo1 : 255,203,47
Combo2 : 255,60,60
Combo3 : 28,255,130
Combo4 : 106,192,255

[HitObjects]
48,92,269,5,0,0:0:0:0:
89,70,367,1,0,0:0:0:0:
134,62,465,1,0,0:0:0:0:
180,69,563,1,0,0:0:0:0:
222,90,661,1,0,0:0:0:0:
254,123,759,1,0,0:0:0:0:
275,165,858,6,0,L|282:259,1,79.3333309122722,0|0,0:0|0:0,0:0:0:0:
383,325,1152,2,0,L|389:240,1,79.3333309122722,0|0,0:0|0:0,0:0:0:0:
415,108,1446,6,0,P|426:137|414:110,1,90.6666666666667,0|0,0:0|0:0,0:0:0:0:
274,132,1740,2,0,P|273:87|289:45,1,90.6666666666667,0|0,0:0|0:0,0:0:0:0:
415,108,2034,6,0,P|419:154|409:193,1,85.0000032424928,0|0,0:0|0:0,0:0:0:0:
320,301,2328,2,0,P|311:258|314:216,1,85.0000032424928,0|0,0:0|0:0,0:0:0:0:
345,100,2622,2,0,B|204:131|256:54|125:84,1,226.666666666667,0|0,0:0|0:0,0:0:0:0:
29,155,3210,6,0,B|23:197|23:197|36:289,1,96.3333351707459,0|0,0:0|0:0,0:0:0:0:
50,333,3505,1,0,0:0:0:0:
147,235,3701,1,0,0:0:0:0:
133,152,3799,2,0,B|125:98|125:98|131:56,1,96.3333351707459,0|0,0:0|0:0,0:0:0:0:
233,159,4093,2,0,B|227:201|227:201|234:254,1,96.3333351707459,0|0,0:0|0:0,0:0:0:0:
234,72,4387,6,0,B|346:59|336:160|458:152,1,240.833337926865,0|0,0:0|0:0,0:0:0:0:
259,156,4975,2,0,B|216:165|216:165|154:147|154:147|107:161,1,149.60000456543,0|0,0:0|0:0,0:0:0:0:
69,265,5416,5,0,0:0:0:0:
126,312,5514,2,0,L|274:319,1,124.666670471192,0|0,0:0|0:0,0:0:0:0:
300,231,5858,2,0,L|200:235,1,99.7333363769532,0|0,0:0|0:0,0:0:0:0:
157,145,6152,2,0,L|256:149,1,99.7333363769532,0|0,0:0|0:0,0:0:0:0:
389,151,6446,2,0,P|342:50|303:34,2,149.60000456543,0|0|0,0:0|0:0|0:0,0:0:0:0:
256,149,7328,5,0,0:0:0:0:
324,257,7524,1,0,0:0:0:0:
327,280,7622,1,0,0:0:0:0:
401,384,7818,1,0,0:0:0:0:
494,136,8063,6,0,L|370:144,1,120.416668963432,0|0,0:0|0:0,0:0:0:0:
324,148,8394,1,0,0:0:0:0:
274,154,8505,2,0,L|167:161,1,96.3333351707459,0|0,0:0|0:0,0:0:0:0:
74,168,8799,1,0,0:0:0:0:
74,168,8995,6,0,P|60:302|216:317,1,313.083319001516,0|0,0:0|0:0,0:0:0:0:
144,243,9975,5,0,0:0:0:0:
263,77,10122,1,0,0:0:0:0:
263,282,10269,1,0,0:0:0:0:
144,115,10416,1,0,0:0:0:0:
338,179,10563,1,0,0:0:0:0:
230,179,10710,6,0,L|214:232,1,55.2499983139039,0|0,0:0|0:0,0:0:0:0:
182,341,11446,2,0,P|258:374|339:354,1,170,0|0,0:0|0:0,0:0:0:0:
492,197,12034,5,0,0:0:0:0:
391,163,12230,2,0,L|333:182,1,56.6666666666667,0|0,0:0|0:0,0:0:0:0:
233,160,12524,1,0,0:0:0:0:
135,132,12622,2,0,B|50:99|95:46|2:19,2,170,0|0|0,0:0|0:0|0:0,0:0:0:0:
233,160,13358,1,0,0:0:0:0:
329,98,13505,1,0,0:0:0:0:
340,212,13652,2,0,P|432:252|456:328,1,170,0|0,0:0|0:0,0:0:0:0:
344,323,14093,6,0,P|271:345|241:344,1,85,0|0,0:0|0:0,0:0:0:0:
285,260,14387,2,0,P|219:224|199:204,1,85,0|0,0:0|0:0,0:0:0:0:
286,173,14681,2,0,P|266:110|267:84,1,85,0|0,0:0|0:0,0:0:0:0:
395,121,14975,2,0,B|431:190|404:220|377:250|413:321,1,187.000005706787,0|0,0:0|0:0,0:0:0:0:
277,234,15367,2,0,P|278:203|286:173,1,62.3333352355958,0|0,0:0|0:0,0:0:0:0:
310,59,15563,1,0,0:0:0:0:
159,253,15760,5,0,0:0:0:0:
167,215,15858,1,0,0:0:0:0:
310,59,16054,1,0,0:0:0:0:
275,68,16152,1,0,0:0:0:0:
230,153,16446,6,0,P|276:171|307:229,1,97.7500018644333,0|0,0:0|0:0,0:0:0:0:
397,333,16740,2,0,P|356:328|308:252,1,130.333335819244,0|0,0:0|0:0,0:0:0:0:
246,344,17034,1,0,0:0:0:0:
220,213,17181,2,0,B|230:154|274:138|292:135|347:119|347:36,1,203.999993774414,0|0,0:0|0:0,0:0:0:0:
132,136,17622,6,0,P|154:89|226:58,1,130.333335819244,0|0,0:0|0:0,0:0:0:0:
344,62,17916,2,0,P|322:109|248:142,1,130.333335819244,0|0,0:0|0:0,0:0:0:0:
182,238,18210,1,0,0:0:0:0:
222,58,18407,1,0,0:0:0:0:
363,183,18505,6,0,L|366:206,1,16.9999994812012,0|0,0:0|0:0,0:0:0:0:
308,241,18701,2,0,P|432:176|295:208,1,356.999989105225,0|0,0:0|0:0,0:0:0:0:
238,246,19093,6,0,L|235:223,1,16.9999994812012,0|0,0:0|0:0,0:0:0:0:
156,209,19289,2,0,P|308:210|167:271,1,407.999987548829,0|0,0:0|0:0,0:0:0:0:
85,245,19681,6,0,L|87:261,1,16.9999994812012,0|0,0:0|0:0,0:0:0:0:
25,328,19877,2,0,P|171:236|-1:241,1,467.500004458428,0|0,0:0|0:0,0:0:0:0:
261,235,20269,6,0,L|258:252,1,16.9999994812012,0|0,0:0|0:0,0:0:0:0:
326,315,20465,2,0,P|170:214|350:243,1,510.000019454957,0|0,0:0|0:0,0:0:0:0:
462,278,20858,5,0,0:0:0:0:
469,230,20956,1,0,0:0:0:0:
349,239,21152,5,0,0:0:0:0:
356,287,21250,1,0,0:0:0:0:
292,133,21348,6,0,P|436:323|238:189,1,680.000025939942,0|0,0:0|0:0,0:0:0:0:
186,65,21936,5,0,0:0:0:0:
155,54,22034,1,0,0:0:0:0:
237,189,22181,1,0,0:0:0:0:
268,178,22279,1,0,0:0:0:0:
346,42,22426,2,0,B|413:85|413:85|432:160|432:160|481:199,1,218.166673324585,0|0,0:0|0:0,0:0:0:0:
505,99,22916,5,0,0:0:0:0:
343,138,23063,2,0,B|298:160|304:214|304:214|310:266|255:299,1,187.000005706787,0|0,0:0|0:0,0:0:0:0:
208,205,23505,1,0,0:0:0:0:
40,140,23799,6,0,B|35:67|35:67|45:8,1,130.333335819244,0|0,0:0|0:0,0:0:0:0:
130,206,24093,2,0,B|135:133|135:133|125:76,1,130.333335819244,0|0,0:0|0:0,0:0:0:0:
35,269,24387,2,0,B|30:196|30:196|39:139,1,130.333335819244,0|0,0:0|0:0,0:0:0:0:
125,76,24681,1,0,0:0:0:0:
142,324,24877,2,0,L|322:334,1,170.000006484986,0|0,0:0|0:0,0:0:0:0:
218,75,25563,6,0,B|187:107|214:158|214:158|234:200|202:241,2,170,0|0|0,0:0|0:0|0:0,0:0:0:0:
426,99,26397,2,0,P|370:106|317:87,1,113.333333333333,0|0,0:0|0:0,0:0:0:0:
318,87,26691,2,0,P|313:158|340:223,1,141.666666666667,0|0,0:0|0:0,0:0:0:0:
340,223,27034,6,0,P|284:215|231:234,1,113.333333333333,0|0,0:0|0:0,0:0:0:0:
123,259,27328,2,0,P|182:255|235:230,1,113.333333333333,0|0,0:0|0:0,0:0:0:0:
396,142,27622,1,0,0:0:0:0:
317,87,27818,6,0,B|249:74|250:128|181:116,1,141.666666666667,0|0,0:0|0:0,0:0:0:0:
78,83,28210,2,0,L|84:180,1,85,0|0,0:0|0:0,0:0:0:0:
77,252,28505,2,0,L|82:167,1,85,0|0,0:0|0:0,0:0:0:0:
187,31,28799,2,0,L|181:128,1,85,0|0,0:0|0:0,0:0:0:0:
188,267,29093,2,0,L|182:182,1,85,0|0,0:0|0:0,0:0:0:0:
299,153,29387,6,0,P|374:138|338:221,1,187.000005706787,0|0,0:0|0:0,0:0:0:0:
309,256,29779,1,0,0:0:0:0:
249,273,29877,1,0,0:0:0:0:
188,267,29975,1,0,0:0:0:0:
133,237,30073,1,0,0:0:0:0:
93,190,30171,1,0,0:0:0:0:
75,131,30269,1,0,0:0:0:0:
221,92,30465,5,0,0:0:0:0:
219,141,30563,1,0,0:0:0:0:
248,273,30759,6,0,P|172:260|111:213,1,155.833338088989,0|0,0:0|0:0,0:0:0:0:
219,141,31152,1,0,0:0:0:0:
290,45,31299,1,0,0:0:0:0:
290,45,31397,1,0,0:0:0:0:
290,45,31495,1,0,0:0:0:0:
290,45,31593,1,0,0:0:0:0:
290,45,31691,2,0,B|378:138|308:209|308:209|236:284|292:369|292:369|277:339|280:298|311:278,1,441.999986511231,0|0,0:0|0:0,0:0:0:0:
440,135,32622,5,0,0:0:0:0:
208,140,32916,2,0,P|138:178|220:196,1,192.666670341492,0|0,0:0|0:0,0:0:0:0:
264,183,33406,1,0,0:0:0:0:
327,193,33504,1,0,0:0:0:0:
373,239,33602,1,0,0:0:0:0:
384,302,33700,1,0,0:0:0:0:
356,360,33799,6,0,B|254:375|258:295|153:325,1,195.500003728867,0|0,0:0|0:0,0:0:0:0:
58,213,34289,2,0,P|59:128|161:115,1,195.500003728867,0|0,0:0|0:0,0:0:0:0:
172,317,34681,2,0,P|158:254|190:200,1,130.333335819244,0|0,0:0|0:0,0:0:0:0:
252,132,34975,2,0,P|284:186|270:248,1,130.333335819244,0|0,0:0|0:0,0:0:0:0:
169,48,35269,6,0,P|152:92|155:123,1,65.1666679096222,0|0,0:0|0:0,0:0:0:0:
116,170,35465,2,0,P|133:214|130:245,1,65.1666679096222,0|0,0:0|0:0,0:0:0:0:
295,308,35858,6,0,P|315:177|253:43,1,283.333333333333,0|0,0:0|0:0,0:0:0:0:
169,48,36152,6,0,P|152:92|155:123,1,65.1666679096222,0|0,0:0|0:0,0:0:0:0:
116,170,36348,2,0,P|133:214|130:245,1,65.1666679096222,0|0,0:0|0:0,0:0:0:0:
180,284,36544,2,0,P|163:328|166:359,1,65.1666679096222,0|0,0:0|0:0,0:0:0:0:
249,171,36887,6,0,P|334:71|316:204,1,354.166666666667
250,232,37230,5,0,0:0:0:0:
186,265,37328,2,0,L|29:248,1,130.333335819244
8,181,37622,1,0,0:0:0:0:
173,143,37818,6,0,L|302:157,1,130.333335819244
332,236,38112,1,0,0:0:0:0:
359,316,38210,2,0,L|488:329,1,130.333335819244
457,232,38701,5,0,0:0:0:0:
441,169,38799,1,0,0:0:0:0:
402,116,38897,1,0,0:0:0:0:
348,82,38995,2,0,P|252:59|152:91,1,195.500003728867
125,138,39387,1,0,0:0:0:0:
129,202,39485,1,0,0:0:0:0:
171,250,39583,1,0,0:0:0:0:
234,264,39681,1,0,0:0:0:0:
384,270,39877,5,0,0:0:0:0:
317,36,40073,1,0,0:0:0:0:
234,264,40269,1,0,0:0:0:0:
435,129,40465,1,0,0:0:0:0:
192,120,40661,1,0,0:0:0:0:
384,270,40858,5,0,0:0:0:0:
398,207,40956,1,0,0:0:0:0:
384,144,41054,1,0,0:0:0:0:
346,92,41152,1,0,0:0:0:0:
290,60,41250,1,0,0:0:0:0:
225,55,41348,1,0,0:0:0:0:
164,76,41446,1,0,0:0:0:0:
198,255,41642,5,0,0:0:0:0:
246,202,41740,1,0,0:0:0:0:
164,76,41887,6,0,P|241:55|375:125,1,212.5
382,272,42328,2,0,L|379:319,1,35.4166666666667
