osu file format v14

[General]
AudioFilename: reptilia.mp3
AudioLeadIn: 0
PreviewTime: 85556
Countdown: 0
SampleSet: Soft
StackLeniency: 0.5
Mode: 0
LetterboxInBreaks: 0
WidescreenStoryboard: 0

[Editor]
DistanceSpacing: 1.5
BeatDivisor: 4
GridSize: 4
TimelineZoom: 1

[Metadata]
Title:Reptilia (Short ver.)
TitleUnicode:Reptilia (Short ver.)
Artist:The Strokes
ArtistUnicode:The Strokes
Creator:Dab
Version:Cold
Source:Room On Fire
Tags:
BeatmapID:1905421
BeatmapSetID:912104

[Difficulty]
HPDrainRate:5.5
CircleSize:4
OverallDifficulty:8
ApproachRate:9
SliderMultiplier:1.8
SliderTickRate:1

[Events]
//Background and Video events
0,0,"Untitled.jpg",0,0
//Break Periods
2,37615,42513
2,73697,78974
//Storyboard Layer 0 (Background)
//Storyboard Layer 1 (Fail)
//Storyboard Layer 2 (Pass)
//Storyboard Layer 3 (Foreground)
//Storyboard Layer 4 (Overlay)
//Storyboard Sound Samples

[TimingPoints]
575,379.806931476499,4,2,1,100,1,0
12728,-80,4,2,1,70,0,0
37036,-133.333333333333,4,2,1,70,0,0
49190,-100,4,2,1,70,0,0
60774,-80,4,2,1,85,0,0
73497,-100,4,2,1,70,0,0
79574,-200,4,2,1,70,0,0
84132,-133.333333333333,4,2,1,70,0,0
85651,-66.6666666666667,4,2,1,85,0,0
97805,-66.6666666666667,4,2,1,90,0,1
110054,-66.6666666666667,4,2,1,75,0,0

[Colours]
Combo1 : 97,99,167
Combo2 : 170,125,81
Combo3 : 202,189,98
Combo4 : 170,113,114

[HitObjects]
256,192,6651,12,0,12349,0:0:0:0:
123,205,12728,5,6,1:2:0:0:
173,115,12918,2,0,B|294:133,1,112.5,0|8,1:0|0:0,0:0:0:0:
269,20,13298,1,0,0:0:0:0:
354,193,13488,2,0,P|307:222|252:220,1,112.5,0|0,1:0|0:0,3:0:0:0:
96,110,13868,2,0,P|151:107|198:136,1,112.5,8|0,0:0|0:0,3:0:0:0:
122,220,14248,5,0,1:0:0:0:
239,334,14437,2,0,B|289:356|307:321|352:339,1,112.5,0|8,1:0|0:0,0:0:0:0:
215,232,14817,1,0,1:0:0:0:
380,263,15007,2,0,P|380:208|354:141,1,112.5,0|0,1:0|0:0,0:0:0:0:
215,232,15387,2,0,P|196:284|196:341,1,112.5,8|0,0:0|0:0,0:0:0:0:
361,382,15767,5,0,1:0:0:0:
215,232,15957,2,0,L|101:212,1,112.5,0|8,1:0|0:0,0:0:0:0:
239,112,16336,1,0,1:0:0:0:
297,277,16526,2,0,P|348:318|401:314,1,112.5,0|0,1:0|0:0,0:0:0:0:
466,168,16906,2,0,P|412:179|378:222,1,112.5,8|0,0:0|0:0,0:0:0:0:
471,264,17286,5,0,1:0:0:0:
336,366,17476,2,0,L|222:352,1,112.5,0|8,1:0|0:0,0:0:0:0:
330,220,17856,1,0,1:0:0:0:
224,353,18046,2,0,L|87:337,1,112.5,0|0,1:0|0:0,0:0:0:0:
0,213,18425,2,0,L|134:228,1,112.5,8|0,0:0|0:0,0:0:0:0:
245,267,18805,5,6,1:0:0:0:
116,157,18995,2,0,P|169:103|222:94,1,112.5,0|8,0:0|0:0,3:0:0:0:
283,11,19375,1,0,1:0:0:0:
203,197,19565,2,0,L|207:309,1,112.5,0|0,1:0|0:0,0:0:0:0:
356,190,19945,2,0,L|360:78,1,112.5,8|0,0:0|0:0,0:0:0:0:
492,206,20324,5,0,1:0:0:0:
203,197,20514,2,0,P|140:205|98:238,1,112.5,0|8,1:0|0:0,0:0:0:0:
287,278,20894,1,0,1:0:0:0:
278,106,21084,2,0,B|395:95,1,112.5,0|0,1:0|0:0,0:0:0:0:
150,144,21464,2,0,B|36:135,1,112.5,8|0,0:0|0:0,0:0:0:0:
23,304,21844,5,0,1:0:0:0:
217,227,22034,2,0,P|195:176|150:144,1,112.5,0|8,1:0|0:0,0:0:0:0:
23,304,22413,1,0,1:0:0:0:
182,359,22603,2,0,L|320:350,1,112.5,0|0,1:0|0:0,0:0:0:0:
368,213,22983,2,0,L|233:221,1,112.5,8|0,0:0|0:0,0:0:0:0:
409,95,23363,5,0,1:0:0:0:
445,308,23553,2,0,P|361:335|295:306,1,112.5,0|8,1:0|0:0,0:0:0:0:
449,201,23933,1,0,1:0:0:0:
339,330,24123,2,0,P|255:357|189:328,1,112.5,0|0,1:0|0:0,0:0:0:0:
116,230,24502,2,0,P|171:228|221:252,1,112.5,8|0,0:0|0:0,0:0:0:0:
385,248,24882,5,6,1:0:0:0:
226,174,25072,2,0,L|79:186,1,112.5,0|8,1:0|0:0,0:0:0:0:
21,279,25452,1,0,1:0:0:0:
78,93,25642,2,0,P|152:96|198:140,1,112.5,0|0,1:0|0:0,0:0:0:0:
106,295,26022,2,0,L|113:182,1,112.5,8|0,0:0|0:0,0:0:0:0:
235,66,26401,5,0,1:0:0:0:
342,216,26591,2,0,L|482:207,1,112.5,0|8,1:0|0:0,0:0:0:0:
407,73,26971,1,0,1:0:0:0:
235,66,27161,2,0,P|168:121|154:189,1,112.5,0|0,1:0|0:0,0:0:0:0:
296,273,27541,2,0,P|295:217|267:169,1,112.5,8|0,0:0|0:0,0:0:0:0:
62,189,27921,5,0,1:0:0:0:
208,238,28111,2,0,L|325:244,1,112.5,0|8,1:0|0:0,0:0:0:0:
158,142,28490,1,0,1:0:0:0:
262,329,28680,2,0,P|363:337|390:319,1,112.5,0|0,1:0|0:0,0:0:0:0:
473,158,29060,2,0,P|419:146|367:164,1,112.5,8|0,0:0|0:0,0:0:0:0:
424,257,29440,5,0,1:0:0:0:
262,329,29630,2,0,L|149:333,1,112.5,0|8,1:0|0:0,0:0:0:0:
298,200,30010,1,0,1:0:0:0:
397,347,30199,2,0,P|471:340|501:308,1,112.5,0|0,1:0|0:0,0:0:0:0:
414,144,30579,2,0,L|424:257,1,112.5,8|0,0:0|0:0,0:0:0:0:
473,70,30959,5,6,1:0:0:0:
321,169,31149,2,0,P|271:190|211:183,1,112.5,0|8,1:0|0:0,0:0:0:0:
254,92,31529,1,0,1:0:0:0:
312,269,31719,2,0,L|444:293,1,112.5,0|0,1:0|0:0,0:0:0:0:
506,142,32098,2,0,L|373:166,1,112.5,8|0,0:0|0:0,0:0:0:0:
254,92,32478,5,0,1:0:0:0:
81,133,32668,2,0,P|64:194|88:246,1,112.5,0|8,1:0|0:0,0:0:0:0:
151,53,33048,1,0,1:0:0:0:
200,214,33238,2,0,L|339:233,1,112.5,0|0,1:0|0:0,0:0:0:0:
112,291,33618,2,0,L|-22:309,1,112.5,8|0,0:0|0:0,0:0:0:0:
85,180,33998,5,0,1:0:0:0:
243,325,34187,2,0,P|304:358|376:333,1,112.5,0|8,1:0|0:0,0:0:0:0:
457,225,34567,1,0,1:0:0:0:
288,235,34757,2,0,B|232:248|228:215|178:222,1,112.5,0|0,1:0|0:0,0:0:0:0:
343,303,35137,2,0,P|376:234|353:179,1,112.5,8|0,0:0|0:0,0:0:0:0:
258,72,35517,5,0,1:0:0:0:
368,202,35707,2,0,L|478:221,1,112.5,0|8,1:0|0:0,0:0:0:0:
486,52,36086,1,0,1:0:0:0:
368,202,36276,2,0,P|321:237|237:221,1,112.5,0|0,1:0|0:0,0:0:0:0:
114,87,36656,2,0,P|179:76|233:113,1,112.5,8|0,0:0|0:0,0:0:0:0:
37,234,37036,6,0,B|34:294|34:294|45:316|45:316|43:370,1,135.000005149842,0|8,1:0|0:0,0:0:0:0:
347,309,43113,6,0,B|250:322|192:282|192:282|220:286|258:277,2,202.500007724762,0|0|8,1:0|1:0|0:0,0:0:0:0:
383,215,44632,2,0,P|448:311|422:385,2,202.500007724762,0|0|8,1:0|1:0|0:0,0:0:0:0:
250,246,46151,6,0,B|152:215|147:280|50:233,2,202.500007724762,0|0|8,1:0|1:0|0:0,0:0:0:0:
125,79,47671,2,0,P|55:90|128:146,2,202.500007724762,0|0|8,1:0|1:0|0:0,0:0:0:0:
75,245,49190,5,0,1:0:0:0:
75,245,49380,2,0,L|167:256,1,90,0|8,1:0|0:0,0:0:0:0:
253,154,49759,1,0,1:0:0:0:
253,154,49949,2,0,L|164:165,1,90,0|0,1:0|0:0,0:0:0:0:
235,319,50329,2,0,P|257:267|253:233,1,90,8|0,0:0|0:0,0:0:0:0:
145,80,50709,5,0,1:0:0:0:
145,80,50899,2,0,P|143:124|163:164,1,90,0|8,1:0|0:0,0:0:0:0:
230,103,51279,1,0,1:0:0:0:
230,103,51469,2,0,L|328:100,1,90,0|0,1:0|0:0,0:0:0:0:
406,191,51848,2,0,L|316:188,1,90,8|0,0:0|0:0,0:0:0:0:
196,178,52228,5,0,1:0:0:0:
196,178,52418,2,0,P|134:200|113:240,1,90,0|8,1:0|0:0,0:0:0:0:
203,349,52798,1,0,1:0:0:0:
203,349,52988,2,0,P|213:284|189:246,1,90,0|0,1:0|0:0,0:0:0:0:
51,269,53368,2,0,P|101:310|146:308,1,90,8|0,0:0|0:0,0:0:0:0:
316,178,53747,5,0,1:0:0:0:
316,178,53937,2,0,P|378:200|399:240,1,90,0|8,1:0|0:0,0:0:0:0:
309,349,54317,1,0,1:0:0:0:
309,349,54507,2,0,P|299:284|323:246,1,90,0|0,1:0|0:0,0:0:0:0:
461,269,54887,2,0,P|411:310|366:308,1,90,8|0,0:0|0:0,0:0:0:0:
229,301,55267,6,0,L|133:309,1,90,0|0,1:0|1:0,0:0:0:0:
274,219,55647,1,8,0:0:0:0:
325,300,55836,2,0,P|303:366|274:386,1,90,0|0,1:0|1:0,0:0:0:0:
274,219,56216,1,0,0:0:0:0:
418,301,56406,2,0,L|526:296,1,90,8|0,0:0|0:0,0:0:0:0:
438,216,56786,6,0,P|389:214|347:243,1,90,0|0,1:0|1:0,0:0:0:0:
418,301,57166,1,8,0:0:0:0:
509,170,57356,2,0,L|503:78,1,90,0|0,1:0|1:0,0:0:0:0:
512,245,57735,1,0,0:0:0:0:
388,146,57925,2,0,P|338:141|292:160,1,90,8|0,0:0|0:0,0:0:0:0:
238,312,58305,6,0,P|267:271|273:221,1,90,0|0,1:0|1:0,0:0:0:0:
175,230,58685,1,8,0:0:0:0:
38,321,58875,2,0,L|143:316,1,90,0|0,1:0|1:0,0:0:0:0:
80,232,59255,1,0,0:0:0:0:
274,232,59445,2,0,P|260:176|232:148,1,90,8|0,0:0|0:0,0:0:0:0:
98,68,59824,6,0,P|70:103|63:147,1,90,0|0,1:0|1:0,0:0:0:0:
178,28,60204,1,8,0:0:0:0:
256,73,60394,2,0,L|354:71,1,90,0|0,1:0|1:0,0:0:0:0:
427,31,60774,5,0,1:0:0:0:
498,157,60964,1,8,0:0:0:0:
216,213,61154,5,0,0:0:0:0:
216,213,61249,1,0,0:0:0:0:
216,213,61344,2,0,B|306:184|304:242|380:209,1,168.75,4|0,1:2|0:0,0:0:0:0:
337,141,61723,2,0,P|317:205|343:265,1,112.5,8|0,0:0|1:0,0:0:0:0:
445,278,62103,1,0,1:0:0:0:
281,318,62293,1,0,1:0:0:0:
416,102,62483,2,0,P|363:59|294:66,1,112.5,8|0,0:0|0:0,0:0:0:0:
120,258,62863,6,0,P|174:250|215:212,1,112.5,0|0,1:0|1:0,0:0:0:0:
127,33,63243,1,8,0:0:0:0:
138,153,63433,1,0,1:0:0:0:
337,141,63622,1,0,1:0:0:0:
324,274,63812,1,0,1:0:0:0:
244,68,64002,1,8,0:0:0:0:
58,266,64192,5,0,1:0:0:0:
58,266,64287,1,0,1:0:0:0:
58,266,64382,2,0,B|123:288|123:288|237:262,1,168.75,4|0,1:0|0:0,0:0:0:0:
130,205,64762,1,8,0:0:0:0:
220,345,64952,2,0,L|329:321,1,112.5,0|0,1:0|1:0,0:0:0:0:
484,251,65332,1,0,0:0:0:0:
326,192,65521,2,0,P|267:227|256:290,1,112.5,8|0,0:0|0:0,0:0:0:0:
484,251,65901,5,0,1:0:0:0:
334,271,66091,2,0,L|189:263,1,112.5,0|8,1:0|0:0,0:0:0:0:
173,171,66471,1,0,1:0:0:0:
409,223,66661,2,0,P|420:295|391:337,1,112.5,0|0,1:0|1:0,0:0:0:0:
263,184,67041,2,0,P|252:112|281:70,1,112.5,8|0,0:0|1:0,0:0:0:0:
456,130,67421,6,0,L|339:139,1,112.5,4|0,1:0|1:0,0:0:0:0:
364,44,67800,1,8,0:0:0:0:
323,237,67990,2,0,L|435:245,1,112.5,0|0,1:0|1:0,0:0:0:0:
256,160,68370,1,0,1:0:0:0:
258,309,68560,2,0,P|208:332|154:320,1,112.5,8|0,0:0|0:0,0:0:0:0:
132,141,68940,6,0,P|176:172|193:225,1,112.5,0|0,1:0|1:0,0:0:0:0:
54,329,69320,2,0,P|59:274|96:233,1,112.5,8|0,0:0|0:0,0:0:0:0:
258,309,69699,1,0,1:0:0:0:
96,233,69889,1,0,1:0:0:0:
258,309,70079,2,0,L|374:311,1,112.5,8|0,0:0|0:0,0:0:0:0:
457,164,70459,5,8,0:0:0:0:
336,232,70649,1,8,0:0:0:0:
337,93,70839,5,8,0:0:0:0:
456,303,71029,1,8,0:0:0:0:
458,24,71219,5,8,0:0:0:0:
336,232,71408,1,8,0:0:0:0:
217,22,71598,5,8,0:0:0:0:
457,164,71788,1,8,0:0:0:0:
216,162,71978,5,8,0:0:0:0:
458,24,72168,1,8,0:0:0:0:
216,301,72358,5,8,0:0:0:0:
217,22,72548,1,8,0:0:0:0:
336,232,72738,5,8,0:0:0:0:
96,92,72928,1,8,0:0:0:0:
337,93,73118,5,8,0:0:0:0:
95,231,73308,1,8,0:0:0:0:
457,164,73497,5,10,0:0:0:0:
457,164,79574,6,0,L|410:170,1,45,0|0,1:0|0:0,0:0:0:0:
325,97,79954,2,0,L|369:102,1,45,0|0,1:0|0:0,0:0:0:0:
325,221,80334,2,0,L|330:176,1,45,0|0,1:0|0:0,0:0:0:0:
458,45,80714,2,0,L|452:89,1,45,0|0,1:0|0:0,0:0:0:0:
380,297,81094,6,0,L|335:302,1,45,0|0,1:0|0:0,0:0:0:0:
215,269,81473,2,0,L|259:263,1,45,0|0,1:0|0:0,0:0:0:0:
417,379,81853,2,0,L|372:373,1,45,0|0,1:0|0:0,0:0:0:0:
181,190,82233,2,0,L|225:195,1,45,0|0,1:0|0:0,0:0:0:0:
40,365,82613,6,0,L|34:320,1,45,0|0,1:0|0:0,0:0:0:0:
139,217,82993,2,0,L|133:261,1,45,0|0,1:0|0:0,0:0:0:0:
18,230,83372,2,0,L|12:185,1,45,0|0,1:0|0:0,0:0:0:0:
155,87,83752,2,0,L|149:131,1,45,0|0,1:0|0:0,0:0:0:0:
216,322,84132,6,0,L|121:332,1,67.5000025749208,0|0,1:0|0:0,0:0:0:0:
18,230,84512,2,0,L|107:239,1,67.5000025749208,0|0,1:0|0:0,0:0:0:0:
258,62,84892,1,8,0:0:0:0:
233,95,84986,1,8,0:0:0:0:
223,135,85081,1,8,0:0:0:0:
228,176,85176,1,8,0:0:0:0:
247,212,85271,1,8,0:0:0:0:
279,239,85366,1,8,0:0:0:0:
318,253,85461,1,8,0:0:0:0:
359,252,85556,1,8,0:0:0:0:
397,235,85651,6,0,B|414:202|414:202|403:102,1,135.000005149842,6|0,1:0|0:0,0:0:0:0:
88,149,86031,1,8,0:0:0:0:
279,239,86221,1,0,1:0:0:0:
258,62,86411,1,0,1:0:0:0:
143,266,86601,1,0,1:0:0:0:
149,61,86791,5,8,0:0:0:0:
231,318,86981,2,0,P|306:326|354:289,1,135.000005149842,0|0,0:0|1:0,0:0:0:0:
237,124,87360,1,0,0:0:0:0:
143,361,87550,2,0,L|8:354,1,135.000005149842,8|0,0:0|1:0,0:0:0:0:
117,194,87930,5,0,1:0:0:0:
244,366,88120,1,0,1:0:0:0:
237,124,88310,1,8,0:0:0:0:
143,361,88500,1,0,0:0:0:0:
373,159,88690,6,0,P|280:206|271:236,1,135.000005149842,0|0,1:0|0:0,0:0:0:0:
456,279,89070,1,8,0:0:0:0:
237,124,89259,1,0,1:0:0:0:
356,349,89449,2,0,P|449:302|458:272,1,135.000005149842,0|0,1:0|1:0,0:0:0:0:
272,228,89829,1,8,0:0:0:0:
461,169,90019,1,0,0:0:0:0:
162,134,90209,5,0,1:0:0:0:
223,326,90399,1,0,0:0:0:0:
263,27,90589,5,8,0:0:0:0:
272,228,90779,1,0,0:0:0:0:
381,83,90969,5,0,1:0:0:0:
110,251,91158,1,0,0:0:0:0:
393,164,91348,5,8,0:0:0:0:
129,66,91538,1,0,0:0:0:0:
373,364,91728,6,0,B|408:322|408:322|402:241,1,135.000005149842,6|0,1:0|0:0,0:0:0:0:
219,152,92108,1,8,0:0:0:0:
474,197,92298,1,0,1:0:0:0:
198,252,92488,1,0,1:0:0:0:
238,53,92678,1,0,1:0:0:0:
320,237,92868,1,8,0:0:0:0:
107,117,93057,6,0,L|93:254,1,135.000005149842,0|0,0:0|1:0,0:0:0:0:
238,53,93437,1,0,0:0:0:0:
473,196,93627,2,0,L|460:62,1,135.000005149842,8|0,0:0|1:0,0:0:0:0:
238,53,94007,5,0,1:0:0:0:
380,197,94197,1,0,1:0:0:0:
351,27,94387,1,8,0:0:0:0:
266,273,94577,1,0,0:0:0:0:
75,113,94767,6,0,P|163:147|221:128,1,135.000005149842,0|0,1:0|0:0,0:0:0:0:
238,53,95146,1,8,0:0:0:0:
177,239,95336,1,0,1:0:0:0:
424,109,95526,2,0,P|357:103|299:135,1,135.000005149842,0|0,1:0|1:0,0:0:0:0:
431,289,95906,1,8,0:0:0:0:
177,239,96096,1,0,0:0:0:0:
377,208,96286,5,0,1:0:0:0:
295,330,96476,1,0,0:0:0:0:
299,134,96666,5,8,0:0:0:0:
375,354,96856,1,0,0:0:0:0:
387,121,97045,5,0,1:0:0:0:
217,347,97235,1,0,0:0:0:0:
203,70,97425,6,0,P|263:43|328:56,1,135.000005149842,8|0,0:0|0:0,0:0:0:0:
445,301,97805,5,14,0:0:0:0:
217,347,97995,1,0,1:0:0:0:
427,177,98185,5,8,0:0:0:0:
194,314,98375,1,0,1:0:0:0:
324,96,98565,5,8,0:0:0:0:
158,288,98755,1,0,1:0:0:0:
182,36,98944,5,8,0:0:0:0:
119,273,99134,1,0,1:0:0:0:
5,27,99324,5,8,0:0:0:0:
270,76,99514,1,0,1:0:0:0:
21,180,99704,5,8,0:0:0:0:
295,108,99894,1,0,1:0:0:0:
101,319,100084,5,8,0:0:0:0:
334,135,100274,1,0,1:0:0:0:
239,384,100464,5,8,0:0:0:0:
377,142,100654,1,0,1:0:0:0:
129,250,100844,5,8,0:0:0:0:
391,283,101033,1,0,1:0:0:0:
119,269,101223,5,8,0:0:0:0:
400,265,101413,1,0,1:0:0:0:
203,139,101603,5,8,0:0:0:0:
314,355,101793,1,0,1:0:0:0:
306,140,101983,5,8,0:0:0:0:
197,357,102173,1,0,1:0:0:0:
359,212,102363,5,8,0:0:0:0:
91,140,102553,1,0,1:0:0:0:
301,287,102743,5,8,0:0:0:0:
161,60,102932,1,0,1:0:0:0:
207,323,103122,5,8,0:0:0:0:
265,46,103312,1,0,1:0:0:0:
97,297,103502,5,8,0:0:0:0:
400,331,103691,1,0,1:0:0:0:
87,95,103882,5,8,0:0:0:0:
287,276,104072,1,0,1:0:0:0:
211,16,104262,5,8,0:0:0:0:
254,297,104452,1,0,1:0:0:0:
353,39,104642,5,8,0:0:0:0:
215,302,104832,1,0,1:0:0:0:
447,144,105021,5,8,0:0:0:0:
179,292,105211,1,0,1:0:0:0:
81,77,105401,5,8,0:0:0:0:
191,321,105591,1,0,1:0:0:0:
334,129,105781,5,8,0:0:0:0:
155,319,105971,1,0,1:0:0:0:
81,77,106161,5,8,0:0:0:0:
205,349,106351,1,0,1:0:0:0:
253,77,106541,5,8,0:0:0:0:
135,338,106731,1,0,1:0:0:0:
408,203,106920,6,0,L|382:54,1,135.000005149842,8|0,0:0|1:0,0:0:0:0:
116,357,107300,1,8,0:0:0:0:
266,59,107490,1,0,1:0:0:0:
360,340,107680,2,0,L|495:350,1,135.000005149842,8|0,0:0|1:0,0:0:0:0:
278,40,108060,5,8,0:0:0:0:
368,359,108250,1,0,1:0:0:0:
475,77,108440,6,0,B|414:68|414:68|336:79,1,135.000005149842,8|0,0:0|1:0,0:0:0:0:
107,341,108819,2,0,B|168:350|168:350|246:339,1,135.000005149842,8|0,0:0|1:0,0:0:0:0:
154,82,109199,2,0,P|139:157|177:219,1,135.000005149842,8|0,0:0|1:0,0:0:0:0:
464,235,109579,1,8,0:0:0:0:
238,138,109769,1,0,1:0:0:0:
107,341,109959,5,2,1:0:0:0:
256,192,110054,12,8,116036,0:0:0:0:
