osu file format v14

[General]
AudioFilename: audio.mp3
AudioLeadIn: 0
PreviewTime: 106624
Countdown: 0
SampleSet: Soft
StackLeniency: 0.2
Mode: 0
LetterboxInBreaks: 0
WidescreenStoryboard: 0

[Editor]
Bookmarks: 43482,52624,61767,70910,84624,89196,102910,106624,107482,125767,128767,141767,144053,157767,162339,180624,198910,217196,226339,235482,244624,262910,281196,299482,308624,326910,345196,358910,363482,377196,381767,384339
DistanceSpacing: 1.2
BeatDivisor: 4
GridSize: 32
TimelineZoom: 5.299997

[Metadata]
Title:El Gringo Loco
TitleUnicode:El Gringo Loco
Artist:The Speed Freak
ArtistUnicode:The Speed Freak
Creator:Naylicia
Version:Absurd Latincore
Source:
Tags:Hammerhead speed freak gringo loco dance spanish latino absurd naylicia
BeatmapID:3691860
BeatmapSetID:1800774

[Difficulty]
HPDrainRate:5
CircleSize:3.8
OverallDifficulty:9
ApproachRate:9.8
SliderMultiplier:2.3
SliderTickRate:1

[Events]
//Background and Video events
0,0,"wallhaven-pk7wkj.jpg",0,0
//Break Periods
//Storyboard Layer 0 (Background)
//Storyboard Layer 1 (Fail)
//Storyboard Layer 2 (Pass)
//Storyboard Layer 3 (Foreground)
//Storyboard Layer 4 (Overlay)
//Storyboard Sound Samples

[TimingPoints]
43482,285.714285714286,4,2,1,40,1,0
43482,-166.666666666667,4,2,1,60,0,0
44839,-166.666666666667,4,2,1,5,0,0
44910,-125,4,2,1,60,0,0
44946,-125,4,2,1,5,0,0
45196,-125,4,2,1,60,0,0
45232,-125,4,2,1,5,0,0
45482,-125,4,2,1,60,0,0
45517,-125,4,2,1,5,0,0
45767,-166.666666666667,4,2,1,60,0,0
47124,-166.666666666667,4,2,1,5,0,0
47196,-125,4,2,1,60,0,0
47232,-125,4,2,1,5,0,0
47482,-125,4,2,1,60,0,0
47517,-125,4,2,1,5,0,0
47767,-125,4,2,1,60,0,0
47803,-125,4,2,1,5,0,0
48053,-125,4,2,1,60,0,0
48089,-125,4,2,1,5,0,0
48339,-125,4,2,1,60,0,0
48374,-125,4,2,1,5,0,0
48624,-125,4,2,1,60,0,0
48660,-125,4,2,1,5,0,0
48910,-125,4,2,1,60,0,0
48946,-125,4,2,1,5,0,0
49196,-125,4,2,1,60,0,0
49232,-125,4,2,1,5,0,0
49482,-125,4,2,1,60,0,0
49517,-125,4,2,1,5,0,0
49767,-125,4,2,1,60,0,0
49803,-125,4,2,1,5,0,0
50053,-125,4,2,1,60,0,0
50089,-125,4,2,1,5,0,0
50339,-100,4,2,1,60,0,0
52553,-100,4,2,1,5,0,0
52624,-76.9230769230769,4,2,1,80,0,0
54910,-111.111111111111,4,2,1,80,0,0
56053,-66.6666666666667,4,2,1,80,0,0
57196,-100,4,2,1,80,0,0
57482,-66.6666666666667,4,2,1,80,0,0
57767,-58.8235294117647,4,2,1,80,0,0
58053,-100,4,2,1,80,0,0
58339,-66.6666666666667,4,2,1,80,0,0
58624,-58.8235294117647,4,2,1,80,0,0
59482,-100,4,2,1,80,0,0
60053,-66.6666666666667,4,2,1,80,0,0
60910,-50,4,2,1,80,0,0
61053,-100,4,2,1,80,0,0
61339,-50,4,2,1,80,0,0
61767,-100,4,2,1,80,0,0
63624,-66.6666666666667,4,2,1,80,0,0
64053,-50,4,2,1,80,0,0
65767,-83.3333333333333,4,2,1,80,0,0
66910,-50,4,2,1,80,0,0
67482,-50,4,2,1,80,0,0
68339,-40,4,2,1,80,0,0
68910,-66.6666666666667,4,2,1,80,0,0
69767,-111.111111111111,4,2,1,80,0,0
70910,-33.3333333333333,4,2,1,80,0,0
71196,-50,4,2,1,80,0,0
72053,-33.3333333333333,4,2,1,80,0,0
72339,-33.3333333333333,4,2,1,80,0,0
72482,-40,4,2,1,80,0,0
72624,-66.6666666666667,4,2,1,80,0,0
73196,-50,4,2,1,80,0,0
73482,-66.6666666666667,4,2,1,80,0,0
73624,-50,4,2,1,80,0,0
73767,-33.3333333333333,4,2,1,80,0,0
74624,-66.6666666666667,4,2,1,80,0,0
74910,-50,4,2,1,80,0,0
75053,-33.3333333333333,4,2,1,80,0,0
75767,-50,4,2,1,80,0,0
76624,-33.3333333333333,4,2,1,80,0,0
76910,-50,4,2,1,80,0,0
77767,-40,4,2,1,80,0,0
78053,-50,4,2,1,80,0,0
78339,-66.6666666666667,4,2,1,80,0,0
78624,-100,4,2,1,80,0,0
79696,-100,4,2,1,5,0,0
79767,-45.4545454545455,4,2,1,80,0,0
79982,-40,4,2,1,5,0,0
80053,-33.3333333333333,4,2,1,80,0,0
80339,-50,4,2,1,80,0,0
81196,-33.3333333333333,4,2,1,80,0,0
81482,-50,4,2,1,80,0,0
81767,-66.6666666666667,4,2,1,80,0,0
82339,-50,4,2,1,80,0,0
82624,-40,4,2,1,80,0,0
83053,-50,4,2,1,80,0,0
83196,-40,4,2,1,80,0,0
83482,-100,4,2,1,80,0,0
84053,-66.6666666666667,4,2,1,80,0,0
84624,-125,4,2,1,80,0,0
85196,-83.3333333333333,4,2,1,80,0,0
85410,-83.3333333333333,4,2,1,5,0,0
85482,-83.3333333333333,4,2,1,80,0,0
85696,-83.3333333333333,4,2,1,5,0,0
85767,-83.3333333333333,4,2,1,80,0,0
89196,-33.3333333333333,4,2,1,80,0,0
89767,-50,4,2,1,80,0,0
90339,-33.3333333333333,4,2,1,80,0,0
90624,-50,4,2,1,80,0,0
90910,-83.3333333333333,4,2,1,80,0,0
91196,-50,4,2,1,80,0,0
92053,-33.3333333333333,4,2,1,80,0,0
92339,-50,4,2,1,80,0,0
92624,-50,4,2,1,80,0,0
93767,-50,4,2,1,80,0,0
94053,-37.037037037037,4,2,1,80,0,0
94339,-40,4,2,1,80,0,0
94624,-50,4,2,1,80,0,0
95767,-33.3333333333333,4,2,1,80,0,0
95982,-33.3333333333333,4,2,1,5,0,0
96053,-50,4,2,1,80,0,0
97196,-33.3333333333333,4,2,1,80,0,0
97482,-66.6666666666667,4,2,1,80,0,0
98339,-33.3333333333333,4,2,1,80,0,0
98624,-50,4,2,1,80,0,0
98910,-40,4,2,1,80,0,0
99482,-33.3333333333333,4,2,1,80,0,0
99910,-50,4,2,1,80,0,0
100053,-25,4,2,1,80,0,0
100160,-25,4,2,1,5,0,0
100196,-25,4,2,1,80,0,0
100339,-33.3333333333333,4,2,1,80,0,0
100624,-83.3333333333333,4,2,1,80,0,0
100910,-40,4,2,1,80,0,0
103767,-200,4,2,1,80,0,0
104267,-200,4,2,1,5,0,0
104339,-142.857142857143,4,2,1,80,0,0
104839,-142.857142857143,4,2,1,5,0,0
104910,-111.111111111111,4,2,1,80,0,0
105410,-111.111111111111,4,2,1,5,0,0
106624,-111.111111111111,4,2,1,80,0,0
107482,-100,4,2,1,80,0,0
108910,-83.3333333333333,4,2,1,80,0,0
109339,-333.333333333333,4,2,1,80,0,0
109410,-333.333333333333,4,2,1,5,0,0
109482,-83.3333333333333,4,2,1,80,0,0
109624,-333.333333333333,4,2,1,80,0,0
109696,-333.333333333333,4,2,1,5,0,0
109767,-83.3333333333333,4,2,1,80,0,0
112624,-333.333333333333,4,2,1,80,0,0
112910,-90.9090909090909,4,2,1,80,0,0
113124,-90.9090909090909,4,2,1,5,0,0
113196,-90.9090909090909,4,2,1,80,0,0
114053,-83.3333333333333,4,2,1,80,0,0
114910,-50,4,2,1,80,0,0
115196,-100,4,2,1,80,0,0
115482,-66.6666666666667,4,2,1,80,0,0
116624,-83.3333333333333,4,2,1,80,0,0
120624,-71.4285714285714,4,2,1,80,0,0
121482,-200,4,2,1,80,0,0
122053,-83.3333333333333,4,2,1,80,0,0
125196,-166.666666666667,4,2,1,80,0,0
125767,-76.9230769230769,4,2,1,80,0,0
132624,-142.857142857143,4,2,1,80,0,0
133482,-76.9230769230769,4,2,1,80,0,0
137839,-76.9230769230769,4,2,1,5,0,0
137910,-76.9230769230769,4,2,1,80,0,0
137982,-76.9230769230769,4,2,1,5,0,0
138053,-76.9230769230769,4,2,1,80,0,0
138124,-76.9230769230769,4,2,1,5,0,0
138196,-76.9230769230769,4,2,1,80,0,0
138267,-76.9230769230769,4,2,1,5,0,0
138339,-76.9230769230769,4,2,1,80,0,0
141196,-125,4,2,1,80,0,0
141482,-55.5555555555556,4,2,1,80,0,0
142053,-100,4,2,1,80,0,0
142553,-100,4,2,1,5,0,0
142624,-100,4,2,1,80,0,0
143124,-100,4,2,1,5,0,0
143196,-100,4,2,1,80,0,0
144053,-71.4285714285714,4,2,1,80,0,0
146339,-55.5555555555556,4,2,1,80,0,0
146767,-71.4285714285714,4,2,1,80,0,0
151696,-71.4285714285714,4,2,1,5,0,0
151767,-71.4285714285714,4,2,1,80,0,0
151982,-71.4285714285714,4,2,1,5,0,0
152053,-71.4285714285714,4,2,1,80,0,0
152267,-71.4285714285714,4,2,1,5,0,0
152339,-71.4285714285714,4,2,1,80,0,0
152553,-71.4285714285714,4,2,1,5,0,0
152624,-250,4,2,1,80,0,0
153196,-71.4285714285714,4,2,1,80,0,0
156624,-125,4,2,1,80,0,0
157196,-250,4,2,1,80,0,0
158910,-200,4,2,1,80,0,0
159696,-200,4,2,1,5,0,0
159767,-142.857142857143,4,2,1,80,0,0
159982,-142.857142857143,4,2,1,5,0,0
160053,-100,4,2,1,80,0,0
161767,-142.857142857143,4,2,1,80,0,0
162339,-71.4285714285714,4,2,1,80,0,0
163482,-55.5555555555556,4,2,1,80,0,0
180553,-55.5555555555556,4,2,1,5,0,0
180624,-55.5555555555556,4,2,1,80,0,0
184482,-47.6190476190476,4,2,1,80,0,0
184624,-41.6666666666667,4,2,1,80,0,0
185196,-50,4,2,1,80,0,0
185910,-41.6666666666667,4,2,1,80,0,0
186339,-52.6315789473684,4,2,1,80,0,0
194053,-62.5,4,2,1,80,0,0
194339,-52.6315789473684,4,2,1,80,0,0
196624,-58.8235294117647,4,2,1,80,0,0
198910,-52.6315789473684,4,2,1,80,0,0
205482,-47.6190476190476,4,2,1,80,0,0
205767,-52.6315789473684,4,2,1,80,0,0
212624,-66.6666666666667,4,2,1,80,0,0
214910,-83.3333333333333,4,2,1,80,0,0
217196,-312.5,4,2,1,80,0,0
225196,-312.5,4,2,1,5,0,0
226339,-200,4,2,1,50,0,0
226767,-200,4,2,1,5,0,0
226839,-125,4,2,1,50,0,0
226982,-125,4,2,1,5,0,0
227053,-125,4,2,1,50,0,0
227196,-125,4,2,1,5,0,0
227267,-125,4,2,1,50,0,0
227482,-200,4,2,1,50,0,0
229053,-200,4,2,1,5,0,0
229124,-125,4,2,1,50,0,0
229267,-125,4,2,1,5,0,0
229339,-125,4,2,1,50,0,0
229482,-125,4,2,1,5,0,0
229553,-125,4,2,1,50,0,0
229767,-200,4,2,1,50,0,0
230196,-200,4,2,1,5,0,0
230267,-200,4,2,1,50,0,0
230482,-200,4,2,1,5,0,0
230589,-227.272727272727,4,2,1,50,0,0
230839,-200,4,2,1,5,0,0
230910,-125,4,2,1,50,0,0
231339,-125,4,2,1,5,0,0
231410,-125,4,2,1,50,0,0
231553,-125,4,2,1,5,0,0
231624,-125,4,2,1,50,0,0
231767,-125,4,2,1,5,0,0
231839,-125,4,2,1,50,0,0
231982,-125,4,2,1,5,0,0
232053,-111.111111111111,4,2,1,50,0,0
233339,-111.111111111111,4,2,1,5,0,0
233410,-111.111111111111,4,2,1,50,0,0
233624,-111.111111111111,4,2,1,5,0,0
233696,-142.857142857143,4,2,1,50,0,0
233839,-142.857142857143,4,2,1,5,0,0
233910,-200,4,2,1,50,0,0
234267,-200,4,2,1,5,0,0
235482,-100,4,2,1,70,0,0
237196,-71.4285714285714,4,2,1,70,0,0
237767,-100,4,2,1,70,0,0
239482,-71.4285714285714,4,2,1,70,0,0
240053,-100,4,2,1,70,0,0
241196,-71.4285714285714,4,2,1,70,0,0
241482,-100,4,2,1,70,0,0
244482,-100,4,2,1,5,0,0
244624,-71.4285714285714,4,2,1,70,0,0
245482,-62.5,4,2,1,70,0,0
247053,-71.4285714285714,4,2,1,70,0,0
248910,-62.5,4,2,1,70,0,0
249767,-83.3333333333333,4,2,1,70,0,0
252624,-111.111111111111,4,2,1,70,0,0
252910,-111.111111111111,4,2,1,50,0,0
253767,-83.3333333333333,4,2,1,70,0,0
257196,-100,4,2,1,70,0,0
257767,-125,4,2,1,70,0,0
258053,-90.9090909090909,4,2,1,70,0,0
260624,-90.9090909090909,4,2,1,100,0,0
261196,-90.9090909090909,4,2,1,50,0,0
261767,-90.9090909090909,4,2,1,60,0,0
262339,-90.9090909090909,4,2,1,70,0,0
262910,-50,4,2,1,90,0,0
263482,-58.8235294117647,4,2,1,90,0,0
263767,-50,4,2,1,90,0,0
266910,-45.4545454545455,4,2,1,90,0,0
267482,-50,4,2,1,90,0,0
271482,-200,4,2,1,90,0,0
271839,-200,4,2,1,5,0,0
271910,-200,4,2,1,90,0,0
271982,-200,4,2,1,5,0,0
272053,-50,4,2,1,90,0,0
275482,-45.4545454545455,4,2,1,90,0,0
275767,-55.5555555555556,4,2,1,90,0,0
276624,-62.5,4,2,1,90,0,0
280910,-111.111111111111,4,2,1,90,0,0
281196,-83.3333333333333,4,2,1,90,0,0
292339,-71.4285714285714,4,2,1,90,0,0
292624,-83.3333333333333,4,2,1,90,0,0
293624,-71.4285714285714,4,2,1,90,0,0
293910,-83.3333333333333,4,2,1,90,0,0
297196,-111.111111111111,4,2,1,90,0,0
299482,-111.111111111111,4,2,1,70,0,0
306339,-125,4,2,1,70,0,0
306839,-125,4,2,1,5,0,0
308624,-71.4285714285714,4,2,1,90,0,0
311196,-55.5555555555556,4,2,1,90,0,0
317767,-71.4285714285714,4,2,1,90,0,0
320053,-55.5555555555556,4,2,1,90,0,0
320910,-50,4,2,1,90,0,0
321767,-62.5,4,2,1,90,0,0
324624,-90.9090909090909,4,2,1,90,0,0
326624,-142.857142857143,4,2,1,90,0,0
326910,-71.4285714285714,4,2,1,90,0,1
329767,-58.8235294117647,4,2,1,90,0,1
330910,-45.4545454545455,4,2,1,90,0,1
335196,-71.4285714285714,4,2,1,90,0,1
338339,-55.5555555555556,4,2,1,90,0,1
342910,-83.3333333333333,4,2,1,90,0,0
345196,-71.4285714285714,4,2,1,90,0,0
345482,-100,4,2,1,90,0,0
346196,-71.4285714285714,4,2,1,90,0,0
353767,-55.5555555555556,4,2,1,90,0,0
354339,-71.4285714285714,4,2,1,90,0,0
354624,-100,4,2,1,90,0,0
354910,-71.4285714285714,4,2,1,90,0,0
358339,-62.5,4,2,1,90,0,0
358910,-100,4,2,1,50,0,0
360910,-71.4285714285714,4,2,1,50,0,0
361196,-90.9090909090909,4,2,1,50,0,0
362910,-142.857142857143,4,2,1,50,0,0
363196,-111.111111111111,4,2,1,50,0,0
363482,-71.4285714285715,4,2,1,90,0,1
375196,-83.3333333333333,4,2,1,90,0,1
375482,-100,4,2,1,90,0,1
375767,-142.857142857143,4,2,1,90,0,1
376053,-41.6666666666667,4,2,1,90,0,1
376339,-100,4,2,1,90,0,1
376624,-35.7142857142857,4,2,1,90,0,1
376910,-71.4285714285714,4,2,1,90,0,1
377196,-83.3333333333333,4,2,1,60,0,0
380624,-100,4,2,1,60,0,0
381196,-125,4,2,1,60,0,0
381696,-125,4,2,1,5,0,0
381767,-400,4,2,1,60,0,0
384339,-400,4,2,1,5,0,0
384482,-400,4,2,1,60,0,0
385482,-400,4,2,1,5,0,0
385672,-400,4,2,1,60,0,0

[Colours]
Combo1 : 92,190,237
Combo2 : 220,116,90
Combo3 : 232,215,96
Combo4 : 174,221,87

[HitObjects]
256,192,41196,12,0,43196,0:2:0:0:
332,83,43482,5,2,1:2:0:0:
340,91,43767,2,0,L|357:241,1,137.999995788574,0|8,1:2|0:2,0:2:0:0:
470,384,44339,1,0,0:2:0:0:
386,317,44482,1,0,0:2:0:0:
394,309,44624,2,0,L|288:320,1,103.499996841431,0|0,1:2|0:2,0:2:0:0:
201,372,44910,6,0,L|201:335,1,23,2|0,1:2|0:2,0:2:0:0:
268,220,45196,2,0,L|230:238,1,23,10|0,0:2|0:2,0:2:0:0:
104,244,45482,2,0,L|132:258,1,23,2|0,0:2|0:2,0:2:0:0:
261,214,45767,5,2,1:2:0:0:
27,103,46053,1,0,1:2:0:0:
267,79,46339,2,0,P|216:46|127:78,1,137.999995788574,8|0,0:2|0:2,0:2:0:0:
279,76,46767,1,8,0:2:0:0:
380,209,46910,2,0,P|338:204|304:149,1,103.499996841431,0|0,1:2|0:2,0:2:0:0:
374,77,47196,6,0,L|374:40,1,23,2|0,1:2|0:2,0:2:0:0:
473,131,47482,2,0,L|435:149,1,23,10|0,0:2|0:2,0:2:0:0:
463,244,47767,2,0,L|491:258,1,23,2|0,0:2|0:2,0:2:0:0:
361,64,48053,6,0,L|361:27,1,23,2|0,1:2|0:2,0:2:0:0:
283,179,48339,2,0,L|283:142,1,23,2|0,1:2|0:2,0:2:0:0:
449,252,48624,2,0,L|411:270,1,23,10|0,0:2|0:2,0:2:0:0:
298,329,48910,2,0,L|326:343,1,23,2|0,0:2|0:2,0:2:0:0:
160,214,49196,6,0,L|160:177,1,23,2|0,1:2|0:2,0:2:0:0:
161,363,49482,2,0,L|161:326,1,23,2|0,1:2|0:2,0:2:0:0:
258,240,49767,2,0,L|239:256,1,23,10|0,0:2|0:2,0:2:0:0:
70,323,50053,2,0,L|91:299,1,23,2|0,0:2|0:2,0:2:0:0:
440,126,50339,6,0,B|449:79|516:50|516:50|443:20|301:56|219:210|327:379|327:379|207:192|98:407|55:162|159:236,1,920,2|0,1:2|0:2,0:2:0:0:
256,192,51517,12,0,52553,0:2:0:0:
103,127,52624,6,0,B|84:102|50:96|50:96|123:75|159:40|159:40|150:98|182:181,3,298.999986312867,0|0|0|0,1:2|3:2|1:2|3:2,0:2:0:0:
314,320,53767,6,0,B|316:281|289:242|289:242|177:234|135:387,3,298.999986312867,0|0|0|0,1:0|3:0|1:0|3:0,0:0:0:0:
401,334,54910,6,0,P|444:317|505:341,1,103.499996841431,0|0,1:2|0:2,0:2:0:0:
278,212,55196,2,0,P|233:200|175:233,1,103.499996841431,0|0,3:2|0:2,0:2:0:0:
408,152,55482,6,0,L|417:49,1,103.499996841431,0|0,1:2|0:2,0:2:0:0:
237,278,55767,2,0,L|246:381,1,103.499996841431,0|0,3:2|0:2,0:2:0:0:
7,112,56053,6,0,B|86:72|135:91|181:125|182:163|83:106|70:208,1,258.75000987053,0|0,1:2|0:2,0:2:0:0:
0,106,56339,2,0,B|79:66|128:85|174:119|175:157|76:100|63:202,1,258.75000987053,0|0,3:2|0:2,0:2:0:0:
213,252,56624,1,0,1:2:0:0:
212,312,56696,1,0,0:2:0:0:
168,352,56767,1,0,0:2:0:0:
107,355,56839,1,0,0:2:0:0:
63,313,56910,2,0,P|20:287|42:213,1,86.2500032901765,0|0,3:2|0:2,0:2:0:0:
123,230,57053,2,0,P|153:201|195:204,1,86.2500032901765,0|0,0:2|0:2,0:2:0:0:
318,384,57196,5,0,1:0:0:0:
499,168,57339,6,0,L|401:159,1,57.5,0|0,0:2|0:2,0:2:0:0:
224,138,57482,2,0,P|240:184|294:210,1,86.2500032901765,0|0,3:2|0:2,0:2:0:0:
497,303,57624,2,0,P|468:261|411:246,1,86.2500032901765,0|0,0:2|0:2,0:2:0:0:
305,129,57767,2,0,B|345:113|359:79|359:79|352:335,1,293.2500055933,0|0,1:2|0:2,0:2:0:0:
312,369,58053,5,0,3:0:0:0:
123,238,58196,6,0,L|114:140,1,57.5,0|0,0:2|0:2,0:2:0:0:
267,128,58339,2,0,P|230:162|215:215,1,86.2500032901765,0|0,1:2|0:2,0:2:0:0:
68,351,58482,2,0,P|36:319|19:270,1,86.2500032901765,0|0,0:2|0:2,0:2:0:0:
0,185,58624,2,0,B|72:159|141:214|90:257|173:329|253:293,1,293.2500055933,0|0,3:2|0:2,0:2:0:0:
321,251,58910,5,0,1:2:0:0:
409,48,59053,1,0,0:2:0:0:
388,40,59124,1,0,0:2:0:0:
365,26,59196,2,0,B|382:57|378:91|378:91|355:120|348:156|348:156|260:109|199:220,1,293.2500055933,0|0,3:2|0:2,0:2:0:0:
173,260,59482,5,0,1:0:0:0:
51,45,59624,6,0,L|146:53,1,57.5,0|0,0:2|0:2,0:2:0:0:
274,59,59767,1,0,3:2:0:0:
274,59,59839,1,0,0:2:0:0:
274,59,59910,1,0,0:2:0:0:
58,234,60053,6,0,P|22:191|29:132,1,86.2500032901765,0|0,1:2|0:2,0:2:0:0:
44,65,60196,1,0,0:2:0:0:
206,246,60339,2,0,P|200:302|161:337,1,86.2500032901765,0|0,3:2|0:2,0:2:0:0:
123,382,60482,1,0,0:2:0:0:
145,132,60624,6,0,B|165:128|182:119|182:119|275:142|275:142|252:147|233:163,1,172.500006580353,2|0,1:2|0:2,0:2:0:0:
366,252,60839,1,2,0:2:0:0:
366,252,60910,2,0,P|296:251|312:190,1,115,2|0,0:2|0:2,0:2:0:0:
322,69,61053,2,0,L|344:-22,1,57.5,2|0,0:2|0:2,0:2:0:0:
206,246,61196,1,2,0:2:0:0:
499,196,61339,2,0,L|240:133,1,230,2|2,0:2|0:2,0:2:0:0:
128,28,61767,5,0,1:0:0:0:
141,40,61839,1,0,0:0:0:0:
152,54,61910,1,0,0:2:0:0:
165,72,61982,1,0,0:2:0:0:
176,91,62053,1,8,0:2:0:0:
183,112,62124,1,0,0:2:0:0:
187,134,62196,2,0,P|190:163|186:196,1,57.5,0|0,0:2|0:2,0:2:0:0:
287,207,62339,5,0,1:2:0:0:
284,229,62410,1,0,0:2:0:0:
280,251,62482,1,0,0:2:0:0:
278,274,62553,1,0,0:2:0:0:
302,303,62624,5,8,0:2:0:0:
271,314,62695,1,0,0:2:0:0:
240,325,62767,1,0,0:2:0:0:
210,335,62838,1,0,0:2:0:0:
189,373,62910,6,0,L|114:364,3,57.5,0|0|0|0,1:2|0:2|0:2|0:2,0:2:0:0:
5,205,63196,2,0,L|80:196,3,57.5,8|0|0|0,0:2|0:2|0:2|0:2,0:2:0:0:
93,26,63482,6,0,L|100:83,1,57.5,0|0,1:2|0:2,0:2:0:0:
148,147,63624,2,0,P|189:159|232:151,1,86.2500032901765,0|0,0:2|0:2,0:2:0:0:
303,0,63767,2,0,P|291:41|299:84,1,86.2500032901765,8|0,0:2|0:2,0:2:0:0:
368,257,63910,2,0,L|379:172,1,86.2500032901765,0|0,3:2|0:2,0:2:0:0:
489,81,64053,6,0,B|550:35|489:-24|424:-32|370:16|335:69|337:194|481:210,1,345,0|0,1:2|0:2,0:2:0:0:
213,246,64339,2,0,B|283:245|365:260|409:327|367:353|434:374|434:377|434:377|399:313|444:262,1,345,8|0,0:2|0:2,0:2:0:0:
409,174,64624,6,0,P|389:121|340:94,1,115,0|0,1:2|0:2,0:2:0:0:
268,338,64767,2,0,B|272:368|245:389|245:389|254:351|237:302,1,115,0|0,1:2|0:2,0:2:0:0:
116,186,64910,2,0,B|106:138|51:116|51:116|137:67|166:149|231:73|231:73|200:79|154:52,1,345,8|0,0:2|0:2,0:2:0:0:
85,19,65196,5,0,1:2:0:0:
74,16,65267,1,0,0:2:0:0:
64,14,65339,1,0,0:2:0:0:
54,12,65410,1,0,0:2:0:0:
11,47,65482,2,0,B|47:166|-11:197|33:314|33:314|27:255|83:218,1,345,8|0,0:2|0:2,0:2:0:0:
288,226,65767,6,0,P|270:190|205:178,1,68.9999978942872,0|0,1:2|0:2,0:2:0:0:
151,275,65910,2,0,P|121:300|126:367,1,68.9999978942872,0|0,1:2|0:2,0:2:0:0:
306,354,66053,1,8,3:0:0:0:
357,374,66124,1,8,3:0:0:0:
401,337,66196,1,8,3:0:0:0:
449,362,66267,1,8,3:0:0:0:
491,324,66339,5,0,1:0:0:0:
478,93,66482,6,0,P|475:139|462:162,1,68.9999978942872,0|0,0:2|0:2,0:2:0:0:
295,235,66624,2,0,P|278:192|280:165,1,68.9999978942872,8|0,0:2|0:2,0:2:0:0:
171,21,66767,1,0,0:2:0:0:
158,12,66839,1,0,0:2:0:0:
143,0,66910,2,0,B|85:34|86:141|239:191|242:-41|393:165,1,345,0|0,1:2|0:2,0:2:0:0:
422,15,67196,1,8,0:2:0:0:
389,4,67268,1,0,0:2:0:0:
357,20,67339,1,0,0:2:0:0:
180,130,67482,6,0,B|206:176|206:176|186:234,1,115,0|0,1:2|0:2,0:2:0:0:
100,374,67624,2,0,B|74:318|74:318|95:268,1,115,0|0,1:2|0:2,0:2:0:0:
306,245,67767,2,0,B|459:264|459:264|411:133|411:133|328:144,1,345,8|0,0:2|0:2,0:2:0:0:
300,0,68053,6,0,B|185:14,1,115,0|0,1:2|0:2,0:2:0:0:
208,210,68196,2,0,L|93:224,1,115,0|0,1:2|0:2,0:2:0:0:
65,127,68339,2,0,B|266:103|266:103|291:160|291:160|469:138,1,431.25,8|0,0:2|0:2,0:2:0:0:
472,296,68624,5,8,3:3:0:0:
399,297,68696,1,8,3:3:0:0:
333,268,68767,1,8,3:3:0:0:
291,208,68839,1,8,3:3:0:0:
290,135,68910,2,0,B|330:112|330:112|406:166|373:254,1,172.500006580353,8|0,0:3|0:2,0:2:0:0:
238,360,69196,5,0,1:2:0:0:
211,306,69267,1,0,1:2:0:0:
151,291,69339,1,0,1:2:0:0:
98,319,69410,1,0,1:2:0:0:
87,378,69482,2,0,L|74:266,1,86.2500032901765,0|0,1:2|0:2,0:2:0:0:
4,185,69624,1,0,0:2:0:0:
252,20,69767,5,2,1:2:0:0:
115,129,69982,1,2,0:2:0:0:
106,118,70053,2,0,P|139:111|160:145,1,51.7499984207154,2|0,0:2|0:2,0:2:0:0:
192,191,70196,2,0,P|222:208|282:119,1,155.249995262146,2|0,0:2|0:2,0:2:0:0:
295,113,70482,5,2,0:2:0:0:
169,40,70624,1,2,0:2:0:0:
319,268,70767,1,2,0:2:0:0:
470,39,70910,6,0,B|519:53|518:111|518:111|440:195|397:72|326:180|326:180|470:211|443:350|295:323,1,517.500019741059,4|0,1:2|0:2,0:2:0:0:
163,378,71196,6,0,P|172:318|246:279,1,115,8|0,0:2|0:2,0:2:0:0:
412,215,71339,2,0,B|464:273|378:340,1,115,0|0,0:2|0:2,0:2:0:0:
149,384,71482,2,0,P|105:293|194:187,1,230,0|0,1:2|0:2,0:2:0:0:
253,162,71696,1,0,0:2:0:0:
281,156,71767,1,8,0:2:0:0:
211,284,71910,2,0,P|165:243|178:189,1,115,0|0,0:2|0:2,0:2:0:0:
24,34,72053,6,0,P|220:131|362:384,1,517.500019741059,0|0,1:2|0:2,0:2:0:0:
226,384,72339,6,0,P|288:345|314:236,1,172.500006580353,8|0,0:2|0:2,0:2:0:0:
427,0,72482,2,0,P|353:40|337:122,1,143.75,0|0,0:2|0:2,0:2:0:0:
414,249,72624,6,0,P|394:189|331:136,1,86.2500032901765,0|0,1:2|0:2,0:2:0:0:
214,192,72767,2,0,P|246:146|297:118,1,86.2500032901765,0|0,0:2|0:2,0:2:0:0:
433,100,72910,2,0,P|370:86|304:133,1,86.2500032901765,8|0,0:2|0:2,0:2:0:0:
301,206,73053,2,0,P|317:266|388:305,1,86.2500032901765,0|0,0:2|0:2,0:2:0:0:
300,19,73196,6,0,B|242:28|242:28|201:97,1,115,2|0,1:2|0:2,0:2:0:0:
45,285,73339,1,0,0:2:0:0:
88,322,73410,1,0,0:2:0:0:
145,310,73482,2,0,L|155:193,1,86.2500032901765,10|0,0:2|0:2,0:2:0:0:
0,64,73624,2,0,B|56:79|56:79|90:151,1,115,2|0,1:2|0:2,0:2:0:0:
145,310,73767,2,0,B|102:388|7:363|7:363|178:260|-23:138|215:50,1,517.500019741059,2|0,1:2|0:2,0:2:0:0:
340,135,74053,2,0,B|418:92|393:-3|393:-3|290:168|168:-33|80:205,1,517.500019741059,8|0,0:2|0:2,0:2:0:0:
77,244,74339,5,0,1:2:0:0:
58,242,74410,1,0,0:2:0:0:
36,270,74482,1,0,0:2:0:0:
19,269,74553,1,0,0:2:0:0:
0,316,74624,2,0,P|59:340|94:312,1,86.2500032901765,8|0,0:2|0:2,0:2:0:0:
177,236,74767,2,0,P|212:211|253:218,1,86.2500032901765,0|0,0:2|0:2,0:2:0:0:
417,278,74910,6,0,B|432:316|411:344|411:344|410:310|386:279,1,115,0|0,1:2|0:2,0:2:0:0:
231,99,75053,2,0,B|221:74|236:27|236:27|195:55|197:115,1,172.500006580353,0|0,1:2|0:2,0:2:0:0:
73,323,75196,2,0,B|41:351|-10:358|-10:358|458:338,1,517.500019741059,8|0,0:2|0:2,0:2:0:0:
475,224,75482,6,0,B|46:207|46:207|134:148,1,517.500019741059,4|0,1:2|0:2,0:2:0:0:
287,48,75767,6,0,L|134:188,1,115,8|0,0:2|0:2,0:2:0:0:
28,223,75910,2,0,L|235:231,1,115,0|0,0:2|0:2,0:2:0:0:
239,234,76053,1,0,1:2:0:0:
126,78,76196,1,0,1:2:0:0:
25,231,76339,6,0,B|60:278|60:278|124:257,1,115,8|0,0:2|0:2,0:2:0:0:
249,384,76482,2,0,P|294:351|299:295,1,115,0|0,0:2|0:2,0:2:0:0:
439,66,76624,6,0,P|231:147|70:393,1,517.500019741059,0|0,1:2|0:2,0:2:0:0:
382,339,76910,6,0,P|438:330|479:292,1,115,8|0,0:2|0:2,0:2:0:0:
174,7,77053,2,0,P|135:49|127:105,1,115,0|0,0:2|0:2,0:2:0:0:
392,251,77196,5,0,1:2:0:0:
306,135,77339,1,0,1:2:0:0:
283,372,77482,2,0,B|3:352|3:352|56:344|102:303,1,345,8|0,0:2|0:2,0:2:0:0:
139,104,77767,6,0,B|182:76|191:18|191:18|221:267|221:267|231:212|260:192,1,431.25,2|0,1:2|0:2,0:2:0:0:
379,351,78053,2,0,P|360:297|311:271,1,115,10|0,0:2|0:2,0:2:0:0:
123,189,78196,2,0,P|69:156|66:71,1,115,10|0,0:2|0:2,0:2:0:0:
260,0,78339,6,0,P|219:34|212:87,1,86.2500032901765,2|0,1:2|0:2,0:2:0:0:
252,199,78482,2,0,P|286:239|339:246,1,86.2500032901765,2|0,1:2|0:2,0:2:0:0:
500,62,78624,6,0,P|448:48|401:73,1,57.5,10|0,0:2|0:2,0:2:0:0:
347,97,78767,2,0,P|333:148|358:195,1,57.5,2|0,1:2|0:2,0:2:0:0:
474,297,78910,6,0,P|487:256|458:217,1,57.5,2|0,0:2|0:2,0:2:0:0:
452,213,79053,1,0,3:2:0:0:
449,195,79124,1,0,3:2:0:0:
447,178,79196,1,0,3:2:0:0:
444,160,79267,1,0,3:2:0:0:
442,143,79339,1,0,3:2:0:0:
181,306,79482,6,0,B|155:343|155:343|296:315,1,172.5,2|0,3:2|0:2,0:2:0:0:
370,309,79767,2,0,B|422:383|422:383|136:326,1,379.500011581421,2|0,3:2|0:2,0:2:0:0:
70,168,80053,6,0,B|-6:88|-6:88|321:159|321:159|351:85,1,517.500019741059,4|0,1:2|0:2,0:2:0:0:
400,31,80339,6,0,P|325:16|270:97,1,115,8|0,0:2|0:2,0:2:0:0:
153,202,80482,2,0,L|278:231,1,115,0|0,0:2|0:2,0:2:0:0:
410,369,80624,2,0,P|369:277|467:251,1,230,0|0,1:2|0:2,0:2:0:0:
496,177,80839,5,0,0:2:0:0:
496,177,80910,2,0,P|441:158|359:182,1,115,8|0,0:2|0:2,0:2:0:0:
294,33,81053,2,0,P|250:71|229:154,1,115,0|0,0:2|0:2,0:2:0:0:
88,185,81196,6,0,B|57:147|-4:138|-4:138|97:222|92:332|92:332|176:243|275:286,1,517.500019741059,0|0,1:2|0:2,0:2:0:0:
385,166,81482,6,0,P|419:194|427:290,1,115,8|0,0:2|0:2,0:2:0:0:
211,375,81624,2,0,P|218:319|259:280,1,115,0|0,0:2|0:2,0:2:0:0:
462,340,81767,6,0,P|417:341|351:267,1,86.2500032901765,0|0,1:2|0:2,0:2:0:0:
327,231,81910,2,0,P|302:195|299:153,1,86.2500032901765,0|0,1:2|0:2,0:2:0:0:
209,299,82053,6,0,P|187:258|223:166,1,86.2500032901765,8|0,0:2|0:2,0:2:0:0:
216,129,82196,2,0,P|238:88|335:74,1,86.2500032901765,0|0,0:2|0:2,0:2:0:0:
489,126,82339,6,0,B|438:119|446:171|362:165,1,115,2|0,1:2|0:2,0:2:0:0:
122,153,82482,1,2,2:0:0:0:
132,108,82553,1,2,2:0:0:0:
157,82,82624,2,0,B|293:-25|333:193|466:146|477:-24|304:-161|310:223|185:-52,1,431.25,10|0,0:2|0:2,0:2:0:0:
408,0,82910,1,2,1:2:0:0:
54,200,83053,6,0,P|97:235|153:228,1,115,2|0,1:2|0:2,0:2:0:0:
269,341,83196,2,0,B|332:300|287:218|287:218|392:190|511:274|465:405,1,431.25,10|0,0:2|0:2,0:2:0:0:
392,381,83482,6,0,P|377:356|372:329,1,57.5,0|0,1:2|0:2,0:2:0:0:
387,244,83624,1,0,0:2:0:0:
390,230,83696,1,0,0:2:0:0:
394,214,83767,2,0,L|298:200,1,57.5,0|0,0:2|0:2,0:2:0:0:
265,156,83910,2,0,L|180:169,1,57.5,0|0,0:2|0:2,0:2:0:0:
430,43,84053,5,0,0:2:0:0:
119,167,84196,2,0,L|205:154,1,86.2500032901765,0|0,0:2|0:2,0:2:0:0:
202,273,84339,2,0,L|372:297,1,172.500006580353,0|0,0:2|0:2,0:2:0:0:
479,14,84624,6,0,P|394:-13|314:148,1,276,0|0,3:2|0:2,0:2:0:0:
460,322,85196,6,0,P|467:255|342:203,1,206.999993682861,0|0,3:2|0:2,0:2:0:0:
281,239,85482,2,0,P|335:278|443:196,1,206.999993682861,0|0,3:2|0:2,0:2:0:0:
454,123,85767,5,0,3:2:0:0:
479,14,85910,1,0,3:2:0:0:
444,123,86053,1,8,0:3:0:0:
349,30,86196,5,0,0:2:0:0:
349,30,86267,1,0,0:2:0:0:
349,30,86339,2,0,L|251:39,1,68.9999978942872,0|0,3:2|0:2,0:2:0:0:
267,30,86482,2,0,L|198:37,1,68.9999978942872,0|0,3:2|0:2,0:2:0:0:
163,139,86624,2,0,P|108:225|137:277,1,137.999995788574,8|0,0:3|0:2,0:2:0:0:
288,159,86910,5,0,0:2:0:0:
192,218,87053,1,0,0:2:0:0:
106,43,87196,2,0,P|76:57|53:96,1,68.9999978942872,8|0,0:3|0:2,0:2:0:0:
55,173,87339,1,0,0:3:0:0:
55,173,87410,1,8,0:3:0:0:
55,173,87482,2,0,L|62:256,1,68.9999978942872,0|0,0:3|0:2,0:2:0:0:
54,255,87624,2,0,L|61:338,1,68.9999978942872,0|0,3:2|0:2,0:2:0:0:
199,323,87767,5,2,0:2:0:0:
233,316,87839,1,2,0:2:0:0:
266,309,87910,1,2,0:2:0:0:
300,298,87982,1,2,0:2:0:0:
340,314,88053,5,0,0:2:0:0:
512,253,88196,1,0,0:2:0:0:
381,165,88339,2,0,P|338:158|286:184,1,68.9999978942872,0|0,0:2|0:2,0:2:0:0:
303,157,88482,2,0,P|260:164|208:138,1,68.9999978942872,0|0,0:2|0:2,0:2:0:0:
396,269,88624,1,0,0:2:0:0:
409,271,88696,1,0,0:2:0:0:
444,289,88767,5,0,0:2:0:0:
457,253,88839,1,0,0:2:0:0:
445,219,88910,1,0,0:2:0:0:
477,183,88982,1,0,0:2:0:0:
436,144,89053,1,0,0:2:0:0:
485,108,89124,1,0,0:2:0:0:
441,65,89196,6,0,B|359:36|234:99|279:256|100:351|-43:185,1,517.500019741059,4|0,1:2|0:2,0:2:0:0:
25,74,89482,2,0,P|156:10|124:154,1,345.000013160706,8|0,0:0|0:0,0:0:0:0:
118,344,89767,2,0,L|94:-6,1,345,0|0,1:2|0:2,0:2:0:0:
307,44,90053,6,0,L|232:131,1,115,8|0,0:2|0:2,0:2:0:0:
170,316,90196,2,0,B|118:344|118:344|56:323,1,115,0|0,0:2|0:2,0:2:0:0:
0,94,90339,6,0,P|185:121|351:400,1,517.500019741059
502,378,90624,6,0,P|452:351|429:298,1,115,8|0,3:2|0:2,3:2:0:0:
375,104,90767,2,0,P|380:46|420:7,1,115,0|0,0:2|0:2,0:2:0:0:
512,192,90910,2,0,P|457:180|407:207,1,68.9999978942872,0|0,1:2|0:2,0:2:0:0:
342,236,91053,2,0,P|286:245|237:217,1,68.9999978942872,0|0,0:2|0:2,0:2:0:0:
134,71,91196,1,8,0:3:0:0:
182,40,91267,1,8,0:3:0:0:
236,59,91339,1,8,0:3:0:0:
287,33,91410,1,8,0:3:0:0:
341,53,91482,5,2,1:2:0:0:
76,51,91624,1,2,0:2:0:0:
360,205,91767,2,0,B|384:209|411:190|411:190|409:158|381:142,1,115,10|0,0:2|0:2,0:2:0:0:
220,80,91910,2,0,P|163:94|88:128,1,115,2|0,0:2|0:2,0:2:0:0:
37,374,92053,6,0,P|233:215|505:279,1,517.500019741059,2|0,1:2|0:2,0:2:0:0:
418,381,92339,2,0,L|446:331,6,57.5,8|0|0|0|0|0|0,0:2|0:2|0:2|0:2|0:2|0:2|0:2,0:2:0:0:
335,340,92624,6,0,B|360:290|360:290|327:62|327:62|369:-1,1,345,0|0,1:2|0:2,0:2:0:0:
418,84,92910,6,0,P|458:55|520:99,1,115,8|0,0:2|0:2,0:2:0:0:
265,277,93053,2,0,P|225:306|163:262,1,115,8|0,0:2|0:2,0:2:0:0:
43,69,93196,1,0,1:2:0:0:
98,28,93267,1,0,1:2:0:0:
165,45,93339,1,0,1:2:0:0:
48,340,93482,1,8,0:2:0:0:
48,340,93767,6,0,P|102:215|271:318,1,345,4|0,1:2|0:2,0:2:0:0:
35,351,94053,2,0,B|0:158|217:123|273:208|310:283|270:368,1,465.750001776695,8|0,0:2|0:2,0:2:0:0:
428,362,94339,2,0,B|441:408|387:408|347:358|345:319|410:288|419:258|458:267|521:308|571:188|506:102|437:78|366:133,1,431.25,0|0,1:2|0:2,0:2:0:0:
441,31,94624,6,0,P|381:36|342:94,1,115,8|0,0:2|0:2,0:2:0:0:
246,273,94767,2,0,P|196:246|179:192,1,115,0|0,0:2|0:2,0:2:0:0:
195,15,94910,6,0,P|233:62|166:74,1,115,0|0,1:2|0:2,0:2:0:0:
63,173,95053,2,0,P|24:125|91:113,1,115,0|0,0:2|0:2,0:2:0:0:
209,25,95196,6,0,P|247:72|180:84,1,115,8|0,0:2|0:2,0:2:0:0:
77,183,95339,2,0,P|38:135|105:123,1,115,0|0,0:2|0:2,0:2:0:0:
344,200,95482,1,0,1:2:0:0:
73,12,95624,1,0,1:2:0:0:
69,316,95767,6,0,B|19:328|0:372|0:372|-30:236|82:186|82:186|134:304|291:263,1,517.500019741059,8|0,0:2|0:2,0:2:0:0:
352,60,96053,6,0,B|320:66|233:151|305:221|342:186|419:293|308:362|277:366,1,345,2|0,1:2|0:2,0:2:0:0:
399,148,96339,6,0,P|461:157|397:293,1,230,10|2,0:2|0:2,0:2:0:0:
262,280,96553,5,0,0:2:0:0:
246,271,96624,2,0,P|200:258|114:267,1,115,2|0,1:2|0:2,0:2:0:0:
0,224,96767,2,0,P|44:187|97:167,1,115,2|0,1:2|0:2,0:2:0:0:
126,54,96910,1,10,0:2:0:0:
126,54,96982,1,0,0:2:0:0:
126,54,97053,2,0,P|179:74|223:110,1,115,10|0,0:2|0:2,0:2:0:0:
460,348,97196,6,0,B|461:324|436:301|394:310|394:310|357:309|312:261|344:223|411:213|442:222,1,230.000008773804,2|0,0:2|0:2,0:2:0:0:
405,216,97339,2,0,B|405:239|430:262|472:253|472:253|509:254|553:302|522:340|455:350|424:341,1,230.000008773804,2|0,0:2|0:2,0:2:0:0:
442,357,97482,5,2,0:2:0:0:
272,309,97624,2,0,P|262:257|291:202,1,86.2500032901765,0|0,0:2|0:2,0:2:0:0:
415,73,97767,5,0,1:2:0:0:
415,73,98053,1,8,0:2:0:0:
415,73,98339,6,0,B|244:56|244:56|215:44|215:44|53:26|53:26|35:41|35:41|99:48|99:48|137:114,1,517.500019741059,4|0,1:2|0:2,0:2:0:0:
170,206,98624,6,0,L|284:217,1,115,8|0,0:2|0:2,0:2:0:0:
440,64,98767,2,0,L|325:52,1,115,0|0,0:2|0:2,0:2:0:0:
255,384,98910,2,0,B|363:406|454:294|386:180|386:180|416:263|327:311,1,431.25,0|0,1:2|0:2,0:2:0:0:
245,383,99196,6,0,P|194:362|166:272,1,143.75,8|0,0:2|0:2,0:2:0:0:
0,250,99339,2,0,P|-7:195|56:126,1,143.75,0|0,0:2|0:2,0:2:0:0:
364,10,99482,2,0,B|387:214|162:210|274:110|15:87|-12:297,1,517.500019741059,0|0,1:2|0:2,0:2:0:0:
66,343,99767,6,0,P|101:244|215:253,1,172.500006580353,8|0,0:2|0:2,0:2:0:0:
214,72,99910,2,0,P|280:95|298:172,1,115,0|0,0:2|0:2,0:2:0:0:
409,291,100053,6,0,B|447:286|447:286|480:295|480:295|403:304|403:304|391:299|391:299|319:307,1,230,0|0,1:2|0:2,0:2:0:0:
224,316,100196,2,0,B|186:311|186:311|153:320|153:320|230:329|230:329|242:324|242:324|314:332,1,230,0|0,0:2|0:2,0:2:0:0:
314,126,100339,2,0,B|301:14|301:14|260:34|260:34|276:173|276:173|307:234|307:234|323:384,1,517.500019741059,8|0,0:2|0:2,0:2:0:0:
443,178,100624,6,0,P|399:174|365:200,1,68.9999978942872,0|0,1:2|0:2,0:2:0:0:
155,204,100767,2,0,P|188:228|229:225,1,68.9999978942872,0|0,0:2|0:2,0:2:0:0:
506,92,100910,6,0,P|421:79|383:29,1,143.75,10|0,0:2|0:2,0:2:0:0:
213,85,101053,1,0,0:2:0:0:
166,96,101124,1,0,0:2:0:0:
136,132,101196,2,0,P|51:145|13:195,1,143.75,2|0,1:2|0:2,0:2:0:0:
297,307,101339,6,0,B|379:294|379:294|339:300|302:280,1,143.75,2|0,0:2|0:2,0:2:0:0:
213,85,101482,2,0,B|160:20|160:20|185:52|187:94,1,143.75,10|0,0:2|0:2,0:2:0:0:
74,302,101624,2,0,B|44:379|44:379|59:341|94:319,1,143.75,2|0,0:2|0:2,0:2:0:0:
314,126,101767,5,2,0:2:0:0:
314,126,101839,1,2,0:2:0:0:
314,126,101910,1,2,0:2:0:0:
199,158,102053,1,8,0:2:0:0:
278,235,102196,1,0,0:2:0:0:
88,60,102339,5,2,1:2:0:0:
382,179,102482,1,2,0:2:0:0:
0,287,102624,2,0,B|143:276|143:276|135:282|135:282|255:274|255:274|249:269|249:269|408:258,1,431.25,8|0,0:2|0:2,0:2:0:0:
421,256,102910,5,0,3:2:0:0:
471,184,103196,1,0,3:2:0:0:
432,104,103482,1,0,3:2:0:0:
346,98,103767,6,0,P|264:102|180:20,1,201.25,0|0,3:2|0:2,0:2:0:0:
341,110,104339,6,0,B|306:125|225:123|182:65|175:31|175:31|130:21|90:62,1,281.749991401673,0|0,3:2|0:2,0:2:0:0:
341,119,104910,6,0,B|295:142|210:125|163:67|162:13|162:13|92:13|47:88,1,362.249988945008,0|0,3:2|0:2,0:2:0:0:
256,192,105446,12,0,106553,0:2:0:0:
269,201,106624,5,2,0:2:0:0:
254,194,106910,1,2,0:2:0:0:
266,185,107196,1,2,0:2:0:0:
10,302,107482,6,0,L|195:285,1,172.5,6|0,1:2|0:2,0:2:0:0:
198,284,107767,1,2,0:2:0:0:
262,116,107910,1,0,3:2:0:0:
135,363,108053,2,0,P|99:318|95:262,1,115,10|0,0:2|0:2,0:2:0:0:
105,182,108267,1,0,0:2:0:0:
107,174,108339,1,2,3:2:0:0:
126,86,108482,1,0,0:2:0:0:
318,227,108624,5,2,1:2:0:0:
318,227,108696,1,0,0:2:0:0:
318,227,108767,2,0,P|354:223|373:188,1,57.5,0|0,0:2|0:2,0:2:0:0:
417,137,108910,2,0,L|404:-1,1,137.999995788574,2|0,3:2|0:2,0:2:0:0:
367,331,109196,6,0,L|435:324,1,68.9999978942872,10|0,0:2|0:2,0:2:0:0:
447,303,109339,2,0,L|429:304,1,17.2499994735718
217,210,109482,6,0,L|148:203,1,68.9999978942872,2|0,0:2|0:2,0:2:0:0:
127,186,109624,2,0,L|144:184,1,17.2499994735718
266,135,109767,6,0,B|335:178|320:283|277:251|239:317|288:393,1,275.999991577149,2|0,1:2|0:2,0:2:0:0:
217,210,110196,1,0,3:2:0:0:
360,332,110339,2,0,P|425:351|501:315,1,137.999995788574,8|0,0:2|0:2,0:2:0:0:
463,42,110624,2,0,P|398:66|417:162,1,137.999995788574,0|0,3:2|0:2,0:2:0:0:
433,247,110910,5,0,1:2:0:0:
433,247,110982,1,0,0:2:0:0:
433,247,111053,1,0,0:2:0:0:
350,0,111196,2,0,P|313:3|307:38,1,68.9999978942872,2|0,3:2|0:2,0:2:0:0:
278,114,111339,1,0,0:2:0:0:
296,118,111410,1,0,0:2:0:0:
320,119,111482,5,10,0:2:0:0:
281,65,111553,1,0,0:2:0:0:
230,101,111624,1,0,0:2:0:0:
189,72,111696,1,0,0:2:0:0:
148,102,111767,1,2,0:2:0:0:
128,95,111839,1,0,0:2:0:0:
117,101,111910,1,0,0:2:0:0:
99,356,112053,6,0,L|103:296,1,34.4999989471436,2|0,1:2|0:2,0:2:0:0:
89,340,112124,2,0,L|84:280,1,34.4999989471436,0|0,0:2|0:2,0:2:0:0:
101,322,112196,2,0,L|105:262,1,34.4999989471436,0|0,0:2|0:2,0:2:0:0:
86,305,112267,2,0,L|81:245,1,34.4999989471436,0|0,0:2|0:2,0:2:0:0:
143,220,112339,6,0,L|241:212,3,68.9999978942872,2|0|0|0,3:2|3:2|3:2|3:2,3:2:0:0:
51,152,112624,6,0,L|-10:156,1,51.7499984207154,2|0,0:2|0:2,0:2:0:0:
64,140,112910,6,0,L|281:120,1,189.750005790711,2|0,3:2|0:2,0:2:0:0:
309,64,113196,1,2,1:2:0:0:
182,28,113339,1,0,0:2:0:0:
244,267,113482,5,2,3:2:0:0:
423,94,113624,1,0,0:2:0:0:
175,182,113767,6,0,P|208:175|246:180,1,63.2500019302369,10|0,0:2|0:2,0:2:0:0:
351,296,113910,2,0,P|384:290|418:272,1,63.2500019302369,8|0,0:2|0:2,0:2:0:0:
339,5,114053,2,0,L|357:232,1,206.999993682861,2|0,0:2|0:2,0:2:0:0:
498,259,114339,6,0,B|454:310|295:240|476:221|330:138|271:196,1,275.999991577149,2|2,1:2|0:2,0:2:0:0:
51,250,114767,1,0,3:2:0:0:
0,381,114910,6,0,B|-29:258|172:213|195:340|195:340|100:362,1,345,8|0,0:2|0:2,0:2:0:0:
77,324,115196,6,0,B|57:272|15:243|15:243|59:252|104:304,1,172.5,0|0,3:2|0:2,0:2:0:0:
157,376,115482,6,0,B|188:354|250:351|250:351|342:206|197:90,1,345.000013160706,0|2,1:2|0:2,0:2:0:0:
27,4,115910,1,0,0:2:0:0:
88,168,116053,1,10,0:2:0:0:
88,176,116124,1,0,0:2:0:0:
88,184,116196,1,0,0:2:0:0:
219,29,116339,1,2,0:2:0:0:
113,78,116482,1,0,0:2:0:0:
232,19,116624,6,0,B|286:-12|373:33|319:81|409:124|478:63,1,275.999991577149,2|2,1:2|0:2,0:2:0:0:
362,268,117053,1,0,0:2:0:0:
261,98,117196,2,0,P|226:119|289:164,1,137.999995788574,10|0,0:2|0:2,0:2:0:0:
455,235,117482,2,0,P|493:293|433:350,1,137.999995788574,2|0,3:2|0:2,0:2:0:0:
151,277,117767,5,2,3:2:0:0:
159,287,117839,1,0,0:2:0:0:
168,297,117910,2,0,P|230:263|336:344,1,206.999993682861,0|0,0:2|0:2,0:2:0:0:
338,348,118196,1,0,3:2:0:0:
114,383,118339,2,0,L|93:143,1,206.999993682861,10|0,0:2|0:2,0:2:0:0:
174,77,118624,6,0,B|134:17|134:17|77:52,1,137.999995788574,2|0,0:2|0:2,0:2:0:0:
0,201,118910,2,0,B|57:236|57:236|96:176,1,137.999995788574,2|0,1:2|0:2,0:2:0:0:
199,229,119124,1,0,0:2:0:0:
225,215,119196,1,2,0:2:0:0:
259,214,119267,1,0,0:2:0:0:
289,229,119339,1,0,0:2:0:0:
311,255,119410,1,0,0:2:0:0:
314,289,119482,5,8,0:2:0:0:
435,94,119624,1,0,0:2:0:0:
445,349,119767,5,0,3:2:0:0:
296,147,119910,1,0,0:2:0:0:
170,330,120053,2,0,L|316:317,1,137.999995788574,0|0,1:2|0:2,0:2:0:0:
34,204,120339,2,0,L|-17:199,6,34.4999989471436,0|0|0|0|0|0|0,0:2|0:2|0:2|0:2|0:2|0:2|0:2,0:2:0:0:
60,119,120624,6,0,P|93:138|118:198,1,80.499997543335,10|0,0:2|0:2,0:2:0:0:
191,135,120767,2,0,P|200:171|176:231,1,80.499997543335,10|0,0:2|0:2,0:2:0:0:
242,287,120910,5,2,0:2:0:0:
247,292,121053,1,0,0:2:0:0:
412,48,121196,6,0,P|328:45|217:29,1,160.99999508667,2|0,3:2|0:2,0:2:0:0:
424,58,121482,2,0,P|470:52|517:50,1,86.25,2|0,3:2|0:2,0:2:0:0:
414,68,121767,5,2,0:2:0:0:
254,129,121910,1,0,0:2:0:0:
511,173,122053,2,0,P|427:176|316:192,1,137.999995788574,10|0,0:2|0:2,0:2:0:0:
189,320,122339,5,2,1:2:0:0:
392,368,122482,1,0,0:2:0:0:
505,192,122624,5,2,1:2:0:0:
451,286,122767,1,0,0:2:0:0:
347,166,122910,2,0,B|321:187|321:187|309:362,1,206.999993682861,10|0,0:2|0:2,0:2:0:0:
189,270,123196,1,2,0:2:0:0:
186,235,123267,1,0,0:2:0:0:
183,200,123339,1,0,0:2:0:0:
180,165,123410,1,0,0:2:0:0:
167,129,123482,5,0,3:2:0:0:
85,98,123696,1,0,0:2:0:0:
85,98,123767,1,0,0:2:0:0:
16,150,123982,1,0,0:2:0:0:
16,150,124053,2,0,L|25:243,3,68.9999978942872,0|0|0|0,0:2|0:2|0:2|0:2,0:2:0:0:
172,120,124339,2,0,L|178:51,3,68.9999978942872,0|0|0|0,3:2|0:2|0:2|0:2,0:2:0:0:
318,9,124624,6,0,L|324:77,1,68.9999978942872,0|0,0:2|0:2,0:2:0:0:
414,58,124767,2,0,L|407:126,1,68.9999978942872,0|0,0:2|0:2,0:2:0:0:
325,172,124910,2,0,L|318:240,1,68.9999978942872,0|0,3:2|0:2,0:2:0:0:
229,221,125053,2,0,L|235:289,1,68.9999978942872,0|0,0:2|0:2,0:2:0:0:
350,338,125196,6,0,B|329:364|329:364|154:376,1,206.999993682861,8|0,0:2|0:2,0:2:0:0:
74,246,125767,6,0,B|37:276|-39:203|77:40,1,224.24998973465,2|0,1:2|0:2,0:2:0:0:
64,63,126053,1,2,1:2:0:0:
331,134,126196,1,0,0:2:0:0:
331,134,126267,1,0,0:2:0:0:
331,134,126339,6,0,B|301:169|249:191|208:111|143:116|111:187,1,224.24998973465,10|0,0:2|0:2,0:2:0:0:
261,62,126624,2,0,B|281:13|342:-10|342:-10|399:19|410:74,1,224.24998973465,2|0,1:2|0:2,0:2:0:0:
458,146,126910,2,0,B|482:173|482:173|468:378,1,224.24998973465,2|0,1:2|0:2,0:2:0:0:
225,253,127196,6,0,P|261:236|333:262,1,99.6666621042889,2|0,1:2|0:2,0:2:0:0:
222,359,127386,1,0,0:2:0:0:
134,305,127482,2,0,L|114:75,1,224.24998973465,10|0,0:2|0:2,0:2:0:0:
39,233,127767,1,2,1:2:0:0:
204,78,127910,2,0,L|218:248,1,149.499993156433,0|2,0:2|1:2,0:2:0:0:
384,21,128196,5,0,0:2:0:0:
325,255,128339,1,2,1:2:0:0:
386,5,128482,1,0,0:2:0:0:
512,231,128624,2,0,P|474:230|442:212,1,74.7499965782167,8|0,0:2|0:2,0:2:0:0:
299,150,128767,2,0,P|331:132|368:131,1,74.7499965782167,0|0,0:2|0:2,0:2:0:0:
463,6,128910,2,0,L|440:263,1,224.24998973465,0|0,1:2|0:2,0:2:0:0:
472,369,129196,6,0,B|411:385|345:309|390:301|325:249|225:273,1,224.24998973465,0|0,1:2|0:2,0:2:0:0:
136,384,129482,6,0,P|196:370|213:217,1,224.24998973465,2|0,1:2|0:2,0:2:0:0:
155,175,129767,6,0,B|99:152|87:53|142:17|142:17|125:40|136:88,1,224.24998973465,10|0,0:2|0:2,0:2:0:0:
218,59,130053,1,2,1:2:0:0:
225,53,130196,1,0,0:2:0:0:
443,229,130339,5,2,1:2:0:0:
337,96,130482,2,0,P|301:69|200:111,1,149.499993156433,0|2,0:2|1:2,0:2:0:0:
152,303,130767,1,0,0:2:0:0:
58,187,130910,2,0,B|40:151|-22:130|-22:130|103:67|185:208,1,298.999986312867,10|2,0:2|1:2,0:2:0:0:
224,384,131339,1,0,0:2:0:0:
276,151,131482,6,0,L|291:340,1,149.499993156433,2|0,1:2|0:2,0:2:0:0:
155,165,131696,1,0,0:2:0:0:
155,165,131767,1,2,1:2:0:0:
365,240,131910,1,0,0:2:0:0:
0,330,132053,6,0,B|55:260|143:325|91:355|159:383|268:356,1,224.24998973465,10|0,0:2|0:2,0:2:0:0:
214,351,132339,1,2,1:2:0:0:
16,226,132482,1,0,0:2:0:0:
186,39,132624,6,0,L|201:206,1,160.99999508667,2|2,1:2|1:2,0:2:0:0:
195,36,133054,1,0,0:2:0:0:
43,162,133196,6,0,P|34:143|33:123,1,40.2499987716675,8|0,0:3|0:2,0:2:0:0:
105,83,133339,2,0,P|112:118|101:153,1,40.2499987716675,8|0,0:3|0:2,0:2:0:0:
0,288,133482,2,0,P|103:259|163:381,1,224.24998973465,8|0,0:3|0:2,0:2:0:0:
161,360,133767,6,2,L|110:350,4,37.3749982891084,2|2|2|2|2,0:2|0:2|0:2|0:2|0:2,0:2:0:0:
300,242,134053,2,2,L|351:232,4,37.3749982891084,2|2|2|2|2,0:2|0:2|0:2|0:2|0:2,0:2:0:0:
378,154,134267,1,0,0:2:0:0:
378,154,134339,2,0,B|308:127|308:127|243:165,1,149.499993156433,2|0,0:2|0:2,0:2:0:0:
110,0,134625,2,0,L|97:151,1,149.499993156433,2|0,0:2|0:2,0:2:0:0:
0,292,134910,6,0,P|65:256|145:316,1,149.499993156433,2|0,1:2|0:2,0:2:0:0:
226,376,135125,1,0,0:2:0:0:
217,384,135196,2,0,L|203:217,1,149.499993156433,2|0,1:2|0:2,0:2:0:0:
511,211,135482,1,10,0:2:0:0:
338,288,135624,1,0,0:2:0:0:
271,70,135767,1,2,1:2:0:0:
271,70,135839,1,0,0:2:0:0:
271,70,135910,1,0,0:2:0:0:
407,232,136053,6,0,P|425:298|367:370,1,149.499993156433,2|0,1:2|0:2,0:2:0:0:
286,215,136267,5,0,0:2:0:0:
273,203,136339,2,0,P|242:137|271:70,1,149.499993156433,2|0,1:2|0:2,0:2:0:0:
476,111,136553,5,0,0:2:0:0:
488,123,136624,2,0,L|307:138,1,149.499993156433,10|0,0:2|0:2,0:2:0:0:
148,148,136839,5,0,0:2:0:0:
129,148,136910,1,2,1:2:0:0:
336,287,137053,1,0,0:2:0:0:
438,50,137196,6,0,B|428:21|392:-8|392:-8|363:27|361:58,1,149.499993156433,2|0,1:2|0:2,0:2:0:0:
288,187,137410,1,0,0:2:0:0:
286,203,137482,2,0,B|276:232|240:261|240:261|211:226|209:195,1,149.499993156433,2|0,1:2|0:2,0:2:0:0:
0,83,137767,6,0,P|46:93|76:130,1,74.7499965782167,8|0,0:2|0:2,0:2:0:0:
205,179,137910,2,0,P|250:168|280:131,1,74.7499965782167,0|0,0:2|0:2,0:2:0:0:
236,55,138053,6,0,P|191:66|161:103,1,74.7499965782167,0|0,1:2|0:2,0:2:0:0:
92,204,138196,2,0,P|75:247|88:292,1,74.7499965782167,0|0,0:2|0:2,0:2:0:0:
184,350,138339,6,0,P|236:374|334:327,1,149.499993156433,0|0,1:2|0:2,0:2:0:0:
420,222,138553,1,0,0:2:0:0:
408,211,138625,2,0,L|421:362,1,149.499993156433,2|0,1:2|0:2,0:2:0:0:
306,128,138839,1,0,0:2:0:0:
318,117,138911,2,0,L|305:268,1,149.499993156433,10|0,0:2|0:2,0:2:0:0:
501,77,139196,2,0,B|443:105|379:70|422:25|342:-21|256:34,1,224.24998973465,2|0,1:2|0:2,0:2:0:0:
285,15,139482,5,2,1:2:0:0:
42,186,139696,1,0,0:2:0:0:
27,172,139768,2,0,L|175:159,1,149.499993156433,2|0,1:2|0:2,0:2:0:0:
267,149,139982,1,0,0:2:0:0:
287,146,140053,1,10,0:2:0:0:
131,363,140196,2,0,P|65:330|42:261,1,149.499993156433,0|2,0:2|1:2,0:2:0:0:
27,172,140410,1,0,0:2:0:0:
27,150,140482,1,0,0:2:0:0:
146,268,140625,6,0,L|325:252,2,149.499993156433,2|0|2,1:2|0:2|1:2,0:2:0:0:
23,362,141053,1,0,0:2:0:0:
137,187,141196,2,0,L|130:113,3,46,10|0|0|0,0:2|0:2|0:2|0:2,0:2:0:0:
355,367,141482,2,0,B|301:415|216:380|217:322|272:226|310:253|343:348|434:245|379:147,1,310.499990524292,2|0,1:2|0:2,0:2:0:0:
431,158,141767,5,0,0:2:0:0:
434,150,141910,1,2,0:0:0:0:
365,89,142053,5,2,0:2:0:0:
322,167,142196,1,2,0:2:0:0:
385,231,142339,2,0,P|417:165|355:86,1,172.5,2|0,0:2|0:2,0:2:0:0:
302,25,142624,5,2,0:2:0:0:
259,103,142767,1,2,0:2:0:0:
322,167,142910,2,0,P|354:101|292:22,1,172.5,2|0,0:2|0:2,0:2:0:0:
214,31,143196,5,2,0:2:0:0:
127,53,143339,1,0,0:2:0:0:
44,22,143482,1,2,0:2:0:0:
150,332,143767,5,2,0:2:0:0:
150,344,143910,1,2,0:2:0:0:
64,244,144053,6,0,L|49:83,1,160.99999508667,6|0,1:2|0:2,0:2:0:0:
266,325,144339,1,2,1:2:0:0:
151,132,144482,1,0,0:2:0:0:
0,289,144624,2,0,P|65:322|140:246,1,160.99999508667,10|0,0:2|0:2,0:2:0:0:
331,384,144910,1,2,1:2:0:0:
288,74,145053,1,0,0:2:0:0:
64,244,145196,5,2,1:2:0:0:
376,170,145339,1,0,0:2:0:0:
376,170,145411,1,0,0:2:0:0:
376,170,145482,2,0,P|456:158|515:280,1,160.99999508667,2|0,1:2|0:2,0:2:0:0:
331,370,145767,2,0,B|381:293|327:212|278:269|236:144|328:66,1,321.99999017334,10|2,0:2|1:2,0:2:0:0:
428,241,146196,1,0,0:2:0:0:
247,319,146339,6,0,B|216:358|157:363|115:327|115:327|162:326|190:279,1,206.999993682861,2|0,1:2|0:2,0:2:0:0:
343,380,146624,1,2,1:2:0:0:
436,176,146767,2,0,B|456:160|482:162|482:162|453:131|410:135|374:169,1,160.99999508667,0|8,0:2|0:2,0:2:0:0:
258,0,147053,5,0,0:2:0:0:
144,161,147196,1,0,1:2:0:0:
247,319,147339,1,0,0:2:0:0:
45,78,147482,6,0,B|81:62|95:16|95:16|161:86|142:167,1,241.499992630005,0|0,1:2|0:2,0:2:0:0:
230,191,147767,2,0,P|206:278|219:369,1,160.99999508667,2|0,1:2|0:2,0:2:0:0:
194,83,148053,5,10,0:2:0:0:
21,212,148196,1,0,0:2:0:0:
293,291,148339,2,0,B|360:260|431:298|378:329|448:386|554:326,1,241.499992630005,2|0,1:2|0:2,0:2:0:0:
490,222,148624,6,0,L|475:13,1,160.99999508667,2|0,1:2|0:2,0:2:0:0:
209,200,148910,2,0,L|198:360,1,160.99999508667,2|0,1:2|0:2,0:2:0:0:
274,34,149196,2,0,B|198:-28|122:28|122:28|110:88|7:108,1,241.499992630005,10|0,0:2|0:2,0:2:0:0:
58,93,149482,1,2,1:2:0:0:
22,231,149624,1,0,0:2:0:0:
274,34,149767,5,2,1:2:0:0:
0,157,149910,1,0,0:2:0:0:
244,331,150053,1,2,1:2:0:0:
194,79,150196,2,0,L|183:239,1,160.99999508667,0|10,0:2|0:2,0:2:0:0:
386,47,150482,5,0,0:2:0:0:
331,301,150624,1,2,1:2:0:0:
392,33,150767,1,0,0:2:0:0:
480,328,150910,5,2,1:2:0:0:
489,335,151482,6,0,P|423:273|282:323,1,241.499992630005,0|0,0:2|0:2,0:2:0:0:
154,216,151767,2,0,P|170:322|276:300,1,241.499992630005,0|0,0:2|0:2,0:2:0:0:
170,214,152053,2,0,P|199:135|73:33,1,241.499992630005,0|0,0:2|0:2,0:2:0:0:
82,42,152339,2,0,P|135:106|287:48,1,241.499992630005,2|0,0:2|0:2,0:2:0:0:
296,51,152624,6,0,L|355:45,1,46,10|0,0:2|0:2,0:2:0:0:
367,63,152910,2,0,L|426:57,1,46,2|0,3:2|3:2,3:2:0:0:
511,201,153196,6,0,L|298:184,1,160.99999508667,2|0,1:2|0:2,0:2:0:0:
185,206,153482,1,2,1:2:0:0:
367,63,153624,1,0,0:2:0:0:
430,272,153767,2,0,B|423:354|423:354|399:382|399:382|403:321,1,160.99999508667,10|0,0:2|0:2,0:2:0:0:
243,89,154053,1,2,1:2:0:0:
191,348,154196,1,0,0:2:0:0:
49,174,154339,2,0,B|38:92|38:92|56:59|56:59|62:101,1,160.99999508667,2|0,1:2|0:2,0:2:0:0:
244,227,154624,2,0,B|214:225|214:225|62:315|62:315|27:314,1,241.499992630005,2|0,1:2|0:2,0:2:0:0:
15,302,154910,5,10,0:2:0:0:
165,117,155053,1,0,0:2:0:0:
0,300,155196,1,2,1:2:0:0:
266,384,155339,1,0,0:2:0:0:
388,151,155482,2,0,P|328:98|253:174,1,160.99999508667,2|0,1:2|0:2,0:2:0:0:
32,89,155767,2,0,P|92:142|167:66,1,160.99999508667,2|0,1:2|0:2,0:2:0:0:
173,356,156053,5,8,0:2:0:0:
301,63,156196,1,0,0:2:0:0:
506,323,156339,1,0,1:2:0:0:
485,206,156482,1,0,0:2:0:0:
401,282,156624,6,0,P|348:296|383:147,1,276,0|2,1:2|1:2,0:2:0:0:
177,348,157196,6,0,B|127:353|91:341|91:341|77:352|77:352|39:337|-2:346,1,184,10|2,0:2|1:2,0:2:0:0:
48,328,158053,5,2,1:2:0:0:
48,93,158339,5,10,0:2:0:0:
135,174,158482,1,0,0:2:0:0:
170,54,158624,1,2,0:2:0:0:
173,45,158767,1,0,0:2:0:0:
258,142,158910,2,0,L|140:151,1,115,2|2,0:2|0:2,0:2:0:0:
276,247,159339,1,0,0:2:0:0:
355,216,159482,6,0,P|397:231|414:273,1,86.25,10|0,0:2|0:2,0:2:0:0:
473,339,159767,2,0,B|456:355|456:355|334:342,1,120.749996315003,2|0,0:2|0:2,0:2:0:0:
256,336,160053,6,0,B|142:369|160:243|27:293,1,230,2|2,1:2|0:2,0:2:0:0:
83,368,160482,1,0,0:2:0:0:
224,236,160624,2,0,P|211:177|178:116,1,115,8|0,0:2|0:2,0:2:0:0:
228,251,160910,1,0,3:2:0:0:
30,165,161053,2,0,P|43:106|76:45,1,115,0|0,0:2|3:2,0:2:0:0:
153,6,161267,1,0,0:2:0:0:
169,0,161339,1,0,0:2:0:0:
316,135,161482,5,2,3:2:0:0:
121,201,161624,1,0,0:2:0:0:
492,79,161767,2,0,B|400:86|400:86|351:45|351:45|260:53,1,241.499992630005,8|0,0:2|0:2,0:2:0:0:
329,282,162339,5,4,1:2:0:0:
333,337,162410,1,0,0:2:0:0:
379,369,162482,1,0,0:2:0:0:
433,356,162553,1,0,0:2:0:0:
455,304,162624,2,0,L|464:200,1,80.499997543335,8|0,0:2|0:2,0:2:0:0:
271,70,162767,2,0,L|278:150,1,80.499997543335,0|0,0:2|0:2,0:2:0:0:
59,271,162910,5,0,1:2:0:0:
59,271,162982,1,0,0:2:0:0:
59,271,163053,2,0,P|100:252|157:273,1,80.499997543335,0|0,0:2|0:2,0:2:0:0:
267,384,163196,1,8,0:2:0:0:
267,384,163268,1,0,0:2:0:0:
267,384,163339,2,0,P|230:357|219:298,1,80.499997543335,0|0,0:2|0:2,0:2:0:0:
162,105,163482,6,0,B|176:56|176:56|184:136,1,103.499996841431,0|0,1:2|0:2,0:2:0:0:
313,255,163624,2,0,B|309:308|309:308|291:254,1,103.499996841431,0|0,0:2|0:2,0:2:0:0:
512,82,163767,2,0,P|467:58|419:72,1,103.499996841431,8|0,0:2|0:2,0:2:0:0:
343,151,163910,2,0,P|298:175|249:161,1,103.499996841431,0|0,0:2|0:2,0:2:0:0:
0,0,164053,1,0,1:2:0:0:
158,31,164196,6,0,L|150:143,1,103.499996841431,0|0,0:2|0:2,0:2:0:0:
46,249,164339,2,0,P|9:251|-1:223,4,51.7499984207154,0|0|0|0|2,0:2|0:2|0:2|0:2|0:2,0:2:0:0:
131,362,164553,1,2,0:2:0:0:
161,331,164624,6,0,P|248:310|351:368,1,206.999993682861,0|0,1:2|0:2,0:2:0:0:
402,177,164839,1,0,0:2:0:0:
404,159,164910,1,8,0:2:0:0:
492,304,165053,2,0,P|437:314|403:236,1,103.499996841431,0|0,0:2|0:2,0:2:0:0:
261,131,165196,6,0,L|477:114,1,206.999993682861,0|0,1:2|0:2,0:2:0:0:
485,113,165410,1,0,0:2:0:0:
501,112,165482,1,8,0:2:0:0:
249,13,165624,1,0,0:2:0:0:
68,297,165767,5,0,1:2:0:0:
141,14,165910,1,0,0:2:0:0:
187,327,166053,1,8,0:2:0:0:
21,55,166196,1,0,0:2:0:0:
208,242,166339,5,2,1:2:0:0:
83,280,166482,1,2,0:2:0:0:
45,155,166624,1,10,0:2:0:0:
170,117,166767,1,2,0:2:0:0:
274,303,166910,6,0,L|516:281,1,206.999993682861,0|0,1:2|0:2,0:2:0:0:
257,319,167196,1,8,0:2:0:0:
477,103,167339,2,0,B|474:76|486:53|486:53|428:39|369:84|380:167,1,206.999993682861,0|0,0:2|1:2,0:2:0:0:
356,249,167553,1,0,0:2:0:0:
355,262,167624,1,0,0:2:0:0:
263,41,167767,2,0,P|213:31|167:53,1,103.499996841431,8|0,0:2|0:2,0:2:0:0:
54,179,167910,2,0,P|73:204|173:210,1,103.499996841431,0|0,0:2|0:2,0:2:0:0:
239,271,168053,6,0,B|224:114|224:114|194:173,1,206.999993682861,2|0,0:2|0:2,0:2:0:0:
251,285,168339,2,0,B|236:128|236:128|206:187,1,206.999993682861,2|0,0:2|0:2,0:2:0:0:
37,73,168624,6,0,B|22:229|22:229|-7:170,1,206.999993682861,2|0,0:2|0:2,0:2:0:0:
49,59,168910,2,0,B|34:215|34:215|4:156,1,206.999993682861,2|0,0:2|0:2,0:2:0:0:
195,72,169196,6,0,B|268:8|358:76|303:125|392:200|510:117,1,310.499990524292,0|0,1:2|0:2,0:2:0:0:
392,9,169482,2,0,P|298:149|265:252,1,206.999993682861,8|0,0:2|0:2,0:2:0:0:
242,299,169696,1,0,0:2:0:0:
243,317,169767,1,0,1:2:0:0:
115,134,169910,2,0,P|165:153|195:210,1,103.499996841431,0|0,0:2|0:2,0:2:0:0:
259,330,170053,2,0,P|307:344|355:327,1,103.499996841431,8|0,0:2|0:2,0:2:0:0:
392,139,170196,2,0,P|413:93|458:68,1,103.499996841431,0|0,0:2|0:2,0:2:0:0:
490,165,170339,6,0,L|283:183,2,206.999993682861,0|0|8,1:2|0:2|0:2,0:2:0:0:
512,160,170767,1,0,0:2:0:0:
289,39,170910,2,0,B|238:32|238:32|201:69,1,103.499996841431,0|0,1:2|0:2,0:2:0:0:
79,77,171053,1,0,0:2:0:0:
100,96,171124,1,0,0:2:0:0:
115,122,171196,1,8,0:2:0:0:
121,151,171267,1,8,0:2:0:0:
124,181,171339,1,8,0:2:0:0:
121,209,171410,1,8,0:2:0:0:
27,269,171482,5,4,1:2:0:0:
60,217,171553,1,0,0:2:0:0:
121,209,171624,1,0,0:2:0:0:
162,256,171696,1,0,0:2:0:0:
172,316,171767,1,8,0:2:0:0:
223,350,171839,1,0,0:2:0:0:
284,345,171910,1,0,0:2:0:0:
321,295,171982,1,0,0:2:0:0:
306,234,172053,6,0,P|313:192|415:172,1,103.499996841431,0|0,1:2|0:2,0:2:0:0:
321,84,172196,2,0,P|370:73|418:95,1,103.499996841431,0|0,0:2|0:2,0:2:0:0:
504,223,172339,6,0,P|470:250|379:200,1,103.499996841431,8|0,0:2|0:2,0:2:0:0:
395,327,172482,2,0,P|349:303|327:256,1,103.499996841431,0|0,0:2|0:2,0:2:0:0:
246,38,172624,5,0,1:2:0:0:
233,269,172767,2,0,L|223:165,1,103.499996841431,0|0,0:2|0:2,0:2:0:0:
109,37,172910,1,8,0:0:0:0:
55,317,173053,2,0,L|45:213,1,103.499996841431,0|0,0:2|0:2,0:2:0:0:
8,141,173196,2,0,B|63:103|136:155|90:173|148:233|232:196,1,206.999993682861,0|0,1:2|0:2,0:2:0:0:
320,73,173482,5,10,0:2:0:0:
276,52,173553,1,2,0:2:0:0:
230,53,173624,2,0,P|197:87|219:176,1,103.499996841431,2|0,0:2|0:2,0:2:0:0:
306,279,173767,2,0,L|326:-22,1,206.999993682861,0|0,1:2|0:2,0:2:0:0:
451,24,173982,1,0,0:2:0:0:
453,0,174053,1,8,0:2:0:0:
195,151,174196,1,0,0:2:0:0:
498,228,174339,6,0,P|457:194|386:221,1,103.499996841431,0|0,1:2|0:2,0:2:0:0:
293,292,174482,2,0,P|252:326|181:299,1,103.499996841431,0|0,0:2|0:2,0:2:0:0:
0,154,174624,2,0,B|31:119|81:139|81:139|90:162|117:172|117:172|157:151|207:168,1,206.999993682861,8|0,0:2|0:2,0:2:0:0:
57,282,174839,1,0,0:2:0:0:
57,282,174910,5,0,1:2:0:0:
174,23,175053,1,0,0:2:0:0:
282,288,175196,5,8,0:2:0:0:
174,40,175339,1,0,0:2:0:0:
142,263,175482,2,0,L|129:139,1,103.499996841431,0|0,1:2|0:2,0:2:0:0:
255,144,175624,2,0,L|267:21,1,103.499996841431,0|0,0:2|0:2,0:2:0:0:
372,9,175767,2,0,L|450:5,6,51.7499984207154,8|0|0|0|0|0|0,0:2|0:2|0:2|0:2|0:2|0:2|0:2,0:2:0:0:
355,13,176053,5,0,1:2:0:0:
231,42,176196,1,0,0:2:0:0:
260,166,176339,1,8,0:2:0:0:
384,137,176482,1,0,0:2:0:0:
248,19,176624,5,0,1:2:0:0:
86,56,176767,1,0,0:2:0:0:
124,217,176910,1,8,0:2:0:0:
285,180,177053,1,0,0:2:0:0:
185,324,177196,5,0,1:2:0:0:
23,287,177339,1,0,0:2:0:0:
61,126,177482,1,8,0:2:0:0:
222,163,177625,1,0,0:2:0:0:
350,384,177767,5,0,1:2:0:0:
139,335,177910,1,0,0:2:0:0:
188,126,178053,1,8,0:2:0:0:
398,174,178196,1,0,0:2:0:0:
233,361,178339,6,0,P|179:332|122:340,1,103.499996841431,0|0,1:2|0:2,0:2:0:0:
169,252,178482,2,0,P|107:256|63:293,1,103.499996841431,0|0,0:2|0:2,0:2:0:0:
247,164,178624,6,0,P|308:168|352:205,1,103.499996841431,0|0,1:2|0:2,0:2:0:0:
359,105,178767,2,0,P|408:140|426:195,1,103.499996841431,0|0,0:2|0:2,0:2:0:0:
496,379,178910,6,0,B|419:379|333:331|242:91|433:69|599:201|468:308|390:325|290:308|290:308|294:213|210:193,1,724.499977890015,0|0,1:2|0:2,0:2:0:0:
184,173,179482,5,2,0:2:0:0:
275,132,179624,1,2,0:2:0:0:
168,261,179767,5,2,0:2:0:0:
196,88,179909,1,2,0:2:0:0:
256,192,179982,12,0,180553,0:2:0:0:
477,277,180624,5,4,1:2:0:0:
473,332,180696,1,0,0:2:0:0:
427,364,180767,1,0,0:2:0:0:
373,351,180839,1,0,0:2:0:0:
351,299,180910,2,0,L|342:195,1,103.499996841431,8|0,0:2|0:2,0:2:0:0:
220,88,181053,1,0,0:2:0:0:
220,88,181124,1,0,0:2:0:0:
220,88,181196,6,0,L|210:192,1,103.499996841431,0|0,1:2|0:2,0:2:0:0:
23,252,181339,2,0,P|72:275|136:241,1,103.499996841431,0|0,0:2|0:2,0:2:0:0:
374,122,181482,1,8,0:2:0:0:
323,107,181553,1,0,0:2:0:0:
273,96,181624,1,0,0:2:0:0:
220,88,181696,1,0,0:2:0:0:
189,50,181767,6,0,L|85:59,1,103.499996841431,0|0,1:2|0:2,0:2:0:0:
342,195,181910,2,0,L|446:186,1,103.499996841431,0|0,0:2|0:2,0:2:0:0:
152,339,182053,2,0,P|123:291|147:235,1,103.499996841431,8|0,0:2|0:2,0:2:0:0:
284,90,182196,1,0,0:2:0:0:
335,75,182267,1,0,0:2:0:0:
385,64,182339,2,0,B|420:66|434:48|434:48|407:37|377:61,1,103.499996841431,0|0,1:2|0:2,0:2:0:0:
151,160,182482,2,0,B|116:162|102:144|102:144|129:133|159:157,1,103.499996841431,0|0,0:2|0:2,0:2:0:0:
349,302,182624,6,0,L|352:373,2,51.7499984207154,8|0|0,0:2|0:2|0:2,0:2:0:0:
425,204,182767,1,2,0:2:0:0:
431,184,182838,1,2,0:2:0:0:
439,167,182909,6,0,P|484:282|392:317,1,206.999993682861,0|0,1:2|0:2,0:2:0:0:
266,329,183124,1,0,0:2:0:0:
248,327,183195,1,8,0:2:0:0:
169,70,183339,2,0,L|159:173,1,103.499996841431,0|0,0:2|0:2,0:2:0:0:
0,291,183481,6,0,P|50:297|94:272,1,103.499996841431,0|0,1:2|0:2,0:2:0:0:
309,201,183624,1,0,0:2:0:0:
270,192,183697,1,0,0:2:0:0:
240,184,183767,2,0,L|249:81,1,103.499996841431,8|0,0:2|0:2,0:2:0:0:
41,27,183910,2,0,L|50:130,1,103.499996841431,0|0,0:2|0:2,0:2:0:0:
232,323,184053,6,0,P|266:310|229:311,1,103.499996841431,0|0,1:2|0:2,0:2:0:0:
48,155,184196,2,0,P|11:156|46:166,1,103.499996841431,0|0,0:2|0:2,0:2:0:0:
312,25,184339,1,8,0:2:0:0:
70,267,184482,6,0,P|122:234|183:240,1,120.749996315003,0|0,0:2|0:2,0:2:0:0:
373,310,184624,2,0,B|366:359|366:359|282:385|282:385|287:341|287:341|284:321|284:321|290:302|290:302|296:242|296:242|292:279|292:279|301:221|301:221|297:204|297:204|308:102,1,413.999987365723,2|0,1:2|0:2,0:2:0:0:
512,154,184910,6,0,P|453:189|389:170,1,137.999995788574,10|0,0:2|0:2,0:2:0:0:
228,42,185053,2,0,P|307:32|291:86,1,137.999995788574,2|0,0:2|0:2,0:2:0:0:
175,162,185195,6,0,B|111:166|111:166|90:171|90:171|-50:184|-50:184|-28:172|-28:172|25:168,1,275.999991577149,0|0,1:2|0:2,0:2:0:0:
128,68,185410,1,0,0:2:0:0:
135,55,185482,1,8,0:2:0:0:
271,259,185624,6,0,P|320:286|393:254,1,115,0|0,0:2|0:2,0:2:0:0:
264,114,185767,2,0,P|213:139|176:189,1,115,0|0,1:2|0:2,0:2:0:0:
40,305,185910,2,0,B|113:283|104:367|195:339,1,137.999995788574,0|0,0:2|0:2,0:2:0:0:
332,204,186053,2,0,B|336:162|361:131|361:131|278:92|176:141|166:269,1,345,8|0,0:2|0:2,0:2:0:0:
360,350,186339,6,0,B|406:388|485:385|507:340|507:340|477:357|426:325,1,218.499994165421,2|0,1:2|0:2,0:2:0:0:
155,257,186624,2,0,B|108:295|29:292|7:247|7:247|37:264|88:232,1,218.499994165421,2|0,0:2|0:2,0:2:0:0:
356,129,186910,2,0,B|402:90|481:93|503:138|503:138|473:121|422:153,1,218.499994165421,2|0,0:2|0:2,0:2:0:0:
473,220,187124,1,0,0:2:0:0:
478,224,187196,1,2,0:2:0:0:
343,125,187339,1,0,0:2:0:0:
334,344,187481,6,0,B|391:273|316:184|267:239|199:149|259:60,1,327.749991248131,0|0,1:2|0:2,0:2:0:0:
391,17,187767,2,0,P|438:80|335:113,1,218.499994165421,8|0,0:2|0:2,0:2:0:0:
195,11,187981,1,0,0:2:0:0:
177,3,188052,1,0,1:2:0:0:
0,122,188195,2,0,P|48:98|101:110,1,109.24999708271,0|0,0:2|0:2,0:2:0:0:
214,103,188339,2,0,P|212:157|177:197,1,109.24999708271,8|0,0:2|0:2,0:2:0:0:
65,222,188482,2,0,P|81:273|126:303,1,109.24999708271,0|0,0:2|0:2,0:2:0:0:
297,173,188624,6,0,B|318:203|318:203|333:384,1,218.499994165421,0|0,1:2|0:2,0:2:0:0:
158,0,188910,1,8,0:2:0:0:
6,273,189053,2,0,B|56:293|56:293|105:264,1,109.24999708271,0|0,0:2|0:2,0:2:0:0:
353,258,189196,5,0,1:2:0:0:
398,211,189267,1,0,0:2:0:0:
406,145,189339,1,0,0:2:0:0:
376,86,189410,1,0,0:2:0:0:
321,66,189482,5,8,0:2:0:0:
320,130,189553,1,8,0:2:0:0:
265,166,189624,1,8,0:2:0:0:
202,156,189696,1,8,0:2:0:0:
196,141,189767,5,4,1:2:0:0:
196,141,189839,1,0,0:2:0:0:
196,141,189910,2,0,L|207:17,1,109.24999708271,0|0,0:2|0:2,0:2:0:0:
434,266,190053,1,8,0:2:0:0:
434,266,190124,1,0,0:2:0:0:
434,266,190196,2,0,L|445:390,1,109.24999708271,0|0,0:2|0:2,0:2:0:0:
98,280,190339,5,0,1:2:0:0:
98,280,190411,1,0,0:2:0:0:
98,280,190482,2,0,P|142:236|210:236,1,109.24999708271,0|0,0:2|0:2,0:2:0:0:
512,129,190624,1,8,0:2:0:0:
512,129,190696,1,0,0:2:0:0:
512,129,190767,2,0,P|468:173|400:173,1,109.24999708271,0|0,0:2|0:2,0:2:0:0:
358,378,190910,6,0,L|347:269,1,109.24999708271,0|0,1:2|0:2,0:2:0:0:
175,120,191053,1,0,0:2:0:0:
175,120,191124,1,0,0:2:0:0:
175,120,191196,2,0,L|187:242,1,109.24999708271,8|0,0:2|0:2,0:2:0:0:
28,384,191339,2,0,L|14:250,1,109.24999708271,0|0,0:2|0:2,0:2:0:0:
4,34,191481,6,0,B|50:-8|123:44|78:78|119:135|195:117,1,218.499994165421,0|0,1:2|0:2,0:2:0:0:
319,50,191696,1,0,0:2:0:0:
335,44,191767,1,8,0:2:0:0:
26,114,191910,1,0,0:2:0:0:
315,274,192052,6,0,L|335:-27,1,218.499994165421,0|0,1:2|0:2,0:2:0:0:
229,31,192267,1,0,0:2:0:0:
227,7,192339,1,8,0:2:0:0:
512,118,192482,1,0,0:2:0:0:
512,118,192553,1,0,0:2:0:0:
512,118,192624,6,0,B|438:48|327:119|393:180|304:237|193:162,1,327.749991248131,0|0,1:2|0:2,0:2:0:0:
141,96,192910,1,8,0:2:0:0:
22,297,193053,1,0,0:2:0:0:
42,316,193124,1,0,0:2:0:0:
73,321,193196,5,0,1:2:0:0:
284,111,193338,1,0,0:2:0:0:
339,384,193481,5,8,0:2:0:0:
110,198,193624,1,0,0:2:0:0:
272,2,193767,2,0,L|284:115,1,109.24999708271,0|0,1:2|0:2,0:2:0:0:
189,224,193909,2,0,L|201:347,1,109.24999708271,0|0,0:2|0:2,0:2:0:0:
69,116,194053,2,0,L|12:118,6,46,8|0|0|0|0|0|0,0:2|0:2|0:2|0:2|0:2|0:2|0:2,0:2:0:0:
157,13,194339,5,0,1:2:0:0:
281,42,194482,1,0,0:2:0:0:
252,166,194624,1,8,0:2:0:0:
128,137,194767,1,0,0:2:0:0:
264,19,194910,5,0,1:2:0:0:
426,56,195053,1,0,0:2:0:0:
388,217,195196,1,8,0:2:0:0:
227,180,195339,1,0,0:2:0:0:
327,324,195482,5,0,1:2:0:0:
489,287,195624,1,0,0:2:0:0:
451,126,195767,1,8,0:2:0:0:
290,163,195910,1,0,0:2:0:0:
162,384,196053,5,0,1:2:0:0:
373,335,196196,1,0,0:2:0:0:
324,126,196339,1,8,0:2:0:0:
114,174,196482,1,0,0:2:0:0:
284,275,196624,6,0,P|326:231|322:169,1,97.7500018644333,0|0,1:2|0:2,0:2:0:0:
317,115,196767,1,0,0:2:0:0:
308,100,196839,1,0,0:2:0:0:
299,87,196910,1,0,0:2:0:0:
185,74,197053,1,0,0:2:0:0:
150,275,197196,5,0,1:2:0:0:
107,163,197339,1,0,0:2:0:0:
185,74,197482,1,0,1:2:0:0:
299,87,197624,1,0,0:2:0:0:
183,355,197767,5,0,1:2:0:0:
375,279,197910,1,0,0:2:0:0:
299,87,198053,1,0,1:2:0:0:
107,163,198196,1,0,0:2:0:0:
302,384,198339,5,0,0:2:0:0:
170,51,198482,1,0,0:2:0:0:
70,285,198625,1,0,0:2:0:0:
403,152,198768,1,0,0:2:0:0:
0,98,198910,6,0,B|50:65|50:65|224:80,1,218.499994165421,0|0,1:2|0:2,0:2:0:0:
411,164,199196,1,8,0:2:0:0:
229,297,199339,1,0,0:2:0:0:
292,0,199482,1,0,1:2:0:0:
498,127,199624,2,0,P|499:199|326:199,1,218.499994165421,0|8,0:2|0:2,0:2:0:0:
201,376,199910,1,0,0:2:0:0:
201,376,199982,1,0,0:2:0:0:
201,376,200053,6,0,B|43:362|43:362|76:351|76:351|131:356,1,218.499994165421,0|0,1:2|0:2,0:2:0:0:
254,220,200267,2,0,B|278:217|278:217|311:228|311:228|153:242,1,218.499994165421,0|0,0:2|0:2,0:2:0:0:
17,133,200482,2,0,P|77:137|121:193,1,109.24999708271,0|0,0:2|0:2,0:2:0:0:
194,360,200624,5,0,1:2:0:0:
40,214,200767,1,0,0:2:0:0:
269,53,200910,2,0,B|222:-7|222:-7|201:188,1,218.499994165421,8|0,0:2|0:2,0:2:0:0:
104,302,201124,1,0,0:2:0:0:
101,320,201196,5,0,1:2:0:0:
343,219,201339,2,0,P|399:206|462:256,1,109.24999708271,0|0,0:2|0:2,0:2:0:0:
327,374,201482,2,0,L|307:117,1,218.499994165421,8|0,0:2|0:2,0:2:0:0:
158,38,201696,1,0,0:2:0:0:
157,21,201767,5,0,1:2:0:0:
176,212,201910,2,0,B|191:236|193:263|193:263|199:235|222:216,1,109.24999708271,0|0,0:2|0:2,0:2:0:0:
380,76,202053,2,0,P|277:56|207:134,1,218.499994165421,8|0,0:2|0:2,0:2:0:0:
464,37,202339,5,0,1:2:0:0:
121,149,202482,1,0,0:2:0:0:
480,27,202624,5,8,0:2:0:0:
103,155,202767,1,0,0:2:0:0:
491,256,202910,6,0,B|436:237|451:297|362:273,1,109.24999708271,2|0,1:2|0:2,0:2:0:0:
206,166,203053,1,2,0:2:0:0:
178,83,203124,1,2,0:2:0:0:
244,25,203196,1,10,0:2:0:0:
68,352,203339,2,0,L|55:236,1,109.24999708271,2|0,0:2|0:2,0:2:0:0:
27,155,203482,6,0,P|119:166|135:288,1,218.499994165421,0|0,1:2|0:2,0:2:0:0:
7,148,203768,1,8,0:2:0:0:
263,19,203911,1,0,0:2:0:0:
56,243,204054,1,0,1:2:0:0:
304,118,204196,2,0,B|354:85|354:85|528:100,1,218.499994165421,0|8,0:2|0:2,0:2:0:0:
191,281,204482,6,0,P|149:277|190:268,1,109.24999708271,0|0,0:2|0:2,0:2:0:0:
233,60,204624,2,0,B|182:132|233:228|273:162|344:289|223:389,1,327.749991248131,0|0,1:2|0:2,0:2:0:0:
419,337,204910,2,0,B|455:359|496:340|496:340|455:338|416:322|442:305|392:290|354:296,1,218.499994165421,8|0,0:2|0:2,0:2:0:0:
191,281,205124,1,0,0:2:0:0:
166,281,205196,5,0,1:2:0:0:
392,191,205339,1,0,0:2:0:0:
34,114,205482,2,0,B|26:147|-21:144|-21:144|124:216|87:3|266:69,1,362.249988945008,8|0,0:2|0:2,0:2:0:0:
323,119,205767,5,0,1:2:0:0:
50,331,205910,1,0,0:2:0:0:
50,331,205982,1,0,0:2:0:0:
50,331,206053,2,0,L|30:74,1,218.499994165421,8|0,0:2|0:2,0:2:0:0:
158,38,206268,1,0,0:2:0:0:
157,21,206339,5,0,1:2:0:0:
391,192,206482,2,0,L|499:200,1,109.24999708271,0|0,0:2|0:2,0:2:0:0:
389,54,206625,2,0,P|286:72|247:169,1,218.499994165421,8|0,0:2|0:2,0:2:0:0:
419,337,206911,5,0,1:2:0:0:
121,149,207054,1,0,0:2:0:0:
434,348,207196,5,8,0:2:0:0:
107,139,207339,1,0,0:2:0:0:
301,378,207482,6,0,P|276:328|326:257,1,109.24999708271,2|0,1:2|0:2,0:2:0:0:
391,192,207624,1,2,0:2:0:0:
396,160,207696,1,2,0:2:0:0:
382,136,207767,1,10,0:2:0:0:
291,52,207910,1,2,0:2:0:0:
6,209,208053,6,0,B|56:242|56:242|230:227,1,218.499994165421,0|0,1:2|0:2,0:2:0:0:
500,93,208339,1,8,0:2:0:0:
258,37,208482,1,0,0:2:0:0:
362,302,208625,1,0,1:2:0:0:
500,93,208767,2,0,B|434:86|434:86|366:134|366:134|278:126,1,218.499994165421,0|8,0:2|0:2,0:2:0:0:
57,41,209053,1,0,0:2:0:0:
57,41,209125,1,0,0:2:0:0:
57,41,209196,6,0,B|85:30|102:8|102:8|190:51|151:167,1,218.499994165421,0|0,1:2|0:2,0:2:0:0:
191,261,209410,2,0,B|81:253|81:253|34:155,1,218.499994165421,0|0,0:2|0:2,0:2:0:0:
239,179,209625,2,0,P|281:226|269:292,1,109.24999708271,0|0,0:2|0:2,0:2:0:0:
229,340,209767,5,0,1:2:0:0:
16,149,209910,1,0,0:2:0:0:
267,50,210053,2,0,B|314:-10|314:-10|335:185,1,218.499994165421,8|0,0:2|0:2,0:2:0:0:
436,288,210267,1,0,0:2:0:0:
439,306,210339,5,0,1:2:0:0:
512,77,210482,2,0,P|456:64|393:114,1,109.24999708271,0|0,0:2|0:2,0:2:0:0:
243,167,210625,2,0,L|259:384,1,218.499994165421,8|0,0:2|0:2,0:2:0:0:
155,365,210839,1,0,0:2:0:0:
156,382,210910,5,0,1:2:0:0:
383,212,211053,2,0,B|397:200|422:195|422:195|385:178|342:197,1,109.24999708271,0|0,0:2|0:2,0:2:0:0:
231,46,211196,2,0,P|131:80|110:182,1,218.499994165421,8|0,0:2|0:2,0:2:0:0:
442,266,211482,5,0,1:2:0:0:
70,340,211625,1,0,0:2:0:0:
462,271,211767,5,8,0:2:0:0:
50,332,211910,1,0,0:2:0:0:
491,256,212053,6,0,B|436:237|451:297|362:273,1,109.24999708271,2|0,1:2|0:2,0:2:0:0:
208,166,212196,1,2,0:2:0:0:
198,124,212267,1,2,0:2:0:0:
215,83,212339,2,0,P|267:66|324:103,1,109.24999708271,10|0,0:2|0:2,0:2:0:0:
395,147,212482,2,0,P|447:164|504:127,1,109.24999708271,2|0,0:2|0:2,0:2:0:0:
470,10,212624,6,0,B|377:5|407:85|306:75,1,172.500006580353,0|0,1:2|0:2,0:2:0:0:
132,158,212910,2,0,P|64:144|33:40,1,172.500006580353,8|0,0:2|0:2,0:2:0:0:
240,0,213196,1,0,1:2:0:0:
286,243,213339,2,0,L|296:63,1,172.500006580353,0|8,0:2|0:2,0:2:0:0:
455,282,213624,5,0,0:2:0:0:
455,282,213696,1,0,0:2:0:0:
455,282,213767,2,0,B|405:285|405:285|344:325|344:325|277:331,1,172.500006580353,0|0,1:2|0:2,0:2:0:0:
512,195,214053,1,8,0:2:0:0:
432,384,214196,1,0,0:2:0:0:
165,214,214339,6,0,P|188:158|303:240,1,258.75000987053,0|0,1:2|0:2,0:2:0:0:
144,225,214624,1,8,0:2:0:0:
63,106,214767,1,0,0:2:0:0:
2,281,214910,5,8,0:3:0:0:
2,281,214982,1,8,0:3:0:0:
2,281,215053,1,8,0:3:0:0:
217,338,215196,1,8,0:3:0:0:
217,338,215267,1,8,0:3:0:0:
217,338,215339,2,0,P|183:304|134:296,1,68.9999978942872,8|0,0:3|0:2,0:2:0:0:
24,364,215482,6,8,P|48:352|71:237,1,137.999995788574,10|0,3:3|0:3,3:3:0:0:
211,80,215767,6,0,B|201:60|209:26|209:26|104:16|91:94,1,206.999993682861,0|0,0:2|0:2,0:2:0:0:
10,101,216053,6,0,P|41:159|107:169,1,137.999995788574,8|0,0:3|0:2,0:2:0:0:
293,111,216267,6,0,P|226:109|184:161,1,137.999995788574,8|0,0:3|0:2,0:2:0:0:
199,283,216482,6,0,P|168:269|154:238,1,68.9999978942872,8|0,0:3|0:2,0:2:0:0:
91,93,216624,1,10,0:3:0:0:
286,24,216767,6,0,P|331:37|352:54,1,68.9999978942872,0|0,3:2|3:2,3:2:0:0:
166,24,216910,1,8,0:2:0:0:
363,202,217053,5,2,0:2:0:0:
363,202,217101,1,2,0:2:0:0:
363,202,217148,1,2,0:2:0:0:
354,228,217196,6,0,B|399:263|382:319|382:319|417:267|388:199|371:241|296:61|380:-9|475:8|553:-5|572:173|478:256|275:148|275:148|273:59|179:-4|105:21|105:21|172:35|193:106|193:106|130:183|163:253|216:208|191:362|122:381|122:381|223:271|83:147|5:232|-9:269|-9:269|-35:326|113:381|143:280|143:280|144:247|110:226,1,2060.8,0|0,0:2|0:2,0:2:0:0:
256,192,225232,12,0,226267,0:2:0:0:
167,163,226339,6,0,B|203:143|261:166|229:187|283:222|341:188,1,172.5,0|0,0:2|0:2,0:2:0:0:
385,76,226839,6,0,P|348:79|295:134,1,92,0|0,0:2|0:2,0:2:0:0:
298,101,227053,2,0,P|333:72|378:66,1,92,0|0,0:2|0:2,0:2:0:0:
367,54,227267,1,0,0:2:0:0:
186,241,227482,6,2,L|94:249,2,86.25,2|2|2,0:2|0:2|0:2,0:2:0:0:
496,316,228624,6,0,B|463:340|463:340|326:328,1,172.5,0|0,0:2|0:2,0:2:0:0:
365,207,229124,6,0,B|412:210|412:210|437:247,1,92,0|0,0:2|0:2,0:2:0:0:
433,256,229339,2,0,B|385:252|385:252|360:215,1,92,0|0,0:2|0:2,0:2:0:0:
359,204,229553,1,0,0:2:0:0:
329,13,229767,5,2,0:2:0:0:
412,52,229982,6,0,L|503:43,1,86.25,2|2,0:2|0:2,0:2:0:0:
413,63,230267,2,0,L|504:54,1,86.25,0|0,0:2|0:2,0:2:0:0:
415,73,230589,6,0,L|504:65,1,88.5500027023316,0|0,0:2|0:2,0:2:0:0:
387,163,230910,6,0,B|320:141|302:65|341:11|341:11|313:55|239:65,1,276,0|0,0:2|0:2,0:2:0:0:
217,0,231410,6,0,P|190:39|196:95,1,92,0|0,0:2|0:2,0:2:0:0:
112,96,231624,2,0,P|132:138|183:161,1,92,0|0,0:2|0:2,0:2:0:0:
252,173,231839,1,0,0:0:0:0:
92,312,232053,6,2,P|173:314|230:397,2,155.249995262146,2|2|2,0:2|0:2|0:2,0:2:0:0:
70,324,232767,1,0,0:2:0:0:
70,324,232839,1,0,0:2:0:0:
70,324,232910,1,0,0:2:0:0:
3,131,233196,6,0,P|43:115|109:144,1,103.499996841431,0|0,0:2|0:2,0:2:0:0:
111,146,233410,6,0,P|174:184|246:134,1,155.249995262146,0|0,0:2|0:2,0:2:0:0:
252,123,233696,6,0,P|280:94|340:113,1,80.499997543335,0|0,0:2|0:2,0:2:0:0:
331,110,233910,6,0,P|308:127|256:58,1,143.75,0|0,0:2|0:2,0:2:0:0:
256,192,234303,12,0,235410,0:2:0:0:
392,107,235482,5,0,1:0:0:0:
392,107,235553,1,0,0:0:0:0:
392,107,235624,2,0,P|391:66|381:46,1,57.5,0|0,0:0|0:0,0:0:0:0:
258,0,235767,2,0,P|248:27|250:55,1,57.5,8|0,1:0|0:0,0:0:0:0:
255,175,235910,1,0,0:0:0:0:
255,175,235982,1,0,0:0:0:0:
255,175,236053,5,0,1:0:0:0:
323,145,236124,1,0,0:0:0:0:
387,184,236196,1,0,0:0:0:0:
396,257,236267,1,0,0:0:0:0:
351,317,236339,1,8,1:0:0:0:
304,284,236410,1,0,0:0:0:0:
246,286,236482,1,0,0:0:0:0:
206,326,236553,1,0,0:0:0:0:
203,383,236624,6,0,L|193:305,1,57.5,0|0,1:0|0:0,0:0:0:0:
104,321,236767,1,0,0:0:0:0:
107,305,236839,1,0,0:0:0:0:
110,290,236910,2,0,L|119:212,1,57.5,8|0,1:0|0:0,0:0:0:0:
193,217,237053,2,0,L|184:139,1,57.5
87,78,237196,6,0,B|68:114|68:114|78:155,1,80.499997543335,0|0,1:0|0:0,0:0:0:0:
193,217,237339,2,0,L|190:110,1,80.499997543335
74,77,237482,2,0,B|55:113|55:113|65:154,1,80.499997543335,8|0,1:0|0:0,0:0:0:0:
193,217,237624,2,0,L|205:111,1,80.499997543335
333,26,237767,5,0,1:0:0:0:
333,26,237838,1,0,0:0:0:0:
333,26,237909,2,0,P|374:27|394:37,1,57.5,0|0,0:0|0:0,0:0:0:0:
512,187,238052,2,0,L|442:203,1,57.5,8|0,1:0|0:0,0:0:0:0:
306,156,238196,1,0,0:0:0:0:
280,165,238267,1,0,0:0:0:0:
255,175,238338,5,0,1:0:0:0:
270,247,238409,1,0,0:0:0:0:
333,287,238481,1,0,0:0:0:0:
406,280,238552,1,0,0:0:0:0:
455,222,238624,1,8,1:0:0:0:
400,205,238695,1,0,0:0:0:0:
347,229,238767,1,0,0:0:0:0:
333,287,238838,1,0,0:0:0:0:
334,310,238909,6,0,L|344:388,1,57.5,0|0,1:0|0:0,0:0:0:0:
207,272,239052,1,0,0:0:0:0:
210,256,239124,1,0,0:0:0:0:
213,241,239195,2,0,L|222:163,1,57.5,8|0,1:0|0:0,0:0:0:0:
331,121,239338,2,0,L|388:127,1,57.5,0|0,0:0|0:0,0:0:0:0:
220,9,239482,5,0,1:0:0:0:
220,9,239553,1,0,0:0:0:0:
220,9,239624,2,0,B|183:-10|183:-10|142:0,1,80.499997543335,0|0,0:0|0:0,0:0:0:0:
90,178,239766,2,0,L|103:284,1,80.499997543335,8|0,1:0|0:0,0:0:0:0:
0,92,239909,2,0,B|36:73|36:73|77:83,1,80.499997543335,0|0,0:0|0:0,0:0:0:0:
227,126,240053,5,0,1:0:0:0:
223,183,240124,1,0,0:0:0:0:
220,240,240196,1,0,0:0:0:0:
217,297,240267,1,0,0:0:0:0:
193,350,240339,1,8,1:0:0:0:
140,373,240410,1,0,0:0:0:0:
84,355,240482,1,0,0:0:0:0:
54,306,240553,1,0,0:0:0:0:
63,249,240624,5,0,1:0:0:0:
115,212,240696,1,0,0:0:0:0:
177,217,240767,1,0,0:0:0:0:
218,265,240839,1,0,0:0:0:0:
277,284,240910,1,8,1:0:0:0:
339,270,240982,1,0,0:0:0:0:
381,223,241053,1,0,0:0:0:0:
378,160,241124,1,0,0:0:0:0:
342,107,241196,6,0,B|321:105|301:90|301:90|245:128|273:214,1,160.99999508667,0|0,1:0|0:0,0:0:0:0:
343,285,241410,1,0,0:0:0:0:
347,299,241482,2,0,L|423:292,1,57.5,8|0,1:0|0:0,0:0:0:0:
190,252,241624,2,0,L|132:257,1,57.5,0|0,0:0|0:0,0:0:0:0:
486,100,241767,5,0,1:0:0:0:
486,100,241839,1,0,0:0:0:0:
486,100,241910,1,0,0:0:0:0:
212,23,242053,2,0,B|171:5|127:17|127:17|82:55|1:31,1,172.5,8|0,1:0|0:0,0:0:0:0:
241,14,242339,5,2,0:0:0:0:
208,122,242624,1,2,0:0:0:0:
242,235,242910,1,2,0:0:0:0:
209,343,243195,1,2,0:0:0:0:
256,192,243267,12,0,244482,0:0:0:0:
485,144,244624,6,0,B|458:45|352:51|352:51|323:119,1,241.499992630005,4|0,1:2|0:0,0:0:0:0:
244,99,244910,5,8,1:0:0:0:
244,99,244982,1,0,0:0:0:0:
244,99,245053,2,0,P|253:156|294:183,1,80.499997543335,0|0,0:0|0:0,0:0:0:0:
349,313,245196,1,0,1:0:0:0:
349,313,245267,1,0,0:0:0:0:
349,313,245339,2,0,P|340:370|299:397,1,80.499997543335,0|0,0:0|0:0,0:0:0:0:
116,245,245482,6,0,B|157:223|157:223|198:242,1,92,8|0,1:0|0:0,0:0:0:0:
349,313,245624,2,0,B|390:332|390:332|453:299,1,92,0|0,0:0|0:0,0:0:0:0:
495,201,245767,5,0,1:0:0:0:
463,154,245839,1,0,0:0:0:0:
407,158,245910,1,0,0:0:0:0:
401,213,245982,1,0,3:0:0:0:
348,223,246053,1,8,1:0:0:0:
323,173,246124,1,0,0:0:0:0:
267,170,246196,1,0,3:0:0:0:
245,220,246267,1,0,0:0:0:0:
190,208,246339,5,0,1:0:0:0:
187,180,246410,1,0,0:0:0:0:
182,152,246482,1,0,0:0:0:0:
178,124,246553,1,0,0:0:0:0:
95,106,246624,5,8,1:0:0:0:
92,123,246695,1,0,0:0:0:0:
89,141,246767,1,0,0:0:0:0:
87,158,246838,1,0,0:0:0:0:
63,202,246910,5,0,1:0:0:0:
63,202,246982,1,0,0:0:0:0:
62,202,247053,2,0,L|71:300,1,80.499997543335,0|0,0:0|0:0,0:0:0:0:
170,384,247196,2,0,L|177:303,1,80.499997543335,8|0,1:0|0:0,0:0:0:0:
274,250,247339,2,0,L|266:169,1,80.499997543335,0|0,0:0|0:0,0:0:0:0:
384,384,247482,5,0,1:0:0:0:
384,384,247553,1,0,0:0:0:0:
384,384,247624,2,0,L|392:304,1,80.499997543335,0|0,0:0|0:0,0:0:0:0:
279,154,247767,2,0,B|214:132|170:192|170:192|103:220|54:183,1,241.499992630005,8|0,1:0|0:0,0:0:0:0:
111,28,248053,5,0,1:0:0:0:
149,37,248124,1,0,0:0:0:0:
171,71,248196,5,0,0:0:0:0:
209,62,248267,1,0,3:0:0:0:
248,51,248339,1,8,1:0:0:0:
286,42,248410,1,0,0:0:0:0:
308,16,248482,5,0,3:0:0:0:
346,17,248553,1,0,0:0:0:0:
389,54,248624,5,0,1:0:0:0:
407,51,248695,1,0,1:0:0:0:
425,48,248767,1,0,1:0:0:0:
443,46,248838,1,0,1:0:0:0:
477,119,248910,6,0,B|515:192|529:299|422:324|343:241|442:153,1,276,8|0,1:0|0:0,0:0:0:0:
336,139,249196,6,0,P|367:145|395:231,1,92,0|0,1:0|0:0,0:0:0:0:
304,311,249339,1,0,0:0:0:0:
304,311,249410,1,0,0:0:0:0:
304,311,249482,2,0,P|293:281|354:213,1,92,8|0,1:0|0:0,0:0:0:0:
345,129,249624,2,0,P|376:135|404:221,1,92,0|0,0:0|0:0,0:0:0:0:
492,301,249767,6,0,L|375:314,3,68.9999978942872,0|0|0|0,1:0|0:0|0:0|0:0,0:0:0:0:
290,337,250053,2,0,L|173:324,3,68.9999978942872,8|0|0|0,1:0|0:0|0:0|0:0,0:0:0:0:
71,368,250339,5,0,1:0:0:0:
50,340,250410,1,0,0:0:0:0:
51,305,250482,1,0,0:0:0:0:
69,276,250553,1,0,0:0:0:0:
101,265,250624,1,8,1:0:0:0:
133,276,250696,1,0,0:0:0:0:
156,301,250767,1,0,0:0:0:0:
160,335,250839,1,0,0:0:0:0:
145,366,250910,5,0,1:0:0:0:
105,337,250982,1,0,0:0:0:0:
88,291,251053,1,0,0:0:0:0:
100,244,251124,1,0,0:0:0:0:
132,208,251196,1,8,1:0:0:0:
176,188,251267,1,0,0:0:0:0:
210,154,251339,1,0,0:0:0:0:
217,106,251410,1,0,0:0:0:0:
197,61,251482,6,0,P|168:46|118:78,1,68.9999978942872,0|0,1:0|0:0,0:0:0:0:
65,132,251624,1,0,0:0:0:0:
65,132,251696,1,0,0:0:0:0:
65,132,251767,2,0,P|36:147|-14:115,1,68.9999978942872,8|0,1:0|0:0,0:0:0:0:
176,188,251910,2,0,P|208:197|238:182,1,68.9999978942872,0|0,0:0|0:0,0:0:0:0:
405,21,252053,5,0,1:0:0:0:
386,11,252124,1,0,0:0:0:0:
365,5,252196,1,0,0:0:0:0:
344,6,252267,1,0,0:0:0:0:
314,22,252339,2,0,B|326:173|326:173|335:137|352:107,1,206.999993682861,8|0,1:0|0:0,0:0:0:0:
418,177,252624,6,0,L|475:181,1,51.7499984207154,0|0,1:0|0:0,0:0:0:0:
415,254,252767,2,0,L|472:258,1,51.7499984207154,0|0,0:0|0:0,0:0:0:0:
331,365,252910,6,0,L|327:313,3,51.7499984207154,8|0|0|0,1:0|0:0|0:0|0:0,0:0:0:0:
246,320,253196,2,0,L|250:372,3,51.7499984207154,0|0|0|0,1:0|0:0|0:0|0:0,0:0:0:0:
168,377,253482,2,0,L|164:325,3,51.7499984207154,8|0|0|0,1:0|0:0|0:0|0:0,0:0:0:0:
19,158,253767,6,0,P|56:155|107:177,1,68.9999978942872,0|0,1:0|0:0,0:0:0:0:
176,181,253910,2,0,P|159:214|115:247,1,68.9999978942872,0|0,0:0|0:0,0:0:0:0:
77,305,254053,2,0,P|56:273|49:218,1,68.9999978942872,8|0,1:0|0:0,0:0:0:0:
94,44,254196,5,0,0:0:0:0:
94,44,254267,1,0,0:0:0:0:
94,44,254339,2,0,P|118:57|150:110,1,68.9999978942872,0|0,1:0|0:0,0:0:0:0:
250,50,254482,1,0,0:0:0:0:
250,50,254553,1,0,0:0:0:0:
250,50,254625,2,0,P|238:74|243:136,1,68.9999978942872,8|0,1:0|0:0,0:0:0:0:
366,109,254767,1,0,0:0:0:0:
366,109,254839,1,0,0:0:0:0:
366,109,254910,5,0,1:0:0:0:
353,69,254982,1,0,0:0:0:0:
368,30,255053,1,0,0:0:0:0:
406,15,255124,1,0,0:0:0:0:
445,27,255196,1,8,1:0:0:0:
468,60,255267,1,0,0:0:0:0:
464,101,255339,1,0,0:0:0:0:
437,132,255410,1,0,0:0:0:0:
419,169,255482,5,0,1:0:0:0:
452,203,255553,1,0,0:0:0:0:
472,246,255624,1,0,0:0:0:0:
469,294,255696,1,0,0:0:0:0:
449,338,255767,1,8,1:0:0:0:
408,364,255839,1,0,0:0:0:0:
360,366,255910,1,0,0:0:0:0:
313,351,255982,1,0,0:0:0:0:
289,300,256053,5,0,1:0:0:0:
289,300,256124,1,0,0:0:0:0:
289,300,256196,2,0,P|269:271|243:251,1,68.9999978942872,0|0,0:0|0:0,0:0:0:0:
78,93,256339,1,8,1:0:0:0:
78,93,256410,1,0,0:0:0:0:
78,93,256482,2,0,P|98:122|125:143,1,68.9999978942872,0|0,0:0|0:0,0:0:0:0:
324,157,256625,6,0,P|290:159|259:172,1,68.9999978942872,0|0,1:0|0:0,0:0:0:0:
42,235,256767,2,0,P|77:233|108:219,1,68.9999978942872,0|0,0:0|0:0,0:0:0:0:
221,55,256910,2,0,P|205:86|201:119,1,68.9999978942872,8|0,1:0|0:0,0:0:0:0:
166,273,257053,2,0,P|162:307|148:338,1,68.9999978942872,0|0,0:0|0:0,0:0:0:0:
65,83,257196,5,0,1:0:0:0:
183,200,257410,1,0,1:0:0:0:
436,32,257624,5,0,1:0:0:0:
304,98,257767,2,0,P|364:95|436:173,1,138,0|0,1:0|0:0,0:0:0:0:
512,139,258053,6,0,B|404:118|452:238|291:187,1,189.750005790711
316,191,258339,5,0,0:2:0:0:
305,186,258482,1,0,0:2:0:0:
212,325,258624,1,8,0:2:0:0:
141,159,258767,1,0,0:2:0:0:
134,128,258839,1,0,0:2:0:0:
127,97,258910,1,0,0:2:0:0:
120,66,258982,1,0,0:2:0:0:
111,36,259053,1,0,0:2:0:0:
24,192,259196,5,8,0:2:0:0:
245,130,259339,1,0,0:2:0:0:
32,52,259482,5,0,0:2:0:0:
19,45,259624,1,0,0:2:0:0:
221,143,259767,1,8,0:0:0:0:
109,236,259910,1,0,0:2:0:0:
105,267,259982,1,0,0:2:0:0:
102,298,260053,1,0,0:2:0:0:
99,329,260124,1,0,0:2:0:0:
96,360,260196,1,0,0:2:0:0:
298,277,260339,6,0,L|290:243,6,31.6250009651184,8|0|0|0|0|0|0,0:2|0:2|0:2|0:2|0:2|0:2|0:2,0:2:0:0:
321,360,260624,5,0,0:2:0:0:
372,3,260910,1,0,0:2:0:0:
497,178,261196,5,2,0:2:0:0:
500,189,261339,1,2,0:2:0:0:
372,105,261482,5,2,0:2:0:0:
375,94,261625,1,2,0:2:0:0:
484,199,261767,5,2,0:2:0:0:
487,210,261910,1,2,0:2:0:0:
386,90,262053,5,2,0:2:0:0:
389,79,262196,1,2,0:2:0:0:
467,225,262339,5,2,0:2:0:0:
470,236,262482,1,2,0:2:0:0:
407,71,262625,5,2,0:2:0:0:
410,60,262768,1,2,0:2:0:0:
450,259,262910,6,0,B|369:270|326:156|326:156|318:276|236:294,1,345,0|0,1:2|0:2,0:2:0:0:
116,157,263196,6,0,P|203:106|133:212,1,345,8|0,1:2|0:2,0:2:0:0:
23,324,263482,6,0,B|42:303|183:230|127:443|277:386|302:362,1,293.2500055933,0|0,1:2|0:2,0:2:0:0:
458,299,263767,6,0,B|478:258|478:258|466:55|466:55,1,230,8|0,0:2|0:2,0:2:0:0:
182,69,264053,6,0,B|166:122|166:122|387:172|387:172|364:249,1,345,0|0,1:2|0:2,0:2:0:0:
357,320,264339,6,0,B|289:36|289:36|230:12,1,345,8|0,0:2|0:2,0:2:0:0:
105,0,264624,6,0,L|6:345,1,345,0|0,1:2|0:2,0:2:0:0:
253,229,264910,6,0,P|206:185|179:224,1,115,8|0,0:2|0:2,0:2:0:0:
101,334,265053,2,0,P|145:361|173:318,1,115,0|0,0:2|0:2,0:2:0:0:
342,222,265196,6,0,P|256:104|90:204,1,345,0|0,1:2|0:2,0:2:0:0:
18,254,265482,6,0,L|370:322,1,345,8|0,0:2|0:2,0:2:0:0:
510,146,265767,6,0,B|531:191|490:249|427:234|405:186|405:186|371:125|286:136|267:188|264:238,1,345,0|0,1:2|0:2,0:2:0:0:
119,3,266053,6,0,P|184:12|94:139,1,230,8|0,0:2|0:2,0:2:0:0:
0,111,266339,6,0,L|352:42,1,345,0|0,1:2|0:2,0:2:0:0:
510,146,266624,6,0,B|523:219|523:219|453:139,1,115,8|0,0:2|0:2,0:2:0:0:
353,38,266767,2,0,B|326:7|326:7|339:80,1,115,0|0,0:2|0:2,0:2:0:0:
287,310,266910,6,0,B|218:152|218:152|349:125|349:125|318:238,1,379.500011581421,0|0,1:2|0:2,0:2:0:0:
415,289,267196,5,8,0:2:0:0:
145,370,267339,1,0,0:2:0:0:
0,125,267482,6,0,P|52:99|103:137,1,115,0|0,1:2|0:2,0:2:0:0:
104,274,267624,1,0,0:2:0:0:
104,274,267696,1,0,0:2:0:0:
104,274,267767,2,0,P|107:158|295:-10,1,345,8|0,0:2|0:2,0:2:0:0:
355,156,268053,6,0,B|403:140|451:170|451:170|425:87|337:24|228:117,1,345,0|0,1:2|0:2,0:2:0:0:
227,213,268339,6,0,B|277:239|272:315|272:315|309:247|381:268,1,230,8|0,0:2|0:2,0:2:0:0:
258,95,268624,6,0,B|237:61|105:44|148:169|38:138|5:100|5:100|37:109|77:84,1,345,0|0,1:2|0:2,0:2:0:0:
152,10,268910,6,0,P|183:67|155:147,1,115,8|0,0:2|0:2,0:2:0:0:
114,211,269053,2,0,P|65:241|9:237,1,115,8|0,0:2|0:2,0:2:0:0:
26,20,269196,5,0,1:2:0:0:
204,284,269339,1,0,0:2:0:0:
204,284,269410,1,0,0:2:0:0:
204,284,269482,2,0,B|241:221|333:222|379:267|379:267|365:303,1,230,8|0,0:2|0:2,0:2:0:0:
317,384,269767,6,0,B|301:370|252:186|496:279|428:103|406:78,1,345,0|0,1:2|0:2,0:2:0:0:
243,12,270053,6,0,B|234:60|178:85|129:67|129:67|137:209|289:201|289:201,1,345,8|0,0:2|0:2,0:2:0:0:
471,17,270339,6,0,P|360:9|356:154,1,230,0|0,1:2|0:2,0:2:0:0:
351,211,270553,1,0,0:2:0:0:
357,230,270624,1,8,0:2:0:0:
316,328,270767,1,0,0:2:0:0:
0,273,270910,6,0,B|131:284|131:284|171:331|171:331|354:349,1,345,0|0,1:2|0:2,0:2:0:0:
418,293,271196,5,8,0:2:0:0:
60,366,271339,1,0,0:2:0:0:
170,33,271482,2,0,B|163:15|173:2|173:2|182:18|173:41,1,57.5,0|0,1:2|0:2,0:2:0:0:
120,130,271767,6,0,L|69:122,1,28.75,0|0,3:2|0:2,0:2:0:0:
120,138,271910,2,0,L|69:130,1,28.75,0|0,3:2|0:2,0:2:0:0:
240,226,272053,6,0,P|330:219|367:69,1,230,0|0,1:2|0:2,0:2:0:0:
297,30,272267,1,0,0:2:0:0:
277,22,272339,2,0,P|247:65|298:134,1,115,8|0,0:2|0:2,0:2:0:0:
477,182,272482,2,0,P|517:148|485:68,1,115,0|0,0:2|0:2,0:2:0:0:
371,0,272624,6,0,L|405:359,1,345,0|0,1:2|0:2,0:2:0:0:
211,274,272910,6,0,B|135:224|51:210|51:210|134:223|222:204,1,345,8|0,0:2|0:2,0:2:0:0:
266,119,273196,6,0,P|320:94|393:113,1,115,0|0,1:2|0:2,0:2:0:0:
174,358,273339,2,0,P|117:365|66:340,1,115,0|0,0:2|0:2,0:2:0:0:
258,107,273482,6,0,P|312:82|385:101,1,115,8|0,0:2|0:2,0:2:0:0:
166,346,273625,2,0,P|109:353|58:328,1,115,0|0,0:2|0:2,0:2:0:0:
0,117,273767,5,0,1:2:0:0:
208,3,273910,2,0,P|246:38|241:113,1,115,0|0,0:2|0:2,0:2:0:0:
182,256,274053,2,0,B|196:123|88:40|88:40|119:98|96:159,1,345,8|0,0:2|0:2,0:2:0:0:
0,241,274339,6,0,B|81:290|167:212|167:212|250:177|324:240,1,345,0|0,1:2|0:2,0:2:0:0:
475,331,274624,6,0,P|345:332|455:220,1,345,8|0,0:2|0:2,0:2:0:0:
512,136,274910,6,0,B|462:130|462:130|443:126|443:126|351:118,1,115,0|0,1:2|0:2,0:2:0:0:
264,40,275053,2,0,B|214:45|214:45|195:50|195:50|103:58,1,115,0|0,0:2|0:2,0:2:0:0:
502,149,275196,6,0,B|452:143|452:143|433:139|433:139|341:131,1,115,8|0,0:2|0:2,0:2:0:0:
254,53,275339,2,0,B|204:58|204:58|185:63|185:63|93:71,1,115,0|0,0:2|0:2,0:2:0:0:
512,0,275482,6,0,P|397:12|228:213,1,379.500011581421,0|0,1:2|0:2,0:2:0:0:
391,316,275767,6,0,B|422:349|490:323|498:233|369:173|266:297,1,310.499990524292,8|0,0:2|0:2,0:2:0:0:
138,296,276053,5,8,1:3:0:0:
150,335,276124,1,8,0:3:0:0:
162,374,276196,1,8,0:3:0:0:
0,254,276339,1,8,0:2:0:0:
230,200,276482,1,8,0:3:0:0:
65,51,276624,6,0,B|167:8|146:124|279:68,1,184,0|0,1:2|0:2,0:2:0:0:
444,248,276910,1,8,0:2:0:0:
405,10,277053,1,0,0:2:0:0:
405,10,277124,1,0,0:2:0:0:
405,10,277196,2,0,P|344:53|393:172,1,184,0|0,1:2|0:2,0:2:0:0:
461,267,277482,2,0,B|514:221|514:221|287:241,1,276,8|0,0:2|0:2,0:2:0:0:
281,241,277767,5,0,1:2:0:0:
125,198,278053,1,8,0:2:0:0:
274,165,278339,5,0,1:2:0:0:
134,274,278625,1,8,0:2:0:0:
8,119,278910,5,0,1:2:0:0:
18,109,279482,5,0,1:2:0:0:
18,129,280053,5,0,1:2:0:0:
8,119,280624,5,0,1:2:0:0:
221,148,280910,6,0,B|307:130|275:186|374:170,1,155.249995262146,0|0,0:2|1:2,1:2:0:0:
398,145,281196,6,0,L|383:323,1,137.999995788574,0|2,1:2|0:2,0:2:0:0:
190,21,281482,2,0,L|204:199,1,137.999995788574,10|0,0:2|0:2,0:2:0:0:
474,53,281767,2,0,P|418:18|328:50,1,137.999995788574,2|0,1:2|0:2,0:2:0:0:
66,182,282053,1,8,0:2:0:0:
255,355,282196,6,0,B|312:324|358:364|358:364|421:374|467:323,1,206.999993682861,0|0,0:2|0:2,0:2:0:0:
480,312,282482,1,2,0:2:0:0:
192,215,282624,1,10,0:2:0:0:
372,10,282767,1,0,0:2:0:0:
512,189,282910,1,2,1:3:0:0:
464,183,282982,1,2,0:3:0:0:
417,177,283053,1,2,0:3:0:0:
370,171,283124,1,2,0:3:0:0:
322,165,283196,5,10,0:2:0:0:
173,17,283339,1,2,0:2:0:0:
60,200,283482,2,0,L|43:373,1,137.999995788574,2|2,1:2|0:2,0:2:0:0:
171,110,283767,6,0,B|204:100|204:100|238:105,1,68.9999978942872,10|0,0:2|0:2,0:2:0:0:
318,307,283910,1,2,0:3:0:0:
269,314,283982,1,2,0:3:0:0:
224,295,284053,1,2,1:3:0:0:
200,253,284124,1,2,0:3:0:0:
208,205,284196,1,2,0:3:0:0:
335,322,284339,2,0,L|484:333,1,137.999995788574,8|0,0:2|0:2,0:2:0:0:
238,105,284624,6,0,B|189:108|189:108|160:123|160:123|103:128,1,137.999995788574,0|2,1:2|0:2,0:2:0:0:
32,236,284839,1,0,0:2:0:0:
32,236,284910,1,10,0:2:0:0:
226,384,285053,1,0,0:2:0:0:
440,203,285196,1,10,1:3:0:0:
379,170,285267,1,8,0:3:0:0:
327,217,285339,2,0,P|372:213|421:206,1,68.9999978942872,10|0,0:3|0:2,0:2:0:0:
330,31,285482,6,0,B|304:25|281:1|281:1|218:51|249:136,1,206.999993682861,8|0,0:2|0:2,0:2:0:0:
179,182,285767,6,0,P|236:220|321:173,1,137.999995788574,0|2,1:2|0:2,0:2:0:0:
0,61,286053,2,0,P|57:23|142:70,1,137.999995788574,8|0,0:2|0:2,0:2:0:0:
272,364,286339,1,2,1:2:0:0:
4,218,286482,1,2,0:2:0:0:
248,134,286624,1,10,0:2:0:0:
0,308,286767,6,0,B|111:277|106:386|211:349,1,206.999993682861,0|0,0:2|0:2,0:2:0:0:
298,289,287053,1,2,0:2:0:0:
69,104,287196,1,10,0:2:0:0:
36,384,287339,1,0,0:2:0:0:
226,200,287482,1,2,1:3:0:0:
232,152,287553,1,2,0:3:0:0:
238,105,287624,1,2,0:3:0:0:
244,58,287696,1,2,0:3:0:0:
250,10,287767,5,10,0:2:0:0:
298,273,287910,1,0,0:2:0:0:
458,34,288053,6,0,L|441:207,1,137.999995788574,0|2,1:2|0:2,0:2:0:0:
384,235,288267,2,0,B|444:266|444:266|507:236,1,137.999995788574,0|0,0:2|0:2,0:2:0:0:
372,143,288482,1,2,0:3:0:0:
323,151,288553,1,2,0:3:0:0:
286,183,288624,1,2,1:3:0:0:
276,230,288696,1,2,0:3:0:0:
298,273,288767,1,2,0:3:0:0:
151,139,288910,2,0,L|14:129,1,137.999995788574,8|0,0:2|0:2,0:2:0:0:
18,328,289195,6,0,B|74:323|74:323|103:308|103:308|152:304,1,137.999995788574,0|2,1:2|0:2,0:2:0:0:
32,236,289410,1,0,0:2:0:0:
32,236,289481,1,10,0:2:0:0:
226,384,289624,1,0,0:2:0:0:
300,127,289767,1,2,1:2:0:0:
288,120,289838,1,0,0:2:0:0:
278,114,289910,2,0,P|282:159|289:208,1,68.9999978942872,0|0,0:2|0:2,0:2:0:0:
378,354,290053,6,0,B|391:379|427:384|427:384|488:319|434:248,1,206.999993682861,8|0,0:2|0:2,0:2:0:0:
385,166,290339,6,0,P|367:129|423:41,1,137.999995788574,0|2,1:2|0:2,0:2:0:0:
301,264,290624,1,10,0:2:0:0:
88,138,290767,1,2,0:3:0:0:
136,132,290839,1,2,0:3:0:0:
183,126,290910,1,2,1:3:0:0:
230,120,290981,1,2,0:3:0:0:
278,114,291053,1,2,0:3:0:0:
452,121,291196,1,8,0:2:0:0:
221,13,291339,1,0,0:2:0:0:
219,271,291482,5,0,1:2:0:0:
510,192,291624,1,2,0:2:0:0:
287,100,291767,1,8,0:2:0:0:
243,340,291910,1,2,0:3:0:0:
194,345,291982,1,2,0:3:0:0:
154,319,292053,1,2,1:3:0:0:
143,273,292124,1,2,0:3:0:0:
159,228,292196,2,0,P|185:204|235:202,1,68.9999978942872,2|0,0:3|0:2,0:2:0:0:
506,340,292339,2,0,B|423:363|444:272|337:310,1,160.99999508667,8|2,0:2|0:2,0:2:0:0:
247,329,292553,1,0,0:2:0:0:
236,330,292624,5,0,1:2:0:0:
37,132,292767,1,2,0:2:0:0:
135,384,292910,1,8,0:2:0:0:
182,92,293053,2,0,L|190:-5,1,68.9999978942872,0|0,0:2|0:2,0:2:0:0:
238,202,293196,1,2,1:3:0:0:
285,205,293267,1,0,0:3:0:0:
319,170,293339,1,2,0:3:0:0:
75,40,293482,5,8,0:2:0:0:
7,260,293624,2,0,B|-24:208|38:157|134:180|147:307,1,241.499992630005,0|0,0:2|0:2,0:2:0:0:
226,339,293910,2,0,L|238:183,1,137.999995788574,2|8,0:2|0:2,0:2:0:0:
392,51,294196,1,0,0:2:0:0:
107,90,294339,5,2,1:2:0:0:
245,351,294482,1,2,0:2:0:0:
423,138,294624,1,10,0:2:0:0:
412,69,294696,1,2,0:3:0:0:
403,0,294767,1,2,0:3:0:0:
114,260,294910,5,0,1:2:0:0:
271,10,295053,1,2,0:2:0:0:
388,308,295196,1,10,0:2:0:0:
99,115,295339,1,2,0:3:0:0:
143,94,295410,1,2,0:3:0:0:
190,100,295482,1,2,1:3:0:0:
224,133,295553,1,2,0:3:0:0:
232,181,295624,2,0,L|222:287,1,68.9999978942872,2|0,0:3|0:2,0:2:0:0:
19,245,295767,2,0,L|291:268,1,206.999993682861,8|0,0:2|0:2,0:2:0:0:
245,351,296053,5,0,1:2:0:0:
498,177,296196,2,0,B|435:150|435:150|360:191,1,137.999995788574,2|10,0:2|0:2,0:2:0:0:
246,368,296482,1,0,0:2:0:0:
137,141,296624,1,2,1:3:0:0:
143,94,296695,1,2,0:3:0:0:
149,46,296767,1,2,0:3:0:0:
285,81,296910,1,8,0:2:0:0:
0,170,297053,1,0,0:2:0:0:
213,255,297196,6,0,B|184:228|248:202|333:219|390:276,1,206.999993682861,0|8,1:2|0:2,0:2:0:0:
418,340,297624,1,0,0:2:0:0:
459,159,297767,2,0,B|451:148|451:130|451:130|429:167|461:195,1,103.499996841431,0|0,1:2|0:2,0:2:0:0:
282,373,298053,2,0,B|314:345|292:307|292:307|292:323|284:336,1,103.499996841431,8|0,0:2|0:2,0:2:0:0:
103,318,298339,6,0,B|127:303|127:303|204:309,1,103.499996841431,0|0,1:2|0:2,0:2:0:0:
372,123,298624,2,0,B|336:136|336:136|299:130|299:130|182:141,1,155.249995262146,8|0,0:2|0:2,0:2:0:0:
194,55,298910,5,2,0:2:0:0:
103,26,299053,1,2,0:2:0:0:
21,68,299196,1,2,0:2:0:0:
0,160,299339,1,2,0:2:0:0:
97,379,299482,5,2,1:2:0:0:
147,302,299624,2,0,L|274:290,1,103.499996841431,0|0,0:2|0:2,0:2:0:0:
340,339,299909,1,0,0:2:0:0:
132,294,300052,2,0,B|79:298|79:298|52:250,1,103.499996841431,8|0,0:2|0:2,0:2:0:0:
207,157,300339,2,0,B|298:145|269:212|383:200,1,155.249995262146,0|0,0:2|0:2,0:2:0:0:
375,203,300624,5,0,1:2:0:0:
434,31,300767,2,0,P|387:7|369:122,1,206.999993682861,0|0,0:2|0:2,0:2:0:0:
493,206,301196,1,10,0:2:0:0:
493,206,301267,1,0,0:2:0:0:
493,206,301339,1,0,0:2:0:0:
304,299,301482,1,2,0:2:0:0:
375,203,301624,1,0,0:2:0:0:
397,380,301767,5,2,1:2:0:0:
491,298,301910,2,0,P|442:277|383:301,1,103.499996841431,0|0,0:2|0:2,0:2:0:0:
207,345,302196,1,0,0:2:0:0:
174,234,302339,2,0,P|223:213|282:237,1,103.499996841431,8|0,0:2|0:2,0:2:0:0:
89,384,302624,2,0,L|74:174,1,206.999993682861,0|0,0:2|1:2,0:2:0:0:
155,3,303053,6,0,P|184:50|153:113,1,103.499996841431,0|2,0:2|0:2,0:2:0:0:
73,166,303339,1,0,0:2:0:0:
0,67,303482,2,0,L|129:58,1,103.499996841431,10|0,0:2|0:2,0:2:0:0:
232,165,303767,1,2,0:2:0:0:
379,142,303910,1,0,0:2:0:0:
252,29,304053,5,2,1:2:0:0:
309,179,304196,1,0,0:2:0:0:
409,68,304339,1,2,0:2:0:0:
409,68,304410,1,0,0:2:0:0:
409,68,304482,1,0,0:2:0:0:
242,20,304624,1,10,0:2:0:0:
309,192,304767,1,0,0:2:0:0:
425,63,304910,2,0,L|437:202,1,103.499996841431,2|0,0:2|0:2,0:2:0:0:
282,330,305196,5,2,1:2:0:0:
322,213,305339,1,0,0:2:0:0:
439,253,305482,1,2,0:2:0:0:
399,370,305624,1,0,0:2:0:0:
317,204,305767,1,10,0:2:0:0:
406,383,305910,1,0,0:2:0:0:
232,271,306053,2,0,B|157:261|161:331|54:297,1,155.249995262146,2|0,0:2|0:2,0:2:0:0:
62,137,306339,6,0,B|106:166|100:216|100:216|182:129|21:77|141:-10,1,322,2|0,1:2|1:2,0:2:0:0:
256,192,306910,12,0,308339,0:2:0:0:
479,179,308624,5,4,1:2:0:0:
475,124,308695,1,0,0:2:0:0:
429,92,308767,1,0,0:2:0:0:
375,105,308838,1,0,0:2:0:0:
353,157,308909,2,0,L|344:261,1,80.499997543335,8|0,0:2|0:2,0:2:0:0:
218,350,309052,2,0,L|225:270,1,80.499997543335,0|0,0:2|0:2,0:2:0:0:
104,153,309195,5,0,1:2:0:0:
104,153,309267,1,0,0:2:0:0:
104,153,309338,2,0,P|148:147|196:185,1,80.499997543335,0|0,0:2|0:2,0:2:0:0:
457,357,309482,1,8,0:2:0:0:
457,357,309553,1,0,0:2:0:0:
457,357,309624,2,0,P|412:362|364:324,1,80.499997543335,0|0,0:2|0:2,0:2:0:0:
279,79,309767,6,0,B|293:50|275:8|275:8|365:28|373:137,1,241.499992630005,2|0,1:2|0:2,0:2:0:0:
512,46,310052,2,0,P|471:26|425:49,1,80.499997543335,10|0,0:2|0:2,0:2:0:0:
282,180,310196,2,0,P|237:188|198:154,1,80.499997543335,2|0,0:2|0:2,0:2:0:0:
493,261,310339,1,2,1:2:0:0:
200,49,310481,6,0,L|88:41,1,80.499997543335,2|0,0:2|0:2,0:2:0:0:
15,180,310624,2,0,L|9:227,4,40.2499987716675,8|0|0|0|0,0:2|0:2|0:2|0:2|0:2,0:2:0:0:
113,205,310839,1,0,0:2:0:0:
23,242,310910,6,0,L|28:161,1,80.499997543335,0|0,1:2|0:2,0:2:0:0:
210,44,311053,2,0,P|227:83|211:122,1,80.499997543335,0|0,0:2|0:2,0:2:0:0:
103,327,311196,2,0,B|203:344|184:229|297:266,1,206.999993682861,8|0,0:2|0:2,0:2:0:0:
385,173,311410,1,0,0:2:0:0:
401,170,311482,1,0,1:2:0:0:
287,369,311624,2,0,P|268:329|300:270,1,103.499996841431,0|0,0:2|0:2,0:2:0:0:
480,42,311767,2,0,B|486:133|486:133|492:154|492:154|498:282,1,206.999993682861,8|0,0:2|0:2,0:2:0:0:
216,32,312053,6,0,B|246:66|213:97|261:138,1,103.499996841431,0|0,1:2|0:2,0:2:0:0:
349,326,312196,1,0,0:2:0:0:
487,37,312339,1,8,0:2:0:0:
182,203,312482,1,0,0:2:0:0:
175,207,312553,1,0,0:2:0:0:
166,210,312624,6,0,B|121:218|111:174|51:195,1,103.499996841431,0|0,1:2|0:2,0:2:0:0:
16,123,312767,1,0,1:2:0:0:
257,150,312910,1,8,0:2:0:0:
112,329,313053,1,8,0:2:0:0:
58,37,313196,6,0,L|36:279,1,206.999993682861,0|0,1:2|0:2,0:2:0:0:
111,349,313410,1,0,0:2:0:0:
111,368,313481,1,8,0:2:0:0:
352,162,313624,2,0,P|306:139|256:149,1,103.499996841431,0|0,0:2|0:2,0:2:0:0:
164,132,313767,1,0,1:2:0:0:
164,132,313839,1,0,0:2:0:0:
164,132,313910,2,0,P|167:182|200:221,1,103.499996841431,0|0,0:2|0:2,0:2:0:0:
231,309,314053,1,8,0:2:0:0:
231,309,314124,1,0,0:2:0:0:
231,309,314196,2,0,P|273:280|289:232,1,103.499996841431,0|0,0:2|0:2,0:2:0:0:
434,38,314339,6,0,B|277:53|277:53|336:83,1,206.999993682861,2|0,1:2|0:2,0:2:0:0:
448,26,314624,2,0,B|291:41|291:41|350:71,1,206.999993682861,10|0,0:2|0:2,0:2:0:0:
46,204,314910,6,0,B|202:219|202:219|143:248,1,206.999993682861,2|0,1:2|0:2,0:2:0:0:
32,192,315196,2,0,B|188:207|188:207|129:237,1,206.999993682861,10|0,0:2|0:2,0:2:0:0:
507,352,315482,6,0,B|422:359|422:359|382:335|382:335|295:342,1,206.999993682861,0|0,1:2|0:2,0:2:0:0:
172,360,315696,1,0,0:2:0:0:
157,362,315767,1,8,0:2:0:0:
87,166,315910,2,0,B|131:137|131:137|202:163,1,103.499996841431,0|0,0:2|0:2,0:2:0:0:
300,260,316053,2,0,L|445:247,1,103.499996841431,0|0,1:2|0:2,0:2:0:0:
186,165,316196,2,0,L|82:174,1,103.499996841431,0|0,0:2|0:2,0:2:0:0:
430,21,316338,2,0,P|492:88|421:154,1,206.999993682861,8|0,0:2|0:2,0:2:0:0:
326,138,316553,1,0,0:2:0:0:
310,139,316624,6,0,B|285:118|267:112|267:112|286:106|314:86,1,103.499996841431,0|0,1:2|0:2,0:2:0:0:
420,9,316767,2,0,B|448:15|466:34|466:34|451:57|423:61,1,103.499996841431,0|0,0:2|0:2,0:2:0:0:
309,157,316910,2,0,L|43:133,1,206.999993682861,8|0,0:2|0:2,0:2:0:0:
308,384,317196,6,0,P|332:338|330:287,1,103.499996841431,2|0,1:2|0:2,0:2:0:0:
94,140,317339,2,0,P|102:191|133:232,1,103.499996841431,2|0,0:2|0:2,0:2:0:0:
411,210,317482,2,0,P|374:173|325:159,1,103.499996841431,2|0,0:2|0:2,0:2:0:0:
111,340,317624,2,0,P|162:349|210:331,1,103.499996841431,2|0,0:2|0:2,0:2:0:0:
276,59,317767,5,4,1:2:0:0:
276,59,317839,1,0,0:2:0:0:
276,59,317910,2,0,L|183:51,1,80.499997543335,0|0,0:2|0:2,0:2:0:0:
31,347,318053,1,8,0:2:0:0:
31,347,318125,1,0,0:2:0:0:
31,347,318196,2,0,L|123:339,1,80.499997543335,0|0,0:2|0:2,0:2:0:0:
34,85,318339,5,0,1:2:0:0:
34,85,318411,1,0,0:2:0:0:
34,85,318482,2,0,L|26:177,1,80.499997543335,0|0,0:2|0:2,0:2:0:0:
322,330,318625,1,8,0:2:0:0:
322,330,318697,1,0,0:2:0:0:
322,330,318768,2,0,L|314:237,1,80.499997543335,0|0,0:2|0:2,0:2:0:0:
470,49,318910,5,0,1:2:0:0:
405,327,319053,6,0,L|397:234,1,80.499997543335,0|0,0:2|0:2,0:2:0:0:
291,84,319196,2,0,L|284:164,1,80.499997543335,8|0,0:2|0:2,0:2:0:0:
189,279,319339,1,0,0:2:0:0:
91,154,319482,2,0,P|53:136|2:155,2,80.499997543335,0|0|0,1:2|0:2|0:2,0:2:0:0:
302,358,319767,1,8,0:2:0:0:
350,363,319839,1,0,0:2:0:0:
396,350,319910,1,0,0:2:0:0:
429,314,319982,1,0,0:2:0:0:
439,266,320053,6,0,L|419:-35,1,206.999993682861,0|0,1:2|0:2,0:2:0:0:
254,76,320268,1,0,0:2:0:0:
233,78,320339,1,8,0:2:0:0:
512,156,320482,1,0,0:2:0:0:
329,278,320624,6,0,B|282:257|282:257|239:287,1,103.499996841431,0|0,1:2|0:2,0:2:0:0:
131,84,320767,2,0,B|86:110|86:110|41:84,1,103.499996841431,0|0,0:2|0:2,0:2:0:0:
0,205,320910,2,0,L|300:175,1,230,8|0,0:2|0:2,0:2:0:0:
328,89,321124,1,0,0:2:0:0:
347,88,321196,5,0,1:2:0:0:
406,369,321339,1,0,0:2:0:0:
138,265,321481,1,8,0:2:0:0:
421,151,321624,1,0,0:2:0:0:
270,382,321767,2,0,B|244:343|244:343|259:300,1,92,2|0,1:2|0:2,0:2:0:0:
456,233,321910,2,0,B|472:191|472:191|446:152,1,92,2|0,0:2|0:2,0:2:0:0:
300,63,322053,2,0,L|297:17,6,46,10|0|0|0|0|0|0,0:2|0:2|0:2|0:2|0:2|0:2|0:2,0:2:0:0:
250,128,322339,5,0,1:2:0:0:
192,197,322482,1,0,0:2:0:0:
261,255,322624,1,8,0:2:0:0:
319,186,322767,1,0,0:2:0:0:
182,130,322910,5,0,1:2:0:0:
317,118,323053,1,0,0:2:0:0:
329,253,323196,1,8,0:2:0:0:
194,265,323339,1,0,0:2:0:0:
243,48,323481,5,0,1:2:0:0:
112,204,323625,1,0,0:2:0:0:
268,335,323768,1,8,0:2:0:0:
399,179,323910,1,0,0:2:0:0:
117,357,324053,5,0,1:2:0:0:
90,53,324196,1,0,0:2:0:0:
394,26,324339,1,8,0:2:0:0:
421,330,324482,1,0,0:2:0:0:
289,214,324624,6,0,L|209:207,1,63.2500019302369,2|0,1:2|0:2,0:2:0:0:
224,289,324767,2,0,L|144:282,1,63.2500019302369,2|0,0:2|0:2,0:2:0:0:
197,128,324910,2,0,L|117:121,1,63.2500019302369,2|0,0:2|0:2,0:2:0:0:
132,203,325053,2,0,L|52:196,1,63.2500019302369,2|0,0:2|0:2,0:2:0:0:
16,321,325196,6,0,L|244:303,1,189.750005790711,2|0,1:2|0:2,0:2:0:0:
303,332,325482,1,8,0:2:0:0:
312,339,325624,1,0,0:2:0:0:
459,266,325767,5,0,1:2:0:0:
455,304,325910,1,0,0:2:0:0:
382,182,326053,5,0,0:2:0:0:
395,363,326196,1,0,0:2:0:0:
458,79,326339,5,0,1:2:0:0:
232,384,326482,1,0,0:2:0:0:
67,99,326624,2,0,B|60:74|75:38|75:38|73:72|100:97,1,120.749996315003,10|0,0:2|0:2,0:2:0:0:
231,171,326910,5,4,1:2:0:0:
222,235,326982,1,0,0:2:0:0:
167,267,327053,1,0,0:2:0:0:
104,252,327124,1,0,0:2:0:0:
69,196,327196,2,0,L|60:92,1,80.499997543335,8|0,0:2|0:2,0:2:0:0:
309,0,327339,5,0,0:2:0:0:
372,11,327410,1,0,0:2:0:0:
435,23,327482,2,0,L|425:127,1,80.499997543335,0|0,1:2|0:2,0:2:0:0:
344,304,327624,2,0,L|351:384,1,80.499997543335,0|0,0:2|0:2,0:2:0:0:
501,208,327768,1,8,0:2:0:0:
458,150,327839,1,0,0:2:0:0:
390,124,327910,1,0,0:2:0:0:
324,156,327982,1,0,0:2:0:0:
287,218,328053,6,0,P|241:230|177:204,1,80.499997543335,0|0,1:2|0:2,0:2:0:0:
138,23,328196,2,0,P|169:47|187:83,1,80.499997543335,0|0,0:2|0:2,0:2:0:0:
168,299,328339,2,0,P|139:272|124:235,1,80.499997543335,8|0,0:2|0:2,0:2:0:0:
273,72,328482,2,0,P|264:118|213:165,1,80.499997543335,0|0,0:2|0:2,0:2:0:0:
52,288,328624,5,0,1:2:0:0:
52,288,328696,1,0,0:2:0:0:
52,288,328767,2,0,P|36:243|56:177,1,80.499997543335,0|0,0:2|0:2,0:2:0:0:
282,30,328910,2,0,P|301:64|305:104,1,80.499997543335,8|0,0:2|0:2,0:2:0:0:
416,267,329053,1,2,0:2:0:0:
416,267,329124,1,2,0:2:0:0:
416,267,329196,6,0,P|390:297|293:242,1,160.99999508667,0|0,1:2|0:2,0:2:0:0:
230,148,329410,1,0,0:2:0:0:
222,131,329481,1,8,0:2:0:0:
428,255,329624,2,0,P|467:260|500:282,1,80.499997543335,0|0,0:2|0:2,0:2:0:0:
234,365,329767,6,0,P|188:381|147:356,1,97.7500018644333,0|0,1:2|0:2,0:2:0:0:
53,250,329910,1,0,0:2:0:0:
37,218,329982,1,0,0:2:0:0:
55,189,330053,1,8,0:2:0:0:
206,12,330196,2,0,L|215:115,1,97.7500018644333,0|0,0:2|0:2,0:2:0:0:
259,233,330339,6,0,B|272:258|271:289|271:289|287:273|288:239,1,97.7500018644333,0|0,1:2|0:2,0:2:0:0:
98,85,330482,2,0,B|92:55|110:28|110:28|113:56|127:79,1,97.7500018644333,0|0,0:2|0:2,0:2:0:0:
0,355,330624,2,0,L|231:334,1,195.500003728867,8|0,0:2|0:2,0:2:0:0:
338,363,330839,1,0,0:2:0:0:
360,354,330910,6,0,B|404:327|404:327|411:304|411:304|400:227|400:227|389:204|389:204|378:123,1,253.000007720947,2|0,1:2|0:2,0:2:0:0:
276,51,331124,2,0,B|266:124|266:124|255:147|255:147|243:224|243:224|251:247|251:247|295:274,1,253.000007720947,2|0,0:2|0:2,0:2:0:0:
503,349,331339,2,0,B|518:263|518:263|490:236,1,126.500003860474,2|0,0:2|0:2,0:2:0:0:
379,39,331482,6,0,B|318:42|318:42|298:47|298:47|166:59|166:59|186:48|186:48|237:44,1,253.000007720947,0|0,1:2|0:2,0:2:0:0:
121,153,331696,1,0,0:2:0:0:
106,154,331768,1,8,0:2:0:0:
401,231,331910,6,0,P|428:182|396:109,1,126.500003860474,0|0,0:2|0:2,0:2:0:0:
219,7,332053,2,0,P|192:62|215:119,1,126.500003860474,0|0,1:2|0:2,0:2:0:0:
62,271,332196,1,0,0:2:0:0:
62,271,332267,1,0,0:2:0:0:
62,271,332339,2,0,B|131:249|123:330|210:303,1,126.500003860474,8|0,0:2|0:2,0:2:0:0:
334,170,332482,2,0,B|279:150|287:225|222:205,1,126.500003860474,0|0,0:2|0:2,0:2:0:0:
93,28,332624,5,2,1:2:0:0:
93,28,332696,1,0,0:2:0:0:
93,28,332767,2,0,L|108:181,1,126.500003860474,0|0,0:2|0:2,0:2:0:0:
225,337,332910,1,10,0:2:0:0:
225,337,332982,1,0,0:2:0:0:
225,337,333053,2,0,L|209:183,1,126.500003860474,0|0,0:2|0:2,0:2:0:0:
300,11,333196,1,2,1:2:0:0:
300,11,333268,1,0,0:2:0:0:
300,11,333339,2,0,L|315:164,1,126.500003860474,0|0,0:2|0:2,0:2:0:0:
443,322,333482,1,10,0:2:0:0:
443,322,333554,1,0,0:2:0:0:
443,322,333625,2,0,L|427:168,1,126.500003860474,0|0,0:2|0:2,0:2:0:0:
475,66,333767,6,0,B|419:21|349:80|392:118|321:172|251:124,1,253.000007720947,0|0,1:2|0:2,0:2:0:0:
123,218,333982,1,0,0:2:0:0:
103,212,334053,2,0,P|66:162|85:97,1,126.500003860474,8|0,0:2|0:2,0:2:0:0:
227,13,334196,2,0,P|263:62|245:128,1,126.500003860474,0|0,0:2|0:2,0:2:0:0:
48,290,334339,6,0,P|104:321|184:273,1,126.500003860474,0|0,1:2|0:2,0:2:0:0:
228,365,334482,2,0,P|259:308|211:228,1,126.500003860474,0|0,0:2|0:2,0:2:0:0:
371,106,334624,2,0,B|362:48|420:3|420:3|322:14|246:103|327:212,1,379.500011581421,8|0,0:2|0:2,0:2:0:0:
425,313,334910,6,0,B|456:259|456:259|419:205,1,126.500003860474,0|0,1:2|0:2,0:2:0:0:
209,56,335053,2,0,B|172:109|172:109|203:163,1,126.500003860474,0|0,0:2|0:2,0:2:0:0:
219,322,335196,2,0,L|214:375,2,40.2499987716675,8|0|0,0:2|0:2|0:2,0:2:0:0:
41,261,335339,2,0,B|124:254,1,80.499997543335,0|0,0:2|0:2,0:2:0:0:
297,226,335482,5,0,1:2:0:0:
346,173,335553,1,0,0:2:0:0:
351,100,335625,1,0,0:2:0:0:
313,37,335696,1,0,0:2:0:0:
243,61,335768,5,10,0:2:0:0:
248,124,335839,1,8,0:2:0:0:
190,152,335910,1,10,0:2:0:0:
142,108,335982,1,8,0:2:0:0:
86,104,336053,5,4,1:2:0:0:
86,104,336124,1,0,0:2:0:0:
86,104,336196,2,0,L|75:228,1,80.499997543335,0|0,0:2|0:2,0:2:0:0:
334,304,336339,1,8,0:2:0:0:
334,304,336410,1,0,0:2:0:0:
334,304,336482,2,0,L|345:428,1,80.499997543335,0|0,0:2|0:2,0:2:0:0:
450,19,336624,5,0,1:2:0:0:
450,19,336695,1,0,0:2:0:0:
450,19,336767,2,0,L|461:143,1,80.499997543335,0|0,0:2|0:2,0:2:0:0:
202,219,336910,1,8,0:2:0:0:
202,219,336981,1,0,0:2:0:0:
202,219,337053,2,0,L|191:343,1,80.499997543335,0|0,0:2|0:2,0:2:0:0:
232,29,337196,5,0,1:2:0:0:
232,29,337267,1,0,0:2:0:0:
232,29,337339,2,0,L|356:18,1,80.499997543335,0|0,0:2|0:2,0:2:0:0:
432,277,337482,1,8,0:2:0:0:
432,277,337553,1,0,0:2:0:0:
432,277,337625,2,0,L|556:288,1,80.499997543335,0|0,0:2|0:2,0:2:0:0:
370,129,337767,5,0,1:2:0:0:
370,129,337838,1,0,0:2:0:0:
370,129,337910,2,0,L|246:118,1,80.499997543335,0|0,0:2|0:2,0:2:0:0:
170,377,338053,1,8,0:2:0:0:
170,377,338124,1,0,0:2:0:0:
170,377,338196,2,0,L|46:388,1,80.499997543335,0|0,0:2|0:2,0:2:0:0:
0,164,338339,6,0,L|206:177,1,206.999993682861,0|0,1:2|0:2,0:2:0:0:
294,253,338553,1,0,0:2:0:0:
318,253,338625,1,8,0:2:0:0:
505,32,338768,1,0,0:2:0:0:
505,32,338839,1,0,0:2:0:0:
505,32,338910,2,0,B|438:-30|339:32|398:87|308:138|220:71,1,310.499990524292,0|0,1:2|0:2,0:2:0:0:
134,23,339196,5,8,0:2:0:0:
226,267,339339,1,0,0:2:0:0:
231,291,339410,1,0,0:2:0:0:
236,316,339482,1,0,1:2:0:0:
453,94,339624,1,0,0:2:0:0:
118,13,339767,2,0,L|-6:24,1,103.499996841431,8|0,0:2|0:2,0:2:0:0:
278,186,339910,1,0,0:2:0:0:
297,3,340053,6,0,P|325:45|321:95,1,103.499996841431,2|0,1:2|0:2,0:2:0:0:
100,360,340196,2,0,P|87:310|108:264,1,103.499996841431,2|0,0:2|0:2,0:2:0:0:
446,244,340339,2,0,L|503:242,6,51.7499984207154,10|0|0|0|0|0|0,0:2|0:2|0:2|0:2|0:2|0:2|0:2,0:2:0:0:
262,128,340624,5,0,1:2:0:0:
320,197,340767,1,0,0:2:0:0:
251,255,340910,1,8,0:2:0:0:
193,186,341053,1,0,0:2:0:0:
330,130,341196,5,0,1:2:0:0:
195,118,341339,1,0,0:2:0:0:
183,253,341482,1,8,0:2:0:0:
318,265,341624,1,0,0:2:0:0:
269,48,341767,5,0,1:2:0:0:
400,204,341910,1,0,0:2:0:0:
244,335,342053,1,8,0:2:0:0:
113,179,342196,1,0,0:2:0:0:
395,357,342339,5,0,1:2:0:0:
422,53,342482,1,0,0:2:0:0:
118,26,342624,1,8,0:2:0:0:
91,330,342767,1,0,0:2:0:0:
226,135,342910,6,0,B|375:102|312:256|480:216,1,275.999991577149,0|0,1:2|1:2,0:2:0:0:
428,134,343339,1,0,0:2:0:0:
257,234,343482,5,0,1:2:0:0:
248,236,343624,2,0,P|169:225|192:36,1,275.999991577149,0|0,0:2|0:2,0:2:0:0:
442,304,344053,6,0,P|390:346|286:335,1,137.999995788574,0|0,1:2|0:2,0:2:0:0:
122,205,344339,2,0,P|174:247|278:236,1,137.999995788574,0|0,1:2|0:2,0:2:0:0:
429,98,344624,2,0,B|417:5|417:5|377:62,1,137.999995788574,0|0,1:2|0:2,0:2:0:0:
324,132,344910,6,0,B|326:157|326:157|324:132|324:132|329:202|329:202|336:223|336:223|340:289,1,206.999993682861,8|0,0:2|0:2,0:2:0:0:
276,347,345196,6,0,P|350:376|421:323,1,160.99999508667,0|0,1:2|0:2,0:2:0:0:
169,148,345482,2,0,P|111:125|57:166,1,115,8|0,0:2|0:2,0:2:0:0:
383,48,345767,1,0,1:2:0:0:
205,296,345910,1,0,0:2:0:0:
106,20,346053,1,8,0:2:0:0:
398,35,346196,2,0,B|402:90|402:90|426:137|426:137|434:231,1,160.99999508667,0|0,0:2|1:2,0:2:0:0:
91,8,346482,5,0,0:2:0:0:
418,26,346624,1,8,0:2:0:0:
197,310,346767,2,0,B|101:309|142:250|38:245,1,160.99999508667,0|0,0:2|1:2,0:2:0:0:
233,60,347053,2,0,B|328:60|287:119|391:124,1,160.99999508667,0|8,0:2|0:2,0:2:0:0:
512,245,347339,1,0,0:2:0:0:
285,361,347482,5,0,1:2:0:0:
114,105,347624,1,0,0:2:0:0:
287,382,347767,5,8,0:2:0:0:
276,60,347910,1,0,0:2:0:0:
493,243,348053,6,0,L|398:233,1,80.499997543335,0|0,1:2|0:2,0:2:0:0:
359,162,348196,2,0,L|264:171,1,80.499997543335,0|0,0:2|0:2,0:2:0:0:
183,334,348339,2,0,P|97:335|69:189,1,241.499992630005,8|0,0:2|0:2,0:2:0:0:
76,180,348624,5,0,1:2:0:0:
309,95,348767,1,0,0:2:0:0:
95,363,348910,1,8,0:2:0:0:
7,63,349053,1,0,0:2:0:0:
149,251,349196,2,0,L|426:230,1,241.499992630005,0|0,1:2|0:2,0:2:0:0:
481,95,349482,6,0,P|451:117|442:190,1,80.499997543335,8|0,0:2|0:2,0:2:0:0:
263,33,349624,2,0,P|293:55|302:128,1,80.499997543335,0|0,0:2|0:2,0:2:0:0:
146,232,349767,6,0,L|321:219,1,160.99999508667,0|0,1:2|0:2,0:2:0:0:
508,359,350053,2,0,B|481:332|481:332|359:341,1,160.99999508667,8|0,0:2|0:2,0:2:0:0:
468,202,350339,1,0,1:2:0:0:
248,302,350482,1,0,0:2:0:0:
16,210,350624,1,8,0:2:0:0:
8,198,350767,1,0,0:2:0:0:
212,59,350910,5,0,1:2:0:0:
101,345,351053,1,0,0:2:0:0:
0,55,351196,2,0,P|50:51|108:141,1,160.99999508667,8|0,0:2|0:2,0:2:0:0:
159,245,351410,1,0,0:2:0:0:
165,265,351482,2,0,L|343:250,1,160.99999508667,0|0,1:2|0:2,0:2:0:0:
441,27,351767,2,0,P|390:30|347:128,1,160.99999508667,8|0,0:2|0:2,0:2:0:0:
340,373,352053,5,0,1:2:0:0:
475,198,352196,1,0,0:2:0:0:
217,89,352339,2,0,B|178:107|178:107|165:249,1,160.99999508667,8|0,0:2|0:2,0:2:0:0:
407,285,352624,2,0,L|294:277,1,80.499997543335,0|0,1:2|0:2,0:2:0:0:
235,340,352767,1,0,0:2:0:0:
0,163,352910,5,8,0:2:0:0:
73,362,353053,2,0,L|92:118,1,241.499992630005,0|0,0:2|0:2,0:2:0:0:
90,37,353339,1,0,0:2:0:0:
230,213,353482,1,8,0:2:0:0:
1,252,353624,1,0,0:2:0:0:
235,79,353767,6,0,B|266:71|266:71|289:50|289:50|357:77|357:77|372:112|361:152,1,206.999993682861,0|0,1:2|0:2,0:2:0:0:
494,223,354053,2,0,B|503:256|488:291|488:291|421:319|421:319|397:298|397:298|366:290,1,206.999993682861,8|0,0:2|0:2,0:2:0:0:
123,172,354339,6,0,L|137:3,1,160.99999508667,0|0,1:2|0:2,0:2:0:0:
321,225,354624,2,0,L|332:354,1,115,8|0,0:2|0:2,0:2:0:0:
454,64,354910,5,0,1:2:0:0:
315,210,355053,1,0,0:2:0:0:
205,12,355196,1,8,0:2:0:0:
435,190,355339,2,0,L|449:350,1,160.99999508667,0|0,0:2|1:2,0:2:0:0:
52,340,355624,5,0,0:2:0:0:
223,265,355767,1,8,0:2:0:0:
392,366,355910,1,0,0:2:0:0:
108,96,356053,5,0,1:2:0:0:
168,370,356196,1,0,0:2:0:0:
311,91,356339,1,8,0:2:0:0:
284,365,356482,1,0,0:2:0:0:
490,249,356624,6,0,P|399:218|340:284,1,160.99999508667,0|0,1:2|0:2,0:2:0:0:
150,378,356910,2,0,P|80:343|68:267,1,160.99999508667,8|0,0:2|0:2,0:2:0:0:
297,120,357196,1,0,1:2:0:0:
148,293,357339,1,0,0:2:0:0:
18,63,357482,1,8,0:2:0:0:
10,52,357624,1,0,0:2:0:0:
239,21,357767,5,0,1:2:0:0:
18,168,357910,1,0,0:2:0:0:
277,248,358053,1,8,0:2:0:0:
6,167,358196,1,0,0:2:0:0:
409,175,358339,6,0,B|453:123|412:67|412:67|360:63|338:11,1,184,0|0,1:2|0:2,0:2:0:0:
209,324,358624,2,0,P|197:189|347:175,1,276,8|0,0:2|0:2,0:2:0:0:
311,153,358910,5,0,1:2:0:0:
478,314,359196,6,0,P|423:325|266:230,2,230,0|0|0,1:2|1:2|1:2,1:2:0:0:
268,238,360053,5,0,1:2:0:0:
201,129,360339,6,0,P|146:118|-11:213,1,230,0|0,1:2|1:2,1:2:0:0:
215,131,360767,1,0,1:2:0:0:
291,365,360910,6,0,B|287:331|307:310|307:310|283:328|256:324|256:324|213:320|170:275|187:209,1,241.499992630005,8|0,0:3|0:2,0:2:0:0:
74,235,361196,6,0,L|89:60,1,126.500003860474,2|0,0:2|0:2,0:2:0:0:
57,232,361482,2,0,L|72:57,1,126.500003860474,2|0,0:2|0:2,0:2:0:0:
297,180,361767,6,0,L|138:254,1,126.500003860474,2|0,0:2|0:2,0:2:0:0:
302,196,362053,2,0,L|143:270,1,126.500003860474,2|0,0:2|0:2,0:2:0:0:
138,15,362339,6,0,L|282:115,1,126.500003860474,2|0,0:2|0:2,0:2:0:0:
149,2,362625,2,0,L|293:102,1,126.500003860474,2|0,0:2|0:2,0:2:0:0:
389,265,362910,6,0,B|367:242|367:242|412:253|412:253|476:227,1,120.749996315003,2|0,1:3|0:2,0:2:0:0:
479,201,363196,6,0,B|407:233|407:233|286:203,1,155.249995262146,2|0,1:3|0:2,0:2:0:0:
270,79,363482,5,4,1:2:0:0:
454,384,363624,1,8,0:2:0:0:
444,35,363767,5,0,1:2:0:0:
305,352,363909,1,8,0:2:0:0:
123,54,364053,5,0,1:0:0:0:
430,199,364196,1,8,0:2:0:0:
154,376,364339,5,0,1:0:0:0:
106,43,364481,1,8,0:2:0:0:
395,280,364624,5,0,1:2:0:0:
48,384,364766,1,8,0:2:0:0:
415,281,364910,1,0,1:2:0:0:
43,175,365053,1,8,0:2:0:0:
368,62,365196,5,0,1:2:0:0:
37,24,365339,1,8,0:2:0:0:
182,332,365482,1,0,1:2:0:0:
389,60,365624,1,8,0:2:0:0:
0,104,365767,6,0,B|-9:144|-9:144|26:198,1,80.499997543335,0|0,1:0|0:0,0:0:0:0:
184,350,365910,1,8,0:2:0:0:
291,43,366053,2,0,B|325:27|378:34|350:78|406:97|461:68,1,160.99999508667,0|8,1:2|0:2,0:2:0:0:
100,361,366339,6,0,B|138:374|138:374|196:344,1,80.499997543335,0|0,1:0|0:0,0:0:0:0:
431,270,366482,1,8,0:2:0:0:
186,63,366624,2,0,B|158:52|141:26|141:26|93:49|50:123|106:196,1,241.499992630005,0|0,1:2|0:2,0:2:0:0:
67,255,366910,6,0,L|150:274,1,80.499997543335,0|0,1:0|0:0,1:0:0:0:
411,344,367053,1,8,0:2:0:0:
3,191,367196,2,0,L|86:172,1,80.499997543335,0|0,1:0|0:0,1:0:0:0:
352,67,367339,1,8,0:2:0:0:
271,355,367482,2,0,P|210:352|201:239,1,160.99999508667,0|8,1:2|0:2,0:2:0:0:
444,158,367767,1,0,1:2:0:0:
380,268,367910,1,8,0:2:0:0:
262,52,368053,5,4,1:2:0:0:
358,361,368196,1,8,0:2:0:0:
371,24,368339,5,0,1:2:0:0:
275,333,368482,1,8,0:2:0:0:
151,75,368624,5,0,1:2:0:0:
391,196,368767,1,8,0:2:0:0:
178,330,368910,1,0,1:2:0:0:
258,161,369053,1,8,0:2:0:0:
414,371,369196,5,0,1:2:0:0:
422,16,369339,1,8,0:2:0:0:
164,350,369482,1,0,1:2:0:0:
56,61,369624,5,8,0:2:0:0:
60,51,369696,2,0,P|117:10|209:73,1,160.99999508667,0|0,0:2|0:2,0:2:0:0:
264,141,369910,2,0,B|245:160|245:160|239:265|239:265|225:292,1,160.99999508667,8|0,0:2|1:2,0:2:0:0:
72,372,370196,1,8,0:2:0:0:
2,191,370339,6,0,L|91:245,1,80.499997543335,0|0,1:0|0:0,1:0:0:0:
281,365,370482,1,8,0:2:0:0:
314,51,370624,2,0,L|212:111,1,80.499997543335,0|0,1:0|0:0,1:0:0:0:
12,213,370767,1,8,0:2:0:0:
390,334,370910,5,0,1:2:0:0:
1,292,371053,1,8,0:2:0:0:
396,186,371196,1,0,1:2:0:0:
47,70,371339,2,0,B|102:13|102:13|87:239,1,241.499992630005,8|0,0:2|0:2,0:2:0:0:
121,255,371624,5,8,0:2:0:0:
231,38,371767,1,0,1:2:0:0:
370,376,371910,1,8,0:2:0:0:
471,117,372053,2,0,B|450:52|375:36|336:82|336:82|341:134|304:157,1,241.499992630005,0|0,1:2|0:2,0:2:0:0:
229,179,372339,6,0,P|259:224|314:231,1,80.499997543335,2|0,1:2|0:2,0:2:0:0:
265,320,372482,2,0,P|319:316|353:272,1,80.499997543335,10|0,0:2|0:2,0:2:0:0:
401,83,372624,5,10,1:3:0:0:
354,127,372696,1,10,0:3:0:0:
390,180,372767,1,8,0:3:0:0:
451,202,372839,1,10,0:3:0:0:
430,263,372910,1,10,1:3:0:0:
470,27,373053,1,8,0:2:0:0:
179,282,373196,5,2,1:3:0:0:
131,294,373267,1,2,1:3:0:0:
88,269,373339,1,8,1:2:0:0:
41,279,373410,1,2,1:3:0:0:
4,247,373482,2,0,B|23:135,1,80.499997543335,2|0,1:3|0:2,0:2:0:0:
138,38,373624,2,0,B|151:117,1,80.499997543335,8|0,0:2|0:2,0:2:0:0:
241,365,373767,6,0,P|255:326|313:292,1,80.499997543335,2|0,1:2|0:2,0:2:0:0:
267,189,373910,2,0,P|307:181|366:214,1,80.499997543335,10|0,0:2|0:2,0:2:0:0:
512,279,374053,6,0,P|472:289|410:261,1,80.499997543335,2|0,1:2|0:2,0:2:0:0:
352,358,374196,2,0,P|322:328|316:261,1,80.499997543335,10|0,0:2|0:2,0:2:0:0:
413,28,374339,5,0,1:2:0:0:
294,276,374482,1,8,0:2:0:0:
125,13,374624,5,0,1:2:0:0:
230,366,374767,1,8,0:2:0:0:
256,97,374910,6,0,P|207:89|154:123,1,80.499997543335,6|0,1:2|0:2,0:2:0:0:
169,312,375053,2,0,P|120:320|89:268,1,80.499997543335,10|0,0:2|0:2,0:2:0:0:
0,110,375196,6,0,P|48:119|72:156,1,68.9999978942872,2|0,1:2|0:2,0:2:0:0:
88,286,375339,2,0,P|121:284|149:264,1,68.9999978942872,10|0,0:2|0:2,0:2:0:0:
246,133,375482,6,0,P|292:141|314:176,1,57.5,2|0,1:2|0:2,0:2:0:0:
317,241,375624,2,0,P|363:232|385:197,1,57.5,10|0,0:2|0:2,0:2:0:0:
445,142,375767,6,0,P|472:147|486:168,1,40.2499987716675,2|0,1:2|0:2,0:2:0:0:
460,132,375910,2,0,P|487:126|501:105,1,40.2499987716675,10|0,0:2|0:2,0:2:0:0:
240,46,376053,6,0,P|185:65|165:149,1,137.999995788574,2|0,1:2|0:2,0:2:0:0:
402,321,376196,1,8,0:2:0:0:
429,53,376339,6,0,L|424:1,2,28.75,0|0|0,1:2|0:2|0:2,0:2:0:0:
244,212,376482,2,0,L|239:264,2,28.75,8|0|0,0:2|0:2|0:2,0:2:0:0:
5,100,376624,6,0,B|5:12|83:-63|240:24|211:205|85:146|22:116|-18:256|41:327|177:280,1,482.99998526001,2|0,1:2|0:2,0:2:0:0:
150,349,376910,6,0,B|178:319|178:319|175:278,1,80.499997543335,10|0,0:2|0:2,0:2:0:0:
299,71,377053,2,0,B|259:82|259:82|242:118,1,80.499997543335,10|0,0:2|0:2,0:2:0:0:
314,318,377196,6,0,L|491:302,1,137.999995788574,0|0,1:2|0:2,0:2:0:0:
435,163,377482,2,0,P|369:137|311:195,1,137.999995788574,0|0,1:2|0:2,0:2:0:0:
483,89,377767,6,0,P|386:53|231:161,1,275.999991577149,0|0,1:2|1:2,0:2:0:0:
115,227,378196,1,0,0:2:0:0:
46,31,378339,6,0,L|33:168,1,137.999995788574,0|0,1:2|0:2,0:2:0:0:
255,279,378624,2,0,L|242:141,1,137.999995788574,0|0,1:2|0:2,0:2:0:0:
46,303,378910,6,0,B|128:250|196:313|147:364|237:409|324:348,1,275.999991577149,0|0,1:2|1:2,0:2:0:0:
408,184,379339,1,0,0:2:0:0:
198,38,379482,5,0,1:2:0:0:
187,33,379624,1,0,0:2:0:0:
280,207,379767,1,0,1:2:0:0:
385,55,379910,1,0,0:2:0:0:
164,145,380053,6,0,L|8:159,1,137.999995788574,0|0,1:2|0:2,0:2:0:0:
360,275,380339,2,0,L|497:262,1,137.999995788574,0|0,1:2|0:2,0:2:0:0:
202,219,380624,6,0,L|83:270,1,115,0|0,1:2|0:2,0:2:0:0:
308,203,380910,2,0,L|422:154,1,115,0|0,1:2|0:2,0:2:0:0:
261,277,381196,6,0,B|181:223|223:100|277:164|333:68|253:-13,1,322,0|0,1:2|0:2,0:2:0:0:
22,81,381767,6,0,B|91:26|193:77|141:133|370:185|377:-27|145:-42|105:141,1,517.5,4|0,0:2|0:2,0:2:0:0:
9,225,384482,6,0,P|39:228|66:248,1,57.5,2|2,0:2|0:2,0:2:0:0:
173,331,385053,1,2,0:2:0:0:
213,255,385339,2,0,L|210:227,1,28.75,2|0,0:2|0:2,0:2:0:0:
375,344,385672,6,0,P|340:364|319:383,1,67.0833333333333,2|2,0:2|0:2,0:2:0:0:
389,333,386243,1,2,0:2:0:0:
