osu file format v14

[General]
AudioFilename: audio.mp3
AudioLeadIn: 1431
PreviewTime: 121272
Countdown: 0
SampleSet: Soft
StackLeniency: 0.7
Mode: 0
LetterboxInBreaks: 0
WidescreenStoryboard: 0

[Editor]
Bookmarks: 186557,193717,202239,203262
DistanceSpacing: 1.2
BeatDivisor: 4
GridSize: 4
TimelineZoom: 2.649999

[Metadata]
Title:Message
TitleUnicode:Message
Artist:The Sketchbook
ArtistUnicode:The Sketchbook
Creator:theramdans
Version:Insane
Source:SKET DANCE
Tags:sket-dan bossun himeko switch fujisaki yuusuke onizuka hime usui kazuyoshi yoshino hiroyuki shiraishi ryoko sugita tomokazu shinohara kenta anime japanese ending 9 Rock JRock J-Rock
BeatmapID:2268424
BeatmapSetID:1084747

[Difficulty]
HPDrainRate:6
CircleSize:4
OverallDifficulty:8
ApproachRate:8.7
SliderMultiplier:1.7
SliderTickRate:2

[Events]
//Background and Video events
0,0,"SKET.Dance.full.1162778.jpg",0,0
//Break Periods
2,181909,188424
//Storyboard Layer 0 (Background)
//Storyboard Layer 1 (Fail)
//Storyboard Layer 2 (Pass)
//Storyboard Layer 3 (Foreground)
//Storyboard Layer 4 (Overlay)
//Storyboard Sound Samples

[TimingPoints]
206,340.909090909091,4,2,0,70,1,0
1569,-123.456790123457,4,2,0,50,0,0
6341,-100,4,2,1,70,0,0
7023,-100,4,2,1,70,0,0
7364,-100,4,2,1,60,0,0
12308,-100,4,2,1,70,0,1
12819,-100,4,2,1,70,0,0
22706,-72.463768115942,4,2,1,70,0,1
22961,-72.463768115942,4,2,1,10,0,1
23046,-72.463768115942,4,2,1,70,0,1
23217,-100,4,2,1,70,0,0
25433,-100,4,2,1,70,0,1
25944,-100,4,2,1,60,0,0
47762,-123.456790123457,4,2,1,50,0,0
55944,-100,4,2,1,60,0,0
62250,-123.456790123457,4,2,1,50,0,0
62421,-123.456790123457,4,2,1,40,0,0
62762,-84.0336134453781,4,2,1,70,0,1
73160,-84.0336134453781,4,2,1,60,0,0
73671,-84.0336134453781,4,2,1,75,0,1
78956,-84.0336134453781,4,2,1,75,0,0
79296,-84.0336134453781,4,2,1,75,0,1
82024,-100,4,2,1,60,0,0
98557,-100,4,2,0,60,0,0
98813,-100,4,2,1,60,0,0
98983,-100,4,2,0,60,0,0
99239,-100,4,2,1,60,0,0
106398,-123.456790123457,4,2,1,50,0,0
114580,-100,4,2,1,60,0,0
121399,-84.0336134453781,4,2,1,75,0,1
131796,-84.0336134453781,4,2,1,60,0,0
132308,-84.0336134453781,4,2,1,75,0,1
137251,-84.0336134453781,4,2,1,75,0,0
137933,-84.0336134453781,4,2,1,75,0,1
139467,-100,4,2,1,60,0,0
143387,-123.456790123457,4,2,1,50,0,0
158216,-100,4,2,1,60,0,0
159240,-100,4,2,1,60,0,0
159751,-77.5193798449612,4,2,1,75,0,1
176115,-100,4,2,1,60,0,0
176284,-100,4,2,1,35,0,0
178841,-100,4,2,1,50,0,0
180887,-100,4,2,1,40,0,0
189580,-100,4,2,1,50,0,0
192307,-100,4,2,1,60,0,0
194523,-100,4,2,1,50,0,0
196569,-100,4,2,1,60,0,0
197250,-100,4,2,1,50,0,0
198614,-140.845070422535,4,2,1,40,0,0
199126,-84.0336134453781,4,2,1,75,0,1
209524,-84.0336134453781,4,2,1,75,0,0
210035,-84.0336134453781,4,2,1,75,0,1
214978,-84.0336134453781,4,2,1,75,0,0
215660,-84.0336134453781,4,2,1,75,0,1
216597,-84.0336134453781,4,2,0,75,0,1
216767,-84.0336134453781,4,2,1,75,0,1
217194,-84.0336134453781,4,2,1,75,0,0
218217,-84.0336134453781,4,2,1,75,0,1
218387,-84.0336134453781,4,2,1,75,0,0
218728,-84.0336134453781,4,2,1,75,0,1
228615,-84.0336134453781,4,2,1,75,0,0
229126,-84.0336134453781,4,2,1,75,0,1
234069,-84.0336134453781,4,2,1,75,0,0
234751,-84.0336134453781,4,2,1,75,0,1
236285,-84.0336134453781,4,2,1,75,0,0
236711,-84.0336134453781,4,2,0,75,0,0
236881,-84.0336134453781,4,2,1,75,0,0
237478,-84.0336134453781,4,2,1,75,0,1
239012,-84.0336134453781,4,2,1,75,0,0
240035,-100,4,2,1,75,0,1
240546,-100,4,2,1,75,0,0
242251,-72.463768115942,4,2,1,75,0,1
242506,-72.463768115942,4,2,1,10,0,1
242591,-72.463768115942,4,2,1,70,0,1
242762,-100,4,2,1,70,0,0
244551,-100,4,2,0,70,0,0
244978,-100,4,2,1,70,0,1
245490,-100,4,2,1,70,0,0
247023,-100,4,2,1,60,0,0
248387,-100,4,2,1,50,0,0
249750,-100,4,2,1,40,0,0
251114,-100,4,2,1,30,0,0
252478,-100,4,2,1,20,0,0
253841,-100,4,2,1,10,0,0

[Colours]
Combo1 : 53,255,53
Combo2 : 255,53,53
Combo3 : 0,0,213
Combo4 : 117,0,117

[HitObjects]
78,108,206,5,0,0:0:0:0:
266,24,546,1,0,0:0:0:0:
349,211,887,1,0,0:0:0:0:
160,295,1228,1,2,0:3:0:0:
78,108,1569,5,2,0:0:0:0:
78,108,1910,2,0,L|87:13,2,68.8500016809083,2|2|2,0:0|0:0|0:0,0:0:0:0:
218,70,2591,6,0,L|210:160,1,68.8500016809083,2|0,0:0|0:0,0:0:0:0:
121,196,2933,2,0,L|129:279,2,68.8500016809083,2|2|2,0:0|0:0|0:0,0:0:0:0:
343,98,3615,2,0,B|380:119|380:119|390:241,1,137.700003361816,2|2,0:0|0:0,0:0:0:0:
310,360,4296,5,2,0:0:0:0:
310,360,4637,2,0,P|264:356|233:365,2,68.8500016809083,2|2|2,0:0|0:0|0:0,0:0:0:0:
349,220,5319,6,0,P|353:174|343:142,1,68.8500016809083,2|0,0:0|0:0,0:0:0:0:
191,117,5660,2,0,P|185:146|190:191,2,68.8500016809083,2|2|2,0:0|0:0|0:0,0:0:0:0:
460,39,6341,6,0,P|469:80|467:122,1,85,8|0,0:0|3:2,0:0:0:0:
467,122,6597,1,0,3:2:0:0:
467,122,6682,1,8,3:3:0:0:
226,93,7024,6,0,P|152:96|83:171,1,170,4|2,3:2|3:2,0:0:0:0:
95,262,7535,1,2,0:0:0:0:
95,262,7705,1,2,3:2:0:0:
352,212,8046,6,0,P|350:157|330:114,1,85,2|2,3:2|0:0,0:0:0:0:
260,302,8387,2,0,P|262:357|282:400,2,85,2|2|2,3:2|0:0|3:2,0:0:0:0:
166,260,8898,1,2,0:0:0:0:
209,108,9069,2,0,B|276:114|276:114|314:93|314:93|372:98,1,170,2|2,3:2|3:2,0:0:0:0:
414,297,9750,5,0,3:2:0:0:
292,348,9921,1,14,0:0:0:0:
183,209,10092,2,0,L|279:214,1,85,14|0,3:2|0:0,0:0:0:0:
160,73,10433,5,10,3:2:0:0:
43,154,10603,1,0,3:2:0:0:
43,154,10688,1,0,3:2:0:0:
43,154,10773,1,8,3:3:0:0:
109,231,10944,1,0,3:2:0:0:
255,112,11114,5,10,3:2:0:0:
162,27,11284,1,10,3:2:0:0:
401,347,11625,1,0,3:2:0:0:
409,340,11711,1,0,3:2:0:0:
417,333,11796,5,10,3:2:0:0:
502,240,11966,1,10,3:2:0:0:
196,314,12308,6,0,P|116:291|86:215,1,170,6|0,3:2|3:2,0:0:0:0:
108,115,12819,1,10,0:0:0:0:
203,80,12989,1,0,0:0:0:0:
295,181,13159,1,0,3:2:0:0:
358,101,13330,2,0,P|337:63|293:28,1,85,0|10,3:2|0:0,0:0:0:0:
173,191,13671,6,0,P|201:270|258:332,1,170,0|0,3:2|3:2,0:0:0:0:
359,346,14183,1,10,0:0:0:0:
369,160,14353,2,0,L|383:244,1,85,2|0,0:0|3:2,0:0:0:0:
498,325,14694,2,0,L|485:242,1,85,2|8,3:2|0:0,0:0:0:0:
369,160,15035,6,0,B|324:151|287:177|287:177|247:141|197:151,1,170,2|0,3:2|3:2,0:0:0:0:
132,216,15546,1,8,0:0:0:0:
213,277,15716,1,0,0:0:0:0:
54,300,15887,1,2,3:2:0:0:
0,215,16058,2,0,P|16:175|43:143,1,85,2|8,3:2|0:0,0:0:0:0:
205,193,16399,6,0,L|198:387,1,170,2|2,3:2|3:2,0:0:0:0:
298,338,16909,1,8,0:0:0:0:
291,155,17081,2,0,B|205:179|205:179|126:161,1,170,2|2,3:2|3:2,0:0:0:0:
37,110,17591,1,8,0:0:0:0:
215,23,17762,6,0,P|281:72|291:155,1,170,6|0,3:2|3:2,0:0:0:0:
214,223,18273,2,0,P|208:265|211:307,1,85,8|0,0:0|0:0,0:0:0:0:
397,360,18614,1,2,3:2:0:0:
455,276,18784,1,2,3:2:0:0:
378,207,18955,1,8,0:0:0:0:
276,329,19126,6,0,P|223:337|136:257,1,170,2|0,3:2|3:2,0:0:0:0:
134,130,19637,1,8,0:0:0:0:
218,186,19807,1,0,0:0:0:0:
312,71,19978,5,8,0:3:0:0:
336,87,20063,1,8,0:3:0:0:
356,109,20148,1,8,0:3:0:0:
369,136,20233,1,8,0:3:0:0:
374,165,20318,1,10,0:0:0:0:
377,356,20490,6,0,P|319:357|221:291,1,170,6|0,3:2|3:2,0:0:0:0:
161,167,21000,1,10,0:0:0:0:
68,210,21171,1,8,0:3:0:0:
68,210,21256,1,8,0:3:0:0:
68,210,21341,6,0,P|41:270|48:298,1,85,8|0,0:3|3:2,0:0:0:0:
214,329,21683,1,10,0:0:0:0:
263,239,21853,1,8,0:3:0:0:
263,239,21938,1,8,0:3:0:0:
263,239,22023,6,0,B|313:228|313:228|348:237,1,85,8|0,0:3|3:2,0:0:0:0:
264,351,22364,2,0,B|214:362|214:362|182:354,1,85,10|0,0:0|3:2,0:0:0:0:
86,161,22706,6,0,B|98:200|77:228|77:228|95:248|95:248|73:285|89:323,1,175.950000268478,10|0,0:0|0:0,0:0:0:0:
90,323,23046,1,8,0:0:0:0:
293,235,23217,6,0,P|269:155|195:122,1,170,6|0,3:2|3:2,0:0:0:0:
148,273,23728,1,10,0:0:0:0:
87,192,23898,1,8,0:3:0:0:
87,192,23983,1,8,0:3:0:0:
87,192,24069,6,0,P|73:152|74:110,1,85,8|0,0:3|3:2,0:0:0:0:
232,2,24409,1,10,0:0:0:0:
313,64,24580,1,8,0:3:0:0:
313,64,24665,1,8,0:3:0:0:
312,64,24750,6,0,P|313:107|299:147,1,85,8|0,0:3|3:2,0:0:0:0:
336,317,25092,2,0,P|335:275|349:235,1,85,10|0,0:0|3:2,0:0:0:0:
180,62,25433,5,10,0:0:0:0:
372,170,25603,1,10,0:0:0:0:
162,217,25773,1,10,0:0:0:0:
361,57,25944,6,0,B|411:73|452:40|452:40|448:75|481:114,1,170,6|0,3:2|3:2,0:0:0:0:
497,207,26455,1,10,0:0:0:0:
448,296,26625,1,0,0:0:0:0:
396,207,26796,2,0,P|354:213|318:235,1,85,2|2,3:2|3:2,0:0:0:0:
302,336,27137,1,8,0:0:0:0:
224,224,27308,6,0,B|175:240|142:219|142:219|115:259|56:248,1,170,2|0,3:2|3:2,0:0:0:0:
9,164,27819,2,0,P|2:122|6:80,1,85,10|2,0:0|0:0,0:0:0:0:
106,100,28159,1,0,3:2:0:0:
186,29,28331,1,2,3:2:0:0:
210,127,28501,2,0,L|206:211,1,85,10|0,0:0|0:0,0:0:0:0:
350,50,28842,6,0,B|285:23|285:23|186:29,1,170,2|10,3:2|0:0,0:0:0:0:
138,120,29353,1,2,0:0:0:0:
43,83,29523,2,0,L|46:178,1,85,0|0,3:2|3:2,0:0:0:0:
25,268,29864,1,8,0:0:0:0:
149,211,30035,6,0,P|229:202|297:262,1,170,2|0,3:2|3:2,0:0:0:0:
323,355,30546,1,8,0:0:0:0:
396,284,30716,1,0,0:0:0:0:
496,301,30887,2,0,P|508:256|497:203,1,85,0|0,3:2|3:2,0:0:0:0:
404,191,31228,2,12,P|369:166|328:159,1,85,14|0,0:0|0:0,0:0:0:0:
185,98,31569,6,0,B|179:143|194:164|194:164|183:184|183:184|206:217|181:270,1,170,6|8,3:2|0:0,0:0:0:0:
241,345,32080,2,0,P|279:362|321:359,1,85,2|0,0:0|3:2,0:0:0:0:
417,324,32421,2,0,P|434:285|431:243,1,85,2|8,3:2|0:0,0:0:0:0:
318,92,32762,6,0,P|273:163|264:247,1,170,2|0,3:2|3:2,0:0:0:0:
198,325,33273,2,0,L|114:331,1,85,10|0,0:0|0:0,0:0:0:0:
73,211,33615,2,0,L|158:217,1,85,2|0,3:2|3:2,0:0:0:0:
282,173,33955,1,10,0:0:0:0:
271,274,34125,1,2,0:0:0:0:
158,217,34296,6,0,B|45:209|45:209|8:166,1,170,2|10,3:2|0:0,0:0:0:0:
74,87,34808,1,2,0:0:0:0:
169,122,34978,2,0,L|255:128,1,85,0|0,3:2|3:2,0:0:0:0:
223,32,35319,1,8,0:0:0:0:
64,170,35490,6,0,P|74:87|32:15,1,170,2|0,3:2|3:2,0:0:0:0:
223,32,36000,2,0,L|221:117,1,85,8|0,0:0|0:0,0:0:0:0:
298,198,36341,1,2,3:2:0:0:
387,148,36512,1,2,3:2:0:0:
294,106,36682,1,8,0:0:0:0:
384,238,36853,1,8,0:0:0:0:
384,238,36938,1,8,0:0:0:0:
384,238,37024,6,0,P|368:290|253:317,1,170,6|8,3:2|0:0,0:0:0:0:
175,275,37534,1,2,0:0:0:0:
96,340,37706,2,0,L|90:256,1,85,0|0,3:2|3:2,0:0:0:0:
161,163,38046,5,10,0:0:0:0:
233,233,38216,1,0,3:2:0:0:
330,201,38387,2,0,L|336:117,1,85,2|0,0:0|3:2,0:0:0:0:
297,21,38728,1,8,0:0:0:0:
228,96,38899,1,2,0:0:0:0:
149,30,39069,2,0,P|113:53|87:87,1,85,0|0,3:2|3:2,0:0:0:0:
112,216,39410,2,0,P|147:192|173:158,1,85,10|0,0:0|0:0,0:0:0:0:
286,153,39751,6,0,B|292:199|321:226|321:226|292:267|305:318,1,170,2|8,3:2|0:0,0:0:0:0:
383,373,40262,1,2,0:0:0:0:
470,321,40432,2,0,P|467:265|452:235,1,85,0|0,3:2|3:2,0:0:0:0:
392,158,40774,1,10,0:0:0:0:
303,264,40944,6,0,P|218:258|135:274,1,170,2|0,3:2|3:2,0:0:0:0:
73,193,41455,1,8,0:0:0:0:
120,103,41625,1,0,0:0:0:0:
203,162,41796,6,0,L|305:168,1,85,2|0,3:2|3:2,0:0:0:0:
387,144,42137,1,14,0:0:0:0:
317,29,42308,1,0,3:2:0:0:
317,29,42393,1,0,3:2:0:0:
317,29,42478,5,6,3:2:0:0:
218,53,42648,1,0,0:0:0:0:
125,9,42819,2,0,L|114:97,1,85,8|0,0:0|0:0,0:0:0:0:
165,183,43160,2,0,L|176:271,1,85,0|0,3:2|3:2,0:0:0:0:
95,331,43501,5,10,0:0:0:0:
76,230,43671,1,0,0:0:0:0:
165,183,43842,2,0,L|249:185,2,85,2|0|10,3:2|3:2|0:0,0:0:0:0:
139,83,44353,1,0,3:2:0:0:
237,107,44523,2,0,L|321:109,1,85,10|0,0:0|3:2,0:0:0:0:
414,64,44864,1,10,0:0:0:0:
429,191,45035,6,0,B|389:231|389:231|262:225,1,170,4|0,3:2|3:2,0:0:0:0:
204,299,45546,1,8,0:0:0:0:
127,198,45716,1,10,0:0:0:0:
127,198,45801,1,8,0:0:0:0:
127,198,45887,6,0,B|113:151|113:151|121:106,2,85,0|8|8,3:2|0:3|0:3,0:0:0:0:
290,171,46399,2,0,B|311:253|311:253|298:337,1,170,6|8,3:2|0:0,0:0:0:0:
151,204,46909,1,8,0:3:0:0:
209,120,47080,1,8,0:3:0:0:
412,197,47251,2,0,B|426:157|426:157|415:107,2,85,8|8|10,0:3|0:3|0:0,0:0:0:0:
324,282,47762,6,0,P|268:274|185:317,1,137.700003361816,6|0,3:2|3:2,0:0:0:0:
146,372,48273,2,0,L|64:358,1,68.8500016809083,2|0,3:2|0:0,0:0:0:0:
9,314,48614,1,10,0:0:0:0:
29,233,48785,1,2,3:2:0:0:
45,218,49126,6,0,P|55:151|23:91,1,137.700003361816,2|0,3:2|0:0,0:0:0:0:
187,49,49637,2,0,L|181:122,1,68.8500016809083,2|0,3:2|0:0,0:0:0:0:
307,220,49978,2,0,L|305:150,1,68.8500016809083,10|0,0:0|3:2,0:0:0:0:
406,21,50319,2,0,L|401:94,1,68.8500016809083,2|0,0:0|3:2,0:0:0:0:
214,102,50660,6,0,B|161:84|161:84|75:91,1,137.700003361816,2|0,0:0|3:2,0:0:0:0:
7,132,51171,1,2,0:0:0:0:
38,309,51341,1,8,0:0:0:0:
113,273,51512,1,0,3:2:0:0:
97,259,51853,6,0,B|150:277|150:277|236:270,1,137.700003361816,0|10,3:2|0:0,0:0:0:0:
308,299,52364,1,0,3:2:0:0:
375,251,52534,1,0,0:0:0:0:
443,299,52706,2,0,L|448:375,2,68.8500016809083,10|0|2,0:0|0:0|0:0,0:0:0:0:
459,161,53217,6,0,P|464:101|498:26,1,137.700003361816,6|2,3:2|3:2,0:0:0:0:
325,43,53728,2,0,L|244:38,1,68.8500016809083,2|0,3:2|0:0,0:0:0:0:
130,126,54069,2,0,L|201:126,1,68.8500016809083,10|2,0:0|3:2,0:0:0:0:
281,121,54409,1,0,0:0:0:0:
311,226,54581,6,0,P|292:281|215:315,1,137.700003361816,2|0,3:2|0:0,0:0:0:0:
121,254,55091,1,2,3:2:0:0:
146,332,55262,1,0,0:0:0:0:
212,143,55433,2,0,L|210:211,1,68.8500016809083,10|2,0:0|3:2,0:0:0:0:
134,113,55773,1,10,0:0:0:0:
310,39,55944,6,0,B|364:57|407:26|407:26|414:74|448:93,1,170,6|0,3:2|3:2,0:0:0:0:
512,244,56455,1,10,0:0:0:0:
512,244,56625,1,0,3:2:0:0:
295,173,56796,2,0,P|253:166|210:170,1,85,10|0,0:0|3:2,0:0:0:0:
129,345,57137,2,0,P|171:347|212:337,1,85,10|0,0:0|3:2,0:0:0:0:
82,196,57478,5,10,0:0:0:0:
82,196,57648,1,0,3:2:0:0:
207,24,57819,1,10,0:0:0:0:
207,24,57989,1,0,3:2:0:0:
4,82,58160,5,10,0:0:0:0:
159,173,58331,1,2,3:2:0:0:
103,16,58500,1,8,0:0:0:0:
277,118,58671,6,0,P|324:187|328:271,1,170,6|0,3:2|3:2,0:0:0:0:
185,370,59182,2,0,P|138:380|92:374,1,85,10|0,0:0|3:2,0:0:0:0:
159,158,59523,2,0,P|184:191|199:231,1,85,10|0,0:0|3:2,0:0:0:0:
11,229,59864,5,10,0:0:0:0:
51,331,60034,1,0,3:2:0:0:
200,231,60206,2,0,L|286:236,1,85,10|0,0:0|3:2,0:0:0:0:
423,247,60546,1,10,0:0:0:0:
219,97,60716,1,0,3:2:0:0:
219,97,60801,1,0,3:2:0:0:
219,97,60887,2,0,L|135:102,2,85,10|8|8,0:0|0:3|0:3,0:0:0:0:
343,95,61398,5,6,3:2:0:0:
351,102,61739,1,4,0:3:0:0:
233,142,61909,1,4,0:3:0:0:
367,189,62080,1,4,0:3:0:0:
174,49,62250,6,0,P|156:77|155:112,1,68.8500016809083,10|0,0:0|3:2,0:0:0:0:
139,127,62762,6,0,B|128:167|147:189|147:189|132:213|132:213|155:260|143:320,1,202.299995987091,6|0,3:2|3:2,0:0:0:0:
301,225,63273,1,8,0:0:0:0:
249,115,63444,1,0,0:0:0:0:
226,269,63615,2,0,P|221:322|240:369,1,101.149997993546,2|0,3:2|3:2,0:0:0:0:
398,329,63955,2,0,P|403:276|384:229,1,101.149997993546,8|0,0:0|3:2,0:0:0:0:
305,131,64296,5,2,0:0:0:0:
359,23,64466,1,0,3:2:0:0:
171,51,64637,2,0,L|60:42,1,101.149997993546,8|0,0:0|0:0,0:0:0:0:
16,148,64892,1,8,0:0:0:0:
16,148,64978,2,0,L|116:139,1,101.149997993546,2|0,3:2|3:2,0:0:0:0:
218,231,65319,1,8,0:0:0:0:
265,119,65489,1,0,0:0:0:0:
350,331,65660,6,0,P|406:289|400:166,1,202.299995987091,2|8,3:2|0:0,0:0:0:0:
292,197,66171,1,2,0:0:0:0:
208,283,66342,2,0,P|208:334|220:383,1,101.149997993546,0|2,3:2|3:2,0:0:0:0:
292,197,66682,1,8,0:0:0:0:
402,247,66853,2,0,P|412:156|399:39,1,202.299995987091,2|0,3:2|3:2,0:0:0:0:
178,94,67364,1,8,0:0:0:0:
280,28,67534,1,0,0:0:0:0:
400,46,67706,6,0,P|410:115|412:161,1,101.149997993546,2|2,3:2|3:2,0:0:0:0:
358,315,68046,1,10,0:0:0:0:
258,198,68217,1,2,3:2:0:0:
258,198,68301,1,8,0:0:0:0:
258,198,68387,6,0,P|207:169|139:286,1,202.299995987091,6|8,3:2|0:0,0:0:0:0:
184,367,68898,1,0,0:0:0:0:
347,248,69069,2,0,P|377:198|390:151,1,101.149997993546,2|2,3:2|3:2,0:0:0:0:
127,260,69410,2,0,P|101:302|86:351,1,101.149997993546,10|0,0:0|3:2,0:0:0:0:
176,111,69750,1,0,0:0:0:0:
237,215,69921,1,0,3:2:0:0:
298,115,70091,6,0,P|338:84|360:19,1,101.149997993546,10|0,0:0|0:0,0:0:0:0:
84,145,70432,2,0,P|51:106|40:57,1,101.149997993546,2|0,3:2|3:2,0:0:0:0:
179,8,70774,2,0,P|212:47|223:96,1,101.149997993546,10|2,0:0|3:2,0:0:0:0:
147,249,71115,6,0,B|221:227|221:227|349:253,1,202.299995987091,2|8,3:2|0:0,0:0:0:0:
459,289,71625,1,0,0:0:0:0:
483,117,71796,2,0,B|492:71|492:71|477:9,1,101.149997993546,2|2,3:2|3:3,0:0:0:0:
371,110,72137,1,8,0:0:0:0:
207,46,72307,1,6,3:2:0:0:
215,53,72649,5,10,0:0:0:0:
38,146,72819,1,10,0:0:0:0:
278,220,72989,1,0,3:2:0:0:
134,32,73160,2,0,L|31:41,1,101.149997993546,10|0,0:0|3:2,0:0:0:0:
2,93,73415,1,0,3:2:0:0:
2,93,73500,1,10,0:0:0:0:
10,242,73671,6,0,B|48:250|77:234|77:234|87:255|87:255|152:234|192:264,1,202.299995987091,6|0,3:2|3:2,0:0:0:0:
382,197,74182,2,0,P|399:244|396:294,1,101.149997993546,8|0,0:0|0:0,0:0:0:0:
192,265,74523,1,2,3:2:0:0:
288,339,74694,1,0,3:2:0:0:
251,129,74864,2,0,P|200:119|150:120,1,101.149997993546,8|0,0:0|3:2,0:0:0:0:
56,196,75206,6,0,P|42:244|39:295,1,101.149997993546,2|0,0:0|3:2,0:0:0:0:
281,373,75546,1,8,0:0:0:0:
371,295,75716,1,0,0:0:0:0:
273,182,75887,2,0,L|259:64,1,101.149997993546,2|0,3:2|3:2,0:0:0:0:
471,132,76228,2,0,L|459:232,1,101.149997993546,8|0,0:0|0:0,0:0:0:0:
261,81,76569,6,0,B|206:72|190:22|190:22|137:53|86:30,1,202.299995987091,2|8,3:2|0:0,0:0:0:0:
0,113,77080,1,0,0:0:0:0:
62,255,77250,2,0,B|52:320|52:320|70:360,1,101.149997993546,0|2,3:2|3:3,0:0:0:0:
189,258,77591,1,10,0:0:0:0:
337,376,77762,2,0,B|361:312|361:312|335:179,1,202.299995987091,6|0,3:2|3:2,0:0:0:0:
387,36,78273,1,8,0:0:0:0:
387,36,78614,21,8,3:2:0:0:
421,44,78699,1,8,3:2:0:0:
451,62,78784,1,8,3:2:0:0:
475,88,78869,1,8,3:2:0:0:
490,120,78956,1,8,3:3:0:0:
496,154,79040,1,8,3:3:0:0:
491,189,79125,1,8,3:3:0:0:
477,221,79210,1,8,3:3:0:0:
453,248,79296,6,0,P|412:272|336:285,1,101.149997993546,6|0,3:2|0:0,0:0:0:0:
239,215,79637,1,8,0:0:0:0:
91,384,79808,2,4,P|71:337|66:287,1,101.149997993546,2|0,3:2|0:0,0:0:0:0:
143,153,80148,1,8,3:2:0:0:
401,234,80319,6,0,P|362:145|266:139,1,202.299995987091,2|0,0:3|0:0,0:0:0:0:
323,333,80831,1,4,3:3:0:0:
468,278,81000,1,4,3:3:0:0:
429,362,81171,1,4,3:3:0:0:
358,171,81341,1,8,3:2:0:0:
200,335,81512,5,0,3:2:0:0:
200,335,81597,1,0,3:2:0:0:
200,335,81682,2,0,L|183:236,1,101.149997993546,6|0,3:2|0:0,0:0:0:0:
143,45,82023,5,6,3:2:0:0:
151,52,82364,1,0,3:2:0:0:
159,60,82706,1,2,3:2:0:0:
167,67,83046,1,0,3:2:0:0:
175,74,83387,1,2,3:2:0:0:
183,81,83728,1,0,3:2:0:0:
428,33,83898,5,0,3:2:0:0:
428,33,83983,1,0,3:2:0:0:
428,33,84069,1,10,3:2:0:0:
463,128,84239,1,2,3:3:0:0:
260,322,84581,6,0,B|182:344|182:344|83:308,1,170,6|0,3:2|3:2,0:0:0:0:
16,251,85091,2,0,L|33:166,1,85,10|0,0:0|0:0,0:0:0:0:
130,136,85433,2,0,L|113:51,2,85,2|2|8,3:2|3:2|0:0,0:0:0:0:
234,211,85944,6,0,B|302:217|302:217|342:203|342:203|402:208,1,170,2|0,3:2|3:2,0:0:0:0:
480,270,86456,1,10,0:0:0:0:
430,358,86625,1,2,0:0:0:0:
341,307,86796,2,0,L|253:303,1,85,0|2,3:2|3:2,0:0:0:0:
99,379,87137,2,0,L|183:375,1,85,8|0,0:0|0:0,0:0:0:0:
181,191,87478,6,0,B|136:212|97:199|97:199|61:218|13:202,1,170,2|10,3:2|0:0,0:0:0:0:
0,88,87989,1,2,0:0:0:0:
78,23,88160,2,0,P|130:12|161:15,1,85,0|0,3:2|3:2,0:0:0:0:
251,62,88501,1,8,0:0:0:0:
170,146,88671,6,0,P|148:226|181:303,1,170,2|0,3:2|3:2,0:0:0:0:
268,249,89182,1,8,0:0:0:0:
348,312,89353,1,0,0:0:0:0:
359,210,89524,2,0,P|401:206|442:196,1,85,0|0,3:2|3:2,0:0:0:0:
268,249,89864,2,0,P|226:240|184:236,1,85,14|0,0:0|0:0,0:0:0:0:
278,115,90206,6,0,B|233:116|195:74|195:74|187:121|151:148,1,170,6|8,3:2|0:0,0:0:0:0:
93,215,90716,2,0,P|91:256|100:298,1,85,2|0,0:0|3:2,0:0:0:0:
201,282,91057,2,0,P|241:292|285:316,1,85,2|8,3:2|0:0,0:0:0:0:
278,154,91399,6,0,B|392:168|392:168|467:123,1,170,2|0,3:2|3:2,0:0:0:0:
398,45,91910,2,0,L|313:56,1,85,10|0,0:0|0:0,0:0:0:0:
126,44,92250,2,0,L|211:56,1,85,2|0,3:2|3:2,0:0:0:0:
276,134,92592,1,10,0:0:0:0:
179,169,92762,1,0,0:0:0:0:
319,264,92932,6,0,P|280:247|239:250,1,85,2|0,3:2|0:0,0:0:0:0:
152,304,93273,1,10,0:0:0:0:
114,208,93444,1,2,0:0:0:0:
30,266,93615,2,0,P|21:225|26:183,2,85,0|0|8,3:2|3:2|0:0,0:0:0:0:
186,234,94125,5,2,3:2:0:0:
210,134,94296,2,0,P|245:111|286:101,1,85,0|0,0:0|3:2,0:0:0:0:
353,178,94637,1,8,0:0:0:0:
424,106,94807,1,0,0:0:0:0:
479,191,94978,2,0,P|481:233|467:272,1,85,2|0,3:2|3:2,0:0:0:0:
376,318,95319,1,8,0:0:0:0:
353,178,95489,1,8,0:0:0:0:
353,178,95574,1,8,0:0:0:0:
353,178,95660,6,0,P|296:206|200:161,1,170,6|8,3:2|0:0,0:0:0:0:
180,74,96171,1,2,0:0:0:0:
106,132,96341,2,0,P|60:123|12:123,1,85,0|0,3:2|3:2,0:0:0:0:
95,258,96683,2,0,P|136:249|179:248,1,85,10|0,0:0|0:0,0:0:0:0:
301,304,97023,5,2,3:2:0:0:
395,264,97194,1,0,3:2:0:0:
360,168,97365,2,0,L|358:73,1,85,10|2,0:0|0:0,0:0:0:0:
265,39,97706,1,4,3:3:0:0:
183,168,97875,5,0,3:2:0:0:
183,168,97961,1,0,3:2:0:0:
183,168,98046,1,10,3:2:0:0:
92,120,98216,1,8,3:2:0:0:
92,120,98301,1,8,3:2:0:0:
92,120,98387,6,4,P|85:190|99:299,1,170,6|2,3:2|0:0,0:0:0:0:
169,360,98898,1,2,0:0:0:0:
224,274,99069,2,0,P|273:270|315:289,1,85,2|0,3:2|0:0,0:0:0:0:
380,351,99409,1,2,0:0:0:0:
440,126,99580,6,0,P|357:136|305:200,1,170,6|0,3:2|3:2,0:0:0:0:
493,214,100092,2,0,L|478:309,1,85,8|0,0:0|0:0,0:0:0:0:
403,366,100432,1,6,3:3:0:0:
349,245,100603,5,0,3:2:0:0:
349,245,100688,1,2,3:2:0:0:
349,245,100774,1,8,3:2:0:0:
297,333,100944,1,2,3:2:0:0:
297,333,101029,1,0,3:2:0:0:
297,332,101115,6,0,L|212:329,1,85,6|0,3:2|0:0,0:0:0:0:
131,265,101456,1,10,0:0:0:0:
78,352,101625,1,0,0:0:0:0:
15,271,101796,2,0,B|6:232|6:232|21:175,1,85,0|0,3:2|3:2,0:0:0:0:
71,101,102137,1,10,0:0:0:0:
175,178,102307,1,2,3:2:0:0:
175,178,102392,1,0,3:2:0:0:
175,178,102478,6,0,B|221:182|221:182|274:172,1,85,2|0,3:2|3:2,0:0:0:0:
339,111,102819,1,10,0:0:0:0:
250,61,102989,1,0,3:2:0:0:
350,201,103160,2,0,B|388:193|388:193|434:197,2,85,10|0|8,0:0|3:2|0:0,0:0:0:0:
452,335,103671,6,4,B|364:306|391:376|269:331,1,170,6|0,3:2|3:2,0:0:0:0:
189,306,104182,2,0,P|139:319|104:350,1,85,10|2,0:0|3:2,0:0:0:0:
47,260,104524,1,8,0:0:0:0:
93,168,104694,1,0,3:2:0:0:
93,168,104779,1,0,3:2:0:0:
93,168,104864,1,8,3:2:0:0:
194,196,105035,6,0,B|205:168|189:137|189:137|204:121|204:121|179:63|195:37,1,170,6|0,3:2|3:2,0:0:0:0:
195,37,105461,1,0,3:2:0:0:
195,37,105546,1,8,0:0:0:0:
298,47,105716,6,0,L|295:90,2,42.5,0|0|8,3:2|3:2|3:2,0:0:0:0:
414,188,106057,1,8,3:3:0:0:
441,67,106228,1,8,3:3:0:0:
287,98,106399,6,0,B|189:95|189:95|165:64,1,137.700003361816,6|2,3:2|3:2,0:0:0:0:
99,12,106910,2,0,L|30:17,1,68.8500016809083,2|2,3:2|0:0,0:0:0:0:
23,129,107251,1,10,0:0:0:0:
53,196,107421,1,2,3:2:0:0:
69,211,107762,6,0,P|125:248|192:241,1,137.700003361816,2|0,3:2|0:0,0:0:0:0:
264,281,108274,2,0,L|281:358,1,68.8500016809083,2|0,3:2|0:0,0:0:0:0:
294,205,108614,2,0,L|319:141,1,68.8500016809083,10|0,0:0|3:2,0:0:0:0:
110,273,109126,2,0,P|124:210|89:144,1,137.700003361816,2|0,3:2|0:0,0:0:0:0:
34,87,109637,2,0,P|60:57|105:45,1,68.8500016809083,0|0,3:2|0:0,0:0:0:0:
227,26,109978,6,0,B|285:42|285:42|376:28,1,137.700003361816,14|12,0:0|0:0,0:0:0:0:
441,83,110490,2,0,B|453:143|453:143|434:220,1,137.700003361816,0|8,3:2|0:0,0:0:0:0:
402,293,111000,5,0,3:2:0:0:
394,300,111086,1,14,3:2:0:0:
386,307,111171,1,8,3:2:0:0:
378,314,111256,1,8,3:2:0:0:
370,321,111341,5,8,3:2:0:0:
305,231,111512,1,8,3:3:0:0:
255,330,111682,1,8,3:3:0:0:
137,287,111853,6,0,B|73:283|73:283|-1:309,1,137.700003361816,6|2,3:2|3:2,0:0:0:0:
0,149,112365,1,2,3:2:0:0:
56,208,112535,1,0,0:0:0:0:
90,132,112706,2,0,L|82:63,1,68.8500016809083,10|2,0:0|3:2,0:0:0:0:
97,48,113217,6,0,P|197:33|273:98,1,206.550005042725,2|2,3:2|3:2,0:0:0:0:
172,228,114069,1,10,0:0:0:0:
270,259,114239,1,2,3:2:0:0:
192,326,114409,1,10,0:0:0:0:
273,97,114581,6,4,P|350:119|365:198,1,170,6|0,3:2|3:2,0:0:0:0:
245,327,115092,1,10,0:0:0:0:
338,286,115262,1,0,3:2:0:0:
227,153,115433,1,10,0:0:0:0:
213,253,115603,1,0,3:2:0:0:
340,116,115773,6,0,L|365:198,1,85,10|0,0:0|3:2,0:0:0:0:
188,335,116114,2,0,L|213:253,1,85,10|0,0:0|3:2,0:0:0:0:
165,76,116455,2,0,L|134:156,1,85,10|0,0:0|3:2,0:0:0:0:
65,329,116796,5,10,0:0:0:0:
212,253,116966,1,2,3:2:0:0:
183,351,117137,1,8,0:0:0:0:
81,175,117308,6,0,P|127:107|209:103,1,170,6|0,3:2|3:2,0:0:0:0:
359,158,117819,1,10,0:0:0:0:
277,218,117989,1,0,3:2:0:0:
360,80,118160,2,0,P|415:81|454:97,1,85,10|0,0:0|3:2,0:0:0:0:
277,218,118501,2,0,P|221:216|182:200,1,85,10|0,0:0|3:2,0:0:0:0:
65,92,118841,5,10,0:0:0:0:
32,188,119012,1,0,3:2:0:0:
159,110,119182,1,10,0:0:0:0:
194,206,119353,1,0,3:2:0:0:
194,206,119438,1,0,3:2:0:0:
194,206,119524,2,0,L|169:287,2,85,10|8|8,0:0|0:3|0:3,0:0:0:0:
109,40,120035,6,0,P|36:75|12:164,1,170,6|8,3:2|3:2,0:0:0:0:
33,255,120546,2,0,P|69:275|110:286,1,85,8|0,3:2|3:2,0:0:0:0:
111,287,120801,1,0,3:2:0:0:
111,287,120887,1,2,3:2:0:0:
312,73,121057,21,10,3:2:0:0:
317,81,121142,1,8,3:2:0:0:
323,90,121228,1,8,3:2:0:0:
329,99,121313,1,8,3:2:0:0:
335,108,121399,6,0,B|345:146|329:178|329:178|341:198|341:198|318:251|339:306,1,202.299995987091,6|0,3:2|3:2,0:0:0:0:
169,264,121909,1,8,0:0:0:0:
100,364,122080,1,0,0:0:0:0:
17,275,122250,2,0,P|24:225|47:179,1,101.149997993546,2|0,3:2|3:2,0:0:0:0:
218,97,122591,2,0,P|182:61|137:38,1,101.149997993546,8|0,0:0|3:2,0:0:0:0:
124,159,122932,5,2,0:0:0:0:
21,93,123103,1,0,3:2:0:0:
99,329,123273,2,0,L|202:313,1,101.149997993546,8|0,0:0|0:0,0:0:0:0:
258,206,123614,1,2,3:2:0:0:
331,301,123784,1,0,3:2:0:0:
391,102,123955,2,0,L|404:203,1,101.149997993546,8|0,0:0|0:0,0:0:0:0:
255,64,124296,6,0,B|160:102|155:7|57:36,1,202.299995987091,2|8,3:2|0:0,0:0:0:0:
13,146,124807,1,2,0:0:0:0:
99,232,124978,2,0,P|111:289|102:337,1,101.149997993546,0|0,3:2|3:2,0:0:0:0:
266,262,125319,1,10,0:0:0:0:
398,336,125490,2,0,B|402:292|344:255|344:255|389:215|380:166,1,202.299995987091,2|0,3:2|3:2,0:0:0:0:
287,26,126000,2,0,P|228:31|184:54,1,101.149997993546,8|0,0:0|0:0,0:0:0:0:
84,200,126341,5,2,3:2:0:0:
148,302,126512,1,2,3:2:0:0:
178,122,126683,1,10,0:0:0:0:
2,160,126853,1,2,3:2:0:0:
2,160,126938,1,8,0:0:0:0:
2,160,127024,6,0,B|-26:138|5:70|5:70|73:56|99:104,1,202.299995987091,6|8,3:2|0:0,0:0:0:0:
91,222,127534,1,2,0:0:0:0:
199,280,127706,2,0,L|206:383,1,101.149997993546,2|0,3:2|3:2,0:0:0:0:
303,199,128046,2,0,L|309:98,1,101.149997993546,8|0,0:0|3:2,0:0:0:0:
457,229,128387,1,0,0:0:0:0:
511,120,128557,1,0,3:2:0:0:
373,248,128728,6,0,L|379:348,1,101.149997993546,10|0,0:0|0:0,0:0:0:0:
242,239,129069,1,2,3:2:0:0:
166,342,129239,1,2,3:2:0:0:
250,232,129410,2,0,P|237:183|207:143,1,101.149997993546,8|0,0:0|3:2,0:0:0:0:
158,349,129751,6,0,P|81:344|20:238,1,202.299995987091,2|10,3:2|0:0,0:0:0:0:
54,127,130262,1,2,0:0:0:0:
133,217,130433,2,0,P|193:204|237:184,1,101.149997993546,2|2,3:2|3:3,0:0:0:0:
366,105,130773,1,8,0:0:0:0:
181,36,130944,1,6,3:2:0:0:
173,29,131284,5,10,0:0:0:0:
218,255,131455,1,10,0:0:0:0:
307,86,131626,1,0,3:2:0:0:
102,246,131796,5,10,0:0:0:0:
102,246,131881,1,8,0:0:0:0:
102,246,131967,2,0,L|86:360,1,101.149997993546,2|8,3:2|0:0,0:0:0:0:
291,178,132308,6,4,B|305:218|279:251|279:251|295:278|295:278|260:320|280:364,1,202.299995987091,6|0,3:2|3:2,0:0:0:0:
473,239,132819,1,8,0:0:0:0:
406,340,132989,1,0,0:0:0:0:
439,122,133160,2,0,P|385:111|333:117,1,101.149997993546,2|0,3:2|3:2,0:0:0:0:
139,268,133500,2,0,P|193:279|245:273,1,101.149997993546,8|0,0:0|3:2,0:0:0:0:
281,160,133841,5,2,0:0:0:0:
225,51,134012,1,0,3:2:0:0:
55,119,134182,2,0,P|49:182|59:250,1,101.149997993546,8|0,0:0|0:0,0:0:0:0:
156,281,134523,1,2,3:2:0:0:
198,166,134694,1,0,3:2:0:0:
163,286,134864,2,0,P|182:333|219:367,1,101.149997993546,8|0,0:0|0:0,0:0:0:0:
278,196,135205,6,0,B|331:190|369:244|369:244|368:299|326:322,1,202.299995987091,2|10,3:2|0:0,0:0:0:0:
205,333,135716,1,2,0:0:0:0:
97,278,135887,2,0,P|97:209|105:165,1,101.149997993546,0|2,3:2|3:3,0:0:0:0:
149,35,136228,1,10,0:0:0:0:
265,218,136399,6,0,P|357:183|405:96,1,202.299995987091,6|0,3:2|3:2,0:0:0:0:
266,17,136909,1,8,0:0:0:0:
266,17,137250,5,8,3:2:0:0:
230,13,137335,1,8,3:2:0:0:
195,18,137420,1,8,3:2:0:0:
163,32,137507,1,8,3:2:0:0:
135,53,137592,1,8,3:3:0:0:
113,80,137676,1,8,3:3:0:0:
98,113,137761,1,8,3:3:0:0:
92,147,137848,1,8,3:3:0:0:
94,183,137933,6,4,L|113:297,1,101.149997993546,6|0,3:2|0:0,0:0:0:0:
278,146,138273,1,8,0:0:0:0:
436,297,138444,2,0,P|432:247|404:205,1,101.149997993546,2|0,3:2|0:0,0:0:0:0:
466,49,138784,1,8,3:2:0:0:
278,77,138955,6,0,B|325:145|248:191|288:280,1,202.299995987091,2|0,0:3|0:0,0:0:0:0:
183,298,139466,1,4,3:3:0:0:
147,201,139637,1,4,3:3:0:0:
80,278,139807,1,4,3:3:0:0:
273,127,139978,5,10,3:2:0:0:
80,278,140148,1,2,3:2:0:0:
80,278,140233,1,0,3:2:0:0:
80,278,140319,1,10,3:2:0:0:
96,293,140660,6,0,P|141:331|263:312,1,170,6|0,3:2|0:0,0:0:0:0:
339,279,141171,1,0,3:2:0:0:
318,158,141342,1,10,0:0:0:0:
446,206,141512,1,0,3:2:0:0:
438,213,141853,1,10,0:0:0:0:
283,291,142023,5,0,3:2:0:0:
283,291,142137,2,0,P|310:286|337:279,1,56.6666666666667,10|4,3:2|3:3,0:0:0:0:
331,109,142364,5,4,3:3:0:0:
331,109,142478,2,0,P|302:110|275:116,1,56.6666666666667,4|10,3:3|3:2,0:0:0:0:
193,231,142705,5,4,3:3:0:0:
193,231,142819,2,0,P|186:203|185:175,1,56.6666666666667,4|4,3:3|3:3,0:0:0:0:
260,100,143046,1,14,0:0:0:0:
275,116,143387,6,0,B|185:157|185:157|145:133,1,137.700003361816,6|0,3:2|0:0,0:0:0:0:
79,95,143898,1,0,3:2:0:0:
31,203,144069,2,0,P|44:259|0:329,1,137.700003361816,10|0,0:0|0:0,0:0:0:0:
90,374,144580,2,0,P|127:330|210:325,1,137.700003361816,0|0,3:2|3:2,0:0:0:0:
282,346,145091,1,0,0:0:0:0:
360,371,145262,1,0,3:2:0:0:
421,280,145432,6,0,L|432:193,1,68.8500016809083,10|0,0:0|3:2,0:0:0:0:
472,148,145773,1,0,0:0:0:0:
314,121,145944,1,10,0:0:0:0:
355,50,146114,6,0,L|263:39,1,68.8500016809083,2|0,3:2|3:2,0:0:0:0:
174,142,146455,2,0,L|242:133,1,68.8500016809083,0|0,0:0|0:0,0:0:0:0:
326,242,146796,2,0,P|260:229|210:273,1,137.700003361816,10|0,0:0|0:0,0:0:0:0:
175,348,147308,2,0,P|187:282|143:232,1,137.700003361816,2|0,3:2|3:2,0:0:0:0:
65,201,147819,1,2,0:0:0:0:
92,130,147989,1,2,3:2:0:0:
36,270,148160,6,0,L|46:338,1,68.8500016809083,8|2,0:0|3:2,0:0:0:0:
63,353,148415,1,0,3:2:0:0:
79,368,148500,1,14,3:2:0:0:
211,236,148841,5,4,3:2:0:0:
225,310,149012,2,0,L|363:343,1,137.700003361816,0|0,3:2|0:0,0:0:0:0:
445,247,149524,2,0,P|447:202|484:109,1,137.700003361816,10|0,0:0|0:0,0:0:0:0:
383,31,150035,2,0,P|381:76|344:169,1,137.700003361816,0|0,3:2|3:2,0:0:0:0:
294,215,150546,1,0,0:0:0:0:
259,140,150716,1,0,0:0:0:0:
135,124,150887,6,0,P|115:152|107:186,1,68.8500016809083,10|0,0:0|3:2,0:0:0:0:
143,260,151228,1,0,0:0:0:0:
268,230,151398,1,8,0:0:0:0:
260,312,151569,2,0,L|333:324,2,68.8500016809083,0|0|2,3:2|3:2|0:0,0:0:0:0:
186,350,152080,1,0,0:0:0:0:
143,260,152251,6,8,P|144:192|190:143,1,137.700003361816,10|0,0:0|0:0,0:0:0:0:
277,186,152762,2,0,P|275:253|229:302,1,137.700003361816,0|0,3:2|3:2,0:0:0:0:
239,80,153444,1,0,3:2:0:0:
324,121,153615,2,0,L|394:110,2,68.8500016809083,10|0|2,0:0|3:2|3:2,0:0:0:0:
244,294,154296,5,4,3:2:0:0:
168,260,154467,2,0,P|152:207|180:126,1,137.700003361816,0|0,3:2|0:0,0:0:0:0:
146,54,154978,2,0,P|97:39|31:94,1,137.700003361816,10|0,0:0|0:0,0:0:0:0:
23,163,155490,2,0,P|36:221|91:282,1,137.700003361816,0|0,3:2|3:2,0:0:0:0:
276,340,156171,1,0,3:2:0:0:
276,340,156342,2,0,B|286:295|286:295|273:264|273:264|286:200,1,137.700003361816,12|12,3:2|3:2,0:0:0:0:
336,21,157023,6,0,P|341:55|338:90,1,68.8500016809083,2|0,3:2|3:2,0:0:0:0:
273,216,157365,1,8,0:0:0:0:
273,216,157534,1,14,0:0:0:0:
188,90,157705,2,0,P|184:55|189:21,2,68.8500016809083,8|8|8,3:3|3:3|3:3,0:0:0:0:
273,216,158217,2,0,B|309:303|237:316|273:387,2,170,2|2|6,0:3|0:3|3:2,0:0:0:0:
73,38,159239,5,8,3:2:0:0:
73,38,159324,1,8,3:2:0:0:
73,38,159410,1,10,3:2:0:0:
73,38,159494,1,8,3:2:0:0:
73,38,159581,1,10,3:2:0:0:
73,38,159666,1,8,3:2:0:0:
73,38,159751,6,0,B|90:83|65:104|65:104|83:125|83:125|31:195|66:255,1,219.300003346253,6|8,3:1|0:0,0:0:0:0:
131,347,160262,1,2,0:1:0:0:
257,311,160432,2,0,P|288:265|303:209,1,109.650001673126,0|0,3:2|3:2,0:0:0:0:
255,89,160773,2,0,P|291:48|338:21,1,109.650001673126,10|2,0:1|3:1,0:0:0:0:
100,47,161114,5,0,0:0:0:0:
168,158,161284,1,0,3:2:0:0:
44,110,161456,1,10,0:1:0:0:
253,51,161625,1,2,3:1:0:0:
253,51,161711,1,8,0:0:0:0:
253,51,161796,6,0,L|366:54,1,109.650001673126,2|0,3:1|3:2,0:0:0:0:
324,247,162137,1,10,0:1:0:0:
484,163,162307,1,2,3:1:0:0:
484,163,162392,1,8,0:0:0:0:
484,163,162478,6,0,P|504:212|499:269,2,109.650001673126,0|2|8,3:2|0:1|0:0,0:0:0:0:
356,130,162989,1,2,0:1:0:0:
247,293,163160,2,0,P|218:248|212:194,1,109.650001673126,0|2,3:2|3:1,0:0:0:0:
370,252,163500,1,8,0:0:0:0:
252,29,163671,6,0,B|212:44|174:23|174:23|155:46|155:46|91:20|38:49,1,219.300003346253,2|0,3:1|3:2,0:0:0:0:
147,277,164183,1,10,0:1:0:0:
213,162,164353,1,2,0:1:0:0:
147,277,164523,2,0,L|262:281,1,109.650001673126,0|0,3:2|3:2,0:0:0:0:
403,353,164864,1,8,0:0:0:0:
450,203,165034,1,0,3:2:0:0:
450,203,165120,1,8,3:2:0:0:
450,203,165205,6,0,B|459:157|444:95,1,109.650001673126,6|0,3:1|0:0,0:0:0:0:
298,280,165546,1,10,0:1:0:0:
328,153,165716,1,0,0:0:0:0:
93,205,165887,2,0,B|119:196|137:210|137:210|148:193|148:193|169:204|202:199,1,109.650001673126,2|2,3:1|3:1,0:0:0:0:
298,280,166228,1,8,0:0:0:0:
42,76,166399,6,0,B|84:66|108:88|108:88|139:57|139:57|200:91|242:67,1,219.300003346253,2|0,3:1|3:2,0:0:0:0:
475,41,166909,1,10,0:1:0:0:
346,11,167081,1,2,0:1:0:0:
424,116,167251,2,0,L|423:236,1,109.650001673126,2|2,3:1|3:1,0:0:0:0:
356,384,167591,1,10,0:1:0:0:
477,333,167762,1,0,3:2:0:0:
251,200,167933,5,2,3:1:0:0:
251,200,168017,1,0,3:2:0:0:
251,200,168103,1,2,3:1:0:0:
275,71,168273,2,8,L|242:10,2,54.8250008365631,8|2|2,0:0|3:1|3:1,0:0:0:0:
366,261,168614,5,2,3:1:0:0:
251,200,168784,1,2,3:1:0:0:
367,137,168955,1,8,0:0:0:0:
404,340,169126,6,0,B|368:333|339:352|339:352|312:335|312:335|252:368|191:331,1,219.300003346253,4|0,3:2|3:2,0:0:0:0:
31,267,169637,1,8,0:0:0:0:
93,382,169807,1,0,3:2:0:0:
71,160,169978,1,8,0:0:0:0:
221,228,170148,5,10,3:1:0:0:
221,228,170233,1,8,3:2:0:0:
221,228,170319,1,4,3:3:0:0:
338,45,170490,1,10,3:1:0:0:
338,45,170574,1,8,3:2:0:0:
338,45,170660,6,0,P|284:57|242:91,1,109.650001673126,6|2,3:1|0:1,0:0:0:0:
81,318,171000,2,0,P|25:285|-2:246,1,109.650001673126,8|0,0:0|0:0,0:0:0:0:
8,117,171341,1,0,3:2:0:0:
121,184,171512,1,0,3:2:0:0:
162,25,171682,1,8,0:0:0:0:
272,147,171853,6,0,B|238:192|279:247|279:247|257:281|257:281|280:309|256:346,1,219.300003346253,2|0,0:1|3:2,0:0:0:0:
415,288,172364,1,8,0:0:0:0:
90,135,172535,2,0,B|124:179|83:234|83:234|105:268|105:268|82:296|106:333,1,219.300003346253,2|0,0:1|3:2,0:0:0:0:
192,232,173046,1,8,0:0:0:0:
237,47,173217,6,0,B|182:53|152:17|152:17|130:40|130:40|79:18|26:43,1,219.300003346253,2|0,0:1|0:0,0:0:0:0:
150,166,173728,1,8,0:0:0:0:
312,79,173899,1,2,3:1:0:0:
312,79,173983,1,8,3:2:0:0:
312,79,174069,6,0,P|325:131|311:183,1,109.650001673126,0|0,3:2|3:2,0:0:0:0:
224,323,174409,1,8,0:0:0:0:
116,190,174580,1,6,3:1:0:0:
116,190,174666,1,2,3:1:0:0:
116,190,174751,6,0,B|84:205|61:197|61:197|53:209|53:209|20:202|2:217,1,109.650001673126,2|2,3:1|3:1,0:0:0:0:
139,341,175091,1,8,0:0:0:0:
294,89,175262,1,8,3:2:0:0:
294,89,175347,1,8,3:2:0:0:
294,89,175432,1,2,3:1:0:0:
119,51,175603,5,8,3:2:0:0:
119,51,175688,1,2,0:1:0:0:
119,51,175773,1,8,3:2:0:0:
294,89,175944,1,10,3:1:0:0:
139,341,176115,1,6,3:1:0:0:
256,192,176285,12,2,178502,3:1:0:0:
392,164,178841,6,0,L|399:77,1,85,10|0,0:1|3:2,0:0:0:0:
258,151,179182,1,8,0:0:0:0:
283,250,179353,1,0,3:2:0:0:
113,79,179523,6,0,L|120:164,1,85,10|0,0:1|3:2,0:0:0:0:
165,345,179864,1,10,0:1:0:0:
97,268,180034,1,0,3:2:0:0:
370,313,180205,6,0,P|376:271|366:231,1,85,8|0,0:0|3:2,0:0:0:0:
283,364,180546,1,10,0:1:0:0:
218,194,180716,1,0,3:2:0:0:
218,194,180801,1,0,3:2:0:0:
218,194,180887,1,4,3:3:0:0:
325,51,181058,5,2,3:2:0:0:
104,88,181228,1,2,3:2:0:0:
280,109,181398,1,6,3:2:0:0:
160,240,189069,5,10,0:0:0:0:
81,304,189239,1,0,3:2:0:0:
172,340,189409,1,10,0:0:0:0:
45,191,189580,6,0,P|18:151|83:38,1,170,6|0,3:2|3:2,0:0:0:0:
226,102,190091,2,0,L|142:106,1,85,10|0,0:0|3:2,0:0:0:0:
237,241,190432,1,10,0:0:0:0:
153,300,190603,1,0,3:2:0:0:
294,31,190773,2,0,L|378:34,1,85,10|0,0:0|3:2,0:0:0:0:
416,332,191114,5,10,0:0:0:0:
493,254,191284,1,0,3:2:0:0:
404,131,191455,2,0,P|358:110|319:110,1,85,10|0,0:0|3:2,0:0:0:0:
145,290,191796,2,0,P|147:247|166:210,1,85,10|0,0:0|3:2,0:0:0:0:
216,121,192137,1,10,0:0:0:0:
262,301,192308,6,0,B|301:334|301:334|429:324,1,170,6|0,3:2|3:2,0:0:0:0:
479,163,192819,1,10,0:0:0:0:
491,263,192989,1,0,3:2:0:0:
352,119,193160,2,0,L|350:204,1,85,10|0,0:0|3:2,0:0:0:0:
256,344,193501,1,10,0:0:0:0:
355,322,193671,1,0,3:2:0:0:
88,168,193841,6,0,L|91:253,1,85,10|0,0:0|3:2,0:0:0:0:
257,35,194182,1,10,0:0:0:0:
283,133,194353,1,0,3:2:0:0:
455,60,194523,5,8,3:2:0:0:
458,73,194608,1,8,3:2:0:0:
461,87,194694,1,8,3:2:0:0:
464,100,194779,1,8,3:2:0:0:
467,113,194864,1,8,3:2:0:0:
470,126,194949,1,8,3:2:0:0:
473,139,195034,1,6,3:2:0:0:
376,286,195375,5,8,3:2:0:0:
362,288,195460,1,8,3:2:0:0:
349,291,195546,1,8,3:2:0:0:
336,294,195631,1,8,3:2:0:0:
323,297,195716,1,8,3:3:0:0:
310,300,195801,1,8,3:3:0:0:
297,303,195887,1,4,3:3:0:0:
284,306,195972,1,8,3:3:0:0:
271,309,196057,5,8,3:3:0:0:
244,287,196143,1,8,3:3:0:0:
224,260,196227,1,8,3:3:0:0:
211,229,196313,1,8,3:3:0:0:
205,195,196399,1,8,3:3:0:0:
207,161,196483,1,8,3:3:0:0:
218,129,196568,1,8,3:2:0:0:
392,36,196739,5,0,3:2:0:0:
290,213,197080,2,0,L|359:208,1,42.5,0|0,3:2|3:2,0:0:0:0:
395,170,197251,1,10,3:2:0:0:
452,33,198614,5,2,0:0:0:0:
322,5,198784,1,0,0:0:0:0:
452,33,199126,6,0,B|464:66|444:93|444:93|464:110|464:110|431:144|450:217,1,202.299995987091,6|0,3:2|3:2,0:0:0:0:
483,369,199637,1,8,0:0:0:0:
395,285,199807,1,0,0:0:0:0:
284,347,199978,2,0,P|231:336|179:339,1,101.149997993546,2|0,3:2|3:2,0:0:0:0:
0,261,200319,2,0,P|42:236|91:223,1,101.149997993546,8|0,0:0|3:2,0:0:0:0:
210,248,200659,5,2,0:0:0:0:
155,139,200830,1,0,3:2:0:0:
289,15,201000,2,0,B|341:11|341:11|394:18,1,101.149997993546,8|0,0:0|0:0,0:0:0:0:
447,120,201256,1,8,0:0:0:0:
447,120,201341,2,0,B|395:124|395:124|342:117,1,101.149997993546,2|0,3:2|3:2,0:0:0:0:
210,57,201682,1,8,0:0:0:0:
250,171,201853,1,0,0:0:0:0:
125,42,202024,6,0,B|72:71|30:47|30:47|52:115|-9:165,1,202.299995987091,2|10,3:2|0:0,0:0:0:0:
29,264,202534,1,2,0:0:0:0:
147,233,202705,2,0,P|196:238|236:268,1,101.149997993546,0|2,3:2|3:2,0:0:0:0:
174,373,203046,1,10,0:0:0:0:
217,106,203217,2,0,P|288:52|386:93,1,202.299995987091,2|0,3:2|3:2,0:0:0:0:
457,284,203728,1,8,0:0:0:0:
491,168,203898,1,0,0:0:0:0:
224,224,204069,5,2,3:2:0:0:
324,291,204240,1,2,3:2:0:0:
308,170,204409,1,10,0:0:0:0:
219,362,204580,1,2,3:2:0:0:
219,362,204666,1,8,0:0:0:0:
219,362,204751,6,0,B|161:384|116:353|116:353|98:299|126:263,1,202.299995987091,6|8,3:2|0:0,0:0:0:0:
102,143,205262,1,0,0:0:0:0:
209,87,205432,2,0,P|173:39|136:15,1,101.149997993546,2|2,3:2|3:2,0:0:0:0:
207,283,205773,2,0,P|255:247|279:210,1,101.149997993546,10|0,0:0|3:2,0:0:0:0:
329,70,206114,5,0,0:0:0:0:
209,87,206284,1,0,3:2:0:0:
401,160,206455,2,0,L|502:169,1,101.149997993546,10|0,0:0|0:0,0:0:0:0:
333,257,206796,1,2,3:2:0:0:
433,324,206966,1,0,3:2:0:0:
325,250,207137,2,0,L|306:358,1,101.149997993546,10|0,0:0|3:2,0:0:0:0:
136,359,207478,6,0,B|112:303|112:303|132:156,1,202.299995987091,2|8,3:2|0:0,0:0:0:0:
63,61,207989,1,0,0:0:0:0:
190,19,208160,2,0,B|238:52|238:52|257:104,1,101.149997993546,2|2,3:2|3:3,0:0:0:0:
226,211,208500,1,8,0:0:0:0:
45,186,208671,1,6,3:2:0:0:
29,201,209012,5,10,0:0:0:0:
272,324,209182,1,10,0:0:0:0:
213,142,209353,1,0,3:2:0:0:
29,200,209524,2,0,P|26:258|50:315,1,101.149997993546,10|2,0:0|3:2,0:0:0:0:
81,344,209779,1,0,3:2:0:0:
81,344,209864,1,8,0:0:0:0:
331,270,210035,6,0,B|325:222|348:202|348:202|333:177|333:177|360:137|333:72,1,202.299995987091,6|0,3:2|3:2,0:0:0:0:
176,41,210546,1,8,0:0:0:0:
114,145,210716,1,0,0:0:0:0:
159,257,210887,2,0,P|174:320|159:368,1,101.149997993546,2|0,3:2|3:2,0:0:0:0:
8,259,211228,2,0,P|-7:196|8:148,1,101.149997993546,8|0,0:0|3:2,0:0:0:0:
41,46,211569,1,2,0:0:0:0:
114,145,211739,1,0,3:2:0:0:
250,52,211910,6,0,P|308:55|353:34,1,101.149997993546,8|0,0:0|0:0,0:0:0:0:
410,106,212165,1,8,0:0:0:0:
410,106,212250,2,0,P|392:152|396:202,1,101.149997993546,2|0,3:2|3:2,0:0:0:0:
461,329,212591,1,8,0:0:0:0:
497,212,212762,1,0,0:0:0:0:
330,289,212933,6,0,B|290:301|263:286|263:286|245:307|245:307|185:281|122:305,1,202.299995987091,2|10,3:2|0:0,0:0:0:0:
34,358,213444,1,2,0:0:0:0:
8,153,213614,2,0,B|-3:186|-3:186|0:252,1,101.149997993546,0|2,3:2|3:3,0:0:0:0:
167,198,213955,1,10,0:0:0:0:
24,60,214126,6,0,B|110:60|110:60|144:31|144:31|224:30,1,202.299995987091,6|0,3:2|3:2,0:0:0:0:
381,80,214637,1,10,0:0:0:0:
261,100,214807,1,0,3:2:0:0:
443,3,214978,1,10,0:0:0:0:
438,139,215148,5,8,3:2:0:0:
430,146,215233,1,8,3:2:0:0:
422,153,215319,1,8,3:3:0:0:
414,160,215404,1,8,3:3:0:0:
406,167,215489,1,8,3:3:0:0:
398,174,215574,1,8,3:3:0:0:
390,181,215660,6,0,L|389:282,1,101.149997993546,6|0,3:2|0:0,0:0:0:0:
330,373,216000,1,8,0:0:0:0:
147,181,216171,2,0,L|148:291,1,101.149997993546,2|0,3:2|0:0,0:0:0:0:
228,373,216512,1,8,3:2:0:0:
364,192,216682,5,2,0:0:0:0:
356,199,217194,1,10,3:2:0:0:
209,64,217365,1,10,3:2:0:0:
238,322,217535,1,10,3:2:0:0:
313,97,217705,1,10,3:2:0:0:
118,275,217876,1,10,3:2:0:0:
356,199,218046,1,10,3:2:0:0:
115,83,218217,6,0,B|105:126|126:156|126:156|112:186|112:186|136:214|119:276,1,202.299995987091,6|0,3:2|3:2,0:0:0:0:
296,159,218728,1,14,0:2:0:0:
212,71,218898,1,0,0:0:0:0:
221,223,219069,2,0,P|265:198|296:159,1,101.149997993546,2|0,3:2|3:2,0:0:0:0:
445,63,219410,2,0,P|472:105|482:155,1,101.149997993546,8|0,0:2|3:2,0:0:0:0:
388,232,219751,6,0,P|344:256|312:296,1,101.149997993546,2|0,0:0|3:2,0:0:0:0:
103,269,220091,1,8,0:2:0:0:
208,328,220262,1,0,0:0:0:0:
188,144,220433,2,0,P|164:99|126:66,1,101.149997993546,2|0,3:2|3:2,0:0:0:0:
103,269,220773,1,8,0:2:0:0:
22,177,220944,1,0,0:0:0:0:
237,34,221115,6,0,P|215:95|309:178,1,202.299995987091,2|8,3:2|0:2,0:0:0:0:
422,208,221625,1,2,0:0:0:0:
499,118,221796,2,0,P|495:68|464:29,1,101.149997993546,0|2,3:2|3:2,0:0:0:0:
268,38,222137,1,10,0:2:0:0:
375,93,222308,2,0,B|394:125|373:166|373:166|402:197|402:197|376:252|394:298,1,202.299995987091,2|0,3:2|3:2,0:0:0:0:
207,246,222819,1,8,0:2:0:0:
301,321,222989,1,0,0:0:0:0:
256,97,223159,5,2,3:2:0:0:
169,182,223331,1,2,3:2:0:0:
288,198,223500,1,10,0:0:0:0:
145,82,223671,1,2,3:2:0:0:
145,82,223756,1,8,0:2:0:0:
145,82,223842,6,0,P|48:100|0:185,1,202.299995987091,6|8,3:2|0:2,0:0:0:0:
24,304,224353,1,2,0:0:0:0:
138,265,224524,2,0,L|249:273,1,101.149997993546,2|0,3:2|3:2,0:0:0:0:
379,143,224864,2,0,L|279:151,1,101.149997993546,8|0,0:2|3:2,0:0:0:0:
128,126,225205,1,0,0:0:0:0:
224,198,225375,1,0,3:2:0:0:
5,194,225546,6,0,P|0:243|24:287,1,101.149997993546,10|0,0:2|0:0,0:0:0:0:
128,126,225887,2,0,P|97:86|50:69,1,101.149997993546,2|0,3:2|3:2,0:0:0:0:
152,261,226228,2,2,P|196:240|224:198,1,101.149997993546,10|0,0:2|3:2,0:0:0:0:
186,77,226569,6,0,B|267:77|267:77|301:59|301:59|384:60,1,202.299995987091,2|10,3:2|0:2,0:0:0:0:
436,169,227080,1,2,0:0:0:0:
244,309,227251,2,0,B|214:272|214:272|207:219,1,101.149997993546,10|2,0:0|3:3,0:0:0:0:
389,254,227591,1,10,0:0:0:0:
255,61,227762,1,6,3:2:0:0:
247,68,228103,5,10,0:2:0:0:
115,200,228273,1,10,0:2:0:0:
337,160,228444,1,0,3:2:0:0:
126,80,228614,2,0,L|15:70,1,101.149997993546,10|2,0:2|3:2,0:0:0:0:
15,192,228955,1,8,0:2:0:0:
299,315,229126,6,0,B|290:260|321:240|321:240|307:220|307:220|337:181|318:118,1,202.299995987091,6|0,3:2|3:2,0:0:0:0:
200,9,229637,1,8,0:2:0:0:
128,106,229807,1,0,0:0:0:0:
194,207,229978,2,0,P|213:253|214:303,1,101.149997993546,2|0,3:2|3:2,0:0:0:0:
36,240,230319,2,0,P|27:190|39:141,1,101.149997993546,8|0,0:2|3:2,0:0:0:0:
127,59,230659,5,2,0:0:0:0:
7,34,230830,1,0,3:2:0:0:
194,207,231000,2,0,P|198:271|176:311,1,101.149997993546,8|0,0:2|0:0,0:0:0:0:
63,275,231341,1,2,3:2:0:0:
121,381,231512,1,0,3:2:0:0:
159,147,231682,2,0,P|205:167|254:177,1,101.149997993546,8|0,0:2|0:0,0:0:0:0:
419,64,232023,6,0,P|371:47|320:42,1,101.149997993546,2|0,3:2|0:0,0:0:0:0:
125,73,232364,1,10,0:2:0:0:
226,7,232534,1,2,3:2:0:0:
171,304,232706,2,2,B|145:264|145:264|132:213,1,101.149997993546,8|2,0:2|3:3,0:0:0:0:
240,127,233046,1,10,0:2:0:0:
336,369,233217,6,0,B|372:333|372:333|372:160,1,202.299995987091,6|0,3:2|3:2,0:0:0:0:
240,127,233728,1,8,0:2:0:0:
240,127,234069,1,8,3:2:0:0:
207,113,234154,1,8,3:2:0:0:
172,111,234239,1,8,3:2:0:0:
139,120,234324,1,8,3:2:0:0:
108,140,234409,1,8,3:3:0:0:
87,166,234495,1,8,3:3:0:0:
74,200,234580,1,8,3:3:0:0:
73,235,234665,1,8,3:3:0:0:
82,269,234750,6,0,P|85:334|59:385,1,101.149997993546,6|0,3:2|0:0,0:0:0:0:
258,280,235091,1,8,0:2:0:0:
258,280,235262,2,0,P|269:215|306:171,1,101.149997993546,2|0,3:2|0:0,0:0:0:0:
395,84,235603,1,8,3:2:0:0:
205,38,235774,5,2,0:3:0:0:
197,45,236114,1,0,3:2:0:0:
240,284,236284,1,2,3:2:0:0:
108,250,236456,1,2,3:2:0:0:
284,198,236625,1,2,3:2:0:0:
197,45,236796,5,2,1:2:0:0:
82,84,236966,1,2,3:2:0:0:
82,84,237051,1,0,3:2:0:0:
82,84,237137,2,0,P|73:134|78:184,1,101.149997993546,14|0,3:2|0:0,0:0:0:0:
327,137,237478,6,0,P|327:86|313:38,1,101.149997993546,6|0,3:2|0:0,0:0:0:0:
197,282,237819,1,8,0:0:0:0:
50,90,237990,2,0,P|100:87|149:100,1,101.149997993546,2|0,3:2|0:0,0:0:0:0:
116,217,238330,1,8,3:2:0:0:
301,84,238501,6,0,B|274:199|370:169|334:288,1,202.299995987091,6|0,3:2|0:0,0:0:0:0:
83,371,239012,2,0,P|68:322|73:273,2,101.149997993546,6|4|4,3:3|3:3|3:3,0:0:0:0:
187,222,239524,1,10,3:2:0:0:
217,339,239694,1,0,3:2:0:0:
294,246,239864,1,2,3:2:0:0:
73,188,240034,5,6,3:2:0:0:
214,43,240376,1,8,0:3:0:0:
214,43,240461,1,8,0:3:0:0:
214,43,240546,6,0,L|204:134,1,85,10|8,0:0|0:3,0:0:0:0:
203,178,240801,1,8,0:3:0:0:
203,178,240887,1,8,0:3:0:0:
211,279,241057,1,0,3:2:0:0:
359,344,241228,5,10,0:0:0:0:
405,253,241399,1,8,0:3:0:0:
405,253,241483,1,8,0:3:0:0:
405,253,241569,6,0,L|411:159,1,85,8|0,0:3|3:2,0:0:0:0:
327,19,241909,1,10,0:0:0:0:
242,76,242080,1,0,3:2:0:0:
242,76,242165,1,0,3:2:0:0:
242,76,242251,6,0,B|258:116|239:144|239:144|259:170|259:170|239:202|247:239,1,175.950000268478,10|0,0:0|0:0,0:0:0:0:
149,304,242591,1,10,0:0:0:0:
332,384,242762,6,0,P|374:318|349:235,1,170,6|0,3:2|3:2,0:0:0:0:
270,170,243273,1,10,0:0:0:0:
290,56,243444,1,8,0:3:0:0:
290,56,243529,1,8,0:3:0:0:
290,56,243614,6,0,L|374:52,1,85,8|0,0:3|3:2,0:0:0:0:
474,188,243955,1,10,0:0:0:0:
410,266,244125,1,8,0:3:0:0:
410,266,244211,1,8,0:3:0:0:
410,266,244296,6,0,L|322:262,1,85,8|0,0:3|3:2,0:0:0:0:
147,250,244637,1,2,1:2:0:0:
216,324,244807,1,0,0:0:0:0:
271,93,244978,5,10,0:0:0:0:
94,147,245148,1,10,0:0:0:0:
363,185,245319,1,10,0:0:0:0:
149,36,245489,5,6,3:2:0:0:
256,192,245659,12,0,253841,0:0:0:0:
