osu file format v14

[General]
AudioFilename: audio.mp3
AudioLeadIn: 0
PreviewTime: 62
Countdown: 0
SampleSet: Soft
StackLeniency: 0.7
Mode: 0
LetterboxInBreaks: 0
WidescreenStoryboard: 1

[Editor]
Bookmarks: 6720,27182,57312,65601
DistanceSpacing: 1
BeatDivisor: 4
GridSize: 16
TimelineZoom: 1.4

[Metadata]
Title:EastEnders Theme (New BBC TV Version 2009)
TitleUnicode:EastEnders Theme (New BBC TV Version 2009)
Artist:The Simon May Orchestra
ArtistUnicode:The Simon May Orchestra
Creator:AJT
Version:Gazza's Advanced
Source:EastEnders
Tags:leslie osborne walford british broadcasting corporation english instrumental other classical orchestral piano tune song drama soap opera aistre alphabet venax apollo apo11o doomsday doomsday93 gazza respirte affirmation neoskylove
BeatmapID:2638837
BeatmapSetID:1259039

[Difficulty]
HPDrainRate:4
CircleSize:3.4
OverallDifficulty:5
ApproachRate:6
SliderMultiplier:2
SliderTickRate:1

[Events]
//Background and Video events
0,0,"bg.jpg",0,0
//Break Periods
//Storyboard Layer 0 (Background)
//Storyboard Layer 1 (Fail)
//Storyboard Layer 2 (Pass)
//Storyboard Layer 3 (Foreground)
//Storyboard Layer 4 (Overlay)
//Storyboard Sound Samples

[TimingPoints]
62,961.538461538462,4,3,1,60,1,0
542,937.5,4,3,1,60,1,0
1010,636.604774535809,4,3,1,60,1,0
1328,916.030534351145,4,3,1,60,1,0
1621,551.724137931035,4,3,1,60,1,0
1910,582.52427184466,4,3,1,60,1,0
2500,626.631853785901,4,3,1,60,1,0
3753,621.761658031088,4,3,1,60,1,0
4996,621.761658031088,4,3,1,60,1,0
7483,615.384615384615,4,3,1,60,1,0
8713,621.761658031088,4,3,1,60,1,0
9957,623.700623700624,4,3,1,60,1,0
12451,615.700359158543,4,3,1,60,1,0
14298,623.376623376623,4,3,1,60,1,0
14301,623.376623376623,4,3,1,60,1,0
14454,623.376623376623,4,2,1,60,1,0
14921,620.15503875969,4,2,1,60,1,0
17401,620.15503875969,4,2,1,60,1,0
19881,618.556701030928,4,2,1,60,1,0
21736,627.615062761506,4,2,1,60,1,0
21736,-100.200400801603,4,3,1,60,0,0
22363,615.384615384615,4,2,1,60,1,0
23593,622.729631551635,4,2,1,60,1,0
24838,620.47569803516,4,2,1,60,1,0
26078,618.556701030928,4,2,1,60,1,0
27315,620.15503875969,4,2,1,60,1,0
29175,625,4,2,1,60,1,0
29800,618.875709128417,4,2,1,60,1,0
32275,619.834710743802,4,2,1,60,1,0
34754,618.556701030928,4,2,1,60,1,0
37228,622.729631551635,4,2,1,60,1,0
38473,621.43966856551,4,2,1,60,1,0
39715,618.556701030928,4,2,1,60,1,0
42189,620.47569803516,4,2,1,60,1,1
42189,-83.3333333333333,4,3,1,60,0,1
44670,619.354838709677,4,2,1,60,1,1
44670,-83.3333333333333,4,3,1,60,0,1
47147,621.761658031088,4,2,1,60,1,1
47147,-83.3333333333333,4,3,1,60,0,1
47768,618.556701030928,4,2,1,60,1,1
48386,623.376623376623,4,2,1,60,1,1
48386,-83.3333333333333,4,3,1,60,0,1
49632,612.244897959184,4,2,1,60,1,1
49632,-83.3333333333333,4,3,1,60,0,1
50550,638.297872340426,4,2,1,60,1,1
50869,620.15503875969,4,2,1,60,1,1
50869,-83.3333333333333,4,3,1,60,0,1
50872,620.15503875969,4,2,1,60,1,1
51024,620.15503875969,4,2,1,60,1,1
51489,623.376623376623,4,2,1,60,1,1
52112,616.966580976864,4,2,1,60,1,1
52112,-83.3333333333333,4,3,1,60,0,1
53037,612.244897959184,4,2,1,60,1,1
53037,-83.3333333333333,4,3,1,60,0,1
53652,612.244897959184,4,2,1,60,1,1
53802,612.244897959184,4,2,1,60,1,1
53955,625,4,2,1,60,1,1
54267,638.297872340426,4,2,1,60,1,1
54586,641.711229946524,4,2,1,60,1,0
55217,600,4,2,1,60,1,0
55826,600,4,2,1,60,1,0
56420,642.398286937902,4,2,1,60,1,0
57062,652.173913043478,4,2,1,45,1,0
58040,689.655172413793,4,2,1,45,1,0
58384,736.196319018405,4,2,1,40,1,0
59120,937.5,4,2,1,25,1,0
59588,1188.11881188119,4,2,1,20,1,0
60182,1043.47826086957,4,2,1,20,1,0
65330,-100,4,3,1,5,0,0

[Colours]
Combo1 : 128,128,128
Combo2 : 0,128,0

[HitObjects]
357,298,62,6,0,P|306:308|241:293,1,100,4|4,2:3|2:3,3:0:0:0:
126,265,1010,1,4,2:3:0:0:
181,180,1328,1,4,2:3:0:0:
290,167,1621,1,4,2:3:0:0:
227,72,1910,2,0,L|170:46,3,50,4|4|4|4,2:3|2:3|2:3|2:3,3:0:0:0:
142,41,2500,6,0,P|94:39|44:53,2,100,6|2|2,2:0|2:0|1:2,2:0:0:0:
219,104,3439,1,2,3:2:0:0:
294,38,3753,2,0,L|397:47,1,100,2|0,3:2|2:0,2:0:0:0:
482,92,4374,2,0,L|471:206,1,100,2|0,1:2|3:2,2:0:0:0:
421,277,4996,6,0,P|401:323|350:329,1,100,2|0,3:2|2:0,2:0:0:0:
315,311,5462,1,0,3:0:0:0:
315,311,5617,1,0,1:2:0:0:
361,222,5928,1,0,3:0:0:0:
348,122,6239,2,0,L|198:115,1,150,0|0,3:0|2:0,2:0:0:0:
148,111,6861,1,8,2:0:0:0:
56,150,7172,1,8,2:0:0:0:
103,238,7483,6,0,L|96:348,2,100,2|2|2,3:2|2:0|1:2,2:0:0:0:
197,206,8406,1,2,3:2:0:0:
281,259,8713,2,0,P|345:182|346:77,1,200,2|0,3:2|1:2,2:0:0:0:
255,48,9645,5,2,3:2:0:0:
176,110,9957,2,0,P|100:125|25:109,2,150,2|2|2,3:2|2:0|3:2,2:0:0:0:
239,32,11204,2,0,P|328:78|360:176,1,200,2|10,3:2|2:0,2:0:0:0:
347,266,12139,1,8,2:0:0:0:
256,308,12451,6,0,P|212:285|186:240,2,100,6|2|2,2:0|2:0|1:2,2:0:0:0:
347,266,13374,1,2,3:2:0:0:
375,170,13682,2,0,P|350:127|289:117,1,100,2|0,3:2|2:0,2:0:0:0:
203,113,14298,2,0,P|156:126|131:169,1,100,2|0,1:2|3:2,2:0:0:0:
139,268,14921,6,0,L|234:297,1,100,2|0,3:2|2:0,2:0:0:0:
288,304,15386,1,0,3:0:0:0:
288,304,15541,2,0,L|311:207,2,100,0|0|0,1:2|3:0|3:0,2:0:0:0:
480,360,16781,5,8,2:0:0:0:
476,260,17091,1,8,2:0:0:0:
476,160,17401,6,0,L|476:38,2,100,2|2|2,3:2|2:0|1:2,2:0:0:0:
381,192,18331,1,2,3:2:0:0:
281,192,18641,2,0,P|260:288|177:338,1,200,2|0,3:2|1:2,2:0:0:0:
79,318,19571,1,2,3:2:0:0:
31,230,19881,6,0,L|31:75,2,150,2|2|2,3:2|2:0|3:2,2:0:0:0:
85,313,21118,2,0,P|128:346|184:359,1,100,2|0,3:2|2:0,2:0:0:0:
247,293,21736,2,0,L|250:244,3,50,12|12|12|12,2:3|2:3|2:3|2:3,2:0:0:0:
291,213,22363,6,0,P|359:236|452:161,1,200,4|0,3:2|1:2,2:0:0:0:
450,62,23286,1,2,3:2:0:0:
359,19,23593,2,0,P|311:6|223:50,1,150,2|0,3:2|2:0,2:0:0:0:
194,89,24215,1,0,1:2:0:0:
8,14,24838,6,0,L|16:169,1,150,2|0,3:2|3:2,2:0:0:0:
18,213,25458,1,0,1:2:0:0:
117,226,25768,1,2,3:2:0:0:
165,313,26078,2,0,P|232:332|314:321,1,150,2|0,3:2|2:0,2:0:0:0:
358,307,26696,1,8,2:0:0:0:
404,218,27005,5,10,3:2:0:0:
356,129,27315,2,0,P|285:104|218:131,1,150,2|0,3:2|2:0,2:0:0:0:
179,162,27935,1,0,1:2:0:0:
156,259,28245,5,2,3:2:0:0:
217,337,28555,2,0,P|287:364|360:327,1,150,2|0,3:2|2:0,2:0:0:0:
390,303,29175,1,0,1:2:0:0:
330,222,29487,5,2,3:2:0:0:
414,168,29800,2,0,L|414:14,2,150,2|2|2,3:2|2:0|3:2,2:0:0:0:
330,222,31037,2,0,L|212:222,1,100,2|0,3:2|2:0,2:0:0:0:
145,276,31656,1,8,2:0:0:0:
61,221,31966,1,8,2:0:0:0:
115,136,32275,6,0,P|76:96|25:79,2,100,6|2|2,3:2|2:0|1:2,2:0:0:0:
193,197,33204,1,2,3:2:0:0:
247,113,33514,2,0,P|291:89|344:95,1,100,2|0,3:2|2:0,2:0:0:0:
425,144,34134,2,0,P|449:188|443:241,1,100,2|0,1:2|3:2,2:0:0:0:
371,304,34754,6,0,L|279:354,1,100,2|0,3:2|2:0,2:0:0:0:
242,378,35217,1,0,3:0:0:0:
242,378,35372,1,0,1:2:0:0:
149,339,35681,1,0,3:0:0:0:
82,264,35991,2,0,P|55:197|79:116,1,150,0|0,3:0|2:0,2:0:0:0:
106,86,36609,1,8,2:0:0:0:
196,43,36918,1,8,2:0:0:0:
295,30,37228,6,0,L|399:21,2,100,2|2|0,3:2|2:0|1:2,2:0:0:0:
242,115,38162,1,2,3:2:0:0:
322,174,38473,2,0,P|317:272|254:347,1,200,2|0,3:2|1:2,2:0:0:0:
157,322,39405,5,2,3:2:0:0:
115,230,39715,2,0,L|51:83,2,150,2|2|2,3:2|2:0|3:2,2:0:0:0:
205,273,40952,2,0,L|376:306,1,150,2|0,3:2|2:0,2:0:0:0:
401,311,41570,1,8,2:0:0:0:
500,322,41879,1,8,2:0:0:0:
488,202,42189,6,0,P|465:146|414:95,2,120,6|2|2,3:2|2:0|1:2,2:0:0:0:
420,301,43119,1,2,3:2:0:0:
300,290,43429,2,0,L|183:244,1,120,2|0,3:2|2:0,2:0:0:0:
108,156,44050,2,0,P|150:107|216:91,1,120,2|0,1:2|3:2,2:0:0:0:
328,113,44670,2,0,L|451:179,1,120,2|0,3:2|2:0,2:0:0:0:
433,170,45134,1,0,3:0:0:0:
433,170,45289,2,0,L|366:293,2,120,0|0|0,1:2|3:0|3:0,2:0:0:0:
220,58,46528,5,8,2:0:0:0:
114,115,46837,1,8,2:0:0:0:
129,233,47147,2,0,L|100:351,2,120,2|2|2,3:2|2:0|1:2,2:0:0:0:
243,269,48077,1,2,3:2:0:0:
361,250,48386,2,0,P|372:194|329:157,1,120,2|2,3:2|2:0,2:0:0:0:
208,170,49009,1,2,1:2:0:0:
93,134,49321,1,2,3:2:0:0:
159,33,49632,6,0,L|348:34,2,180,2|2|2,3:2|2:0|3:2,2:0:0:0:
91,132,50869,2,0,P|73:192|92:246,1,120,2|0,3:2|2:0,2:0:0:0:
176,329,51489,1,10,2:0:0:0:
295,332,51800,1,8,2:0:0:0:
377,245,52112,6,0,L|426:122,2,120,2|0|0,3:2|2:0|1:0,2:0:0:0:
265,200,53037,2,0,P|142:186|43:253,1,240,6|6,3:2|3:2,2:0:0:0:
137,326,53955,1,8,2:0:0:0:
256,336,54267,1,6,3:2:0:0:
375,326,54586,1,4,3:2:0:0:
256,192,57062,12,0,59588,2:0:0:0:
256,192,60182,12,0,65399,2:0:0:0:
