osu file format v14

[General]
AudioFilename: audio.mp3
AudioLeadIn: 0
PreviewTime: 62
Countdown: 0
SampleSet: Soft
StackLeniency: 0.7
Mode: 0
LetterboxInBreaks: 0
WidescreenStoryboard: 1

[Editor]
Bookmarks: 36173,44854
DistanceSpacing: 0.7
BeatDivisor: 4
GridSize: 16
TimelineZoom: 1.2

[Metadata]
Title:EastEnders Theme (New BBC TV Version 2009)
TitleUnicode:EastEnders Theme (New BBC TV Version 2009)
Artist:The Simon May Orchestra
ArtistUnicode:The Simon May Orchestra
Creator:AJT
Version:Doomsday's Light Insane
Source:EastEnders
Tags:leslie osborne walford british broadcasting corporation english instrumental other classical orchestral piano tune song drama soap opera aistre alphabet venax apollo apo11o doomsday doomsday93 gazza respirte affirmation neoskylove
BeatmapID:2640212
BeatmapSetID:1259039

[Difficulty]
HPDrainRate:5
CircleSize:4
OverallDifficulty:7.5
ApproachRate:8
SliderMultiplier:2.08
SliderTickRate:2

[Events]
//Background and Video events
0,0,"bg.jpg",0,0
//Break Periods
//Storyboard Layer 0 (Background)
//Storyboard Layer 1 (Fail)
//Storyboard Layer 2 (Pass)
//Storyboard Layer 3 (Foreground)
//Storyboard Layer 4 (Overlay)
//Storyboard Sound Samples

[TimingPoints]
62,961.538461538462,4,3,1,60,1,0
542,937.5,4,3,1,60,1,0
1010,636.604774535809,4,3,1,60,1,0
1328,916.030534351145,4,3,1,60,1,0
1621,551.724137931035,4,3,1,60,1,0
1910,582.52427184466,4,3,1,60,1,0
2500,626.631853785901,4,3,1,60,1,0
2500,-50,4,3,1,60,0,0
3753,621.761658031088,4,3,1,60,1,0
3753,-50,4,3,1,60,0,0
4996,621.761658031088,4,3,1,60,1,0
4996,-50,4,3,1,60,0,0
7483,615.384615384615,4,3,1,60,1,0
7483,-50,4,3,1,60,0,0
8713,621.761658031088,4,3,1,60,1,0
8713,-50,4,3,1,60,0,0
9957,623.700623700624,4,3,1,60,1,0
9957,-50,4,3,1,60,0,0
12451,615.700359158543,4,3,1,60,1,0
12451,-50,4,3,1,60,0,0
14298,623.376623376623,4,3,1,60,1,0
14298,-50,4,3,1,60,0,0
14301,623.376623376623,4,3,1,60,1,0
14454,623.376623376623,4,2,1,60,1,0
14921,620.15503875969,4,2,1,60,1,0
14921,-50,4,2,1,60,0,0
17401,620.15503875969,4,2,1,60,1,0
17401,-50,4,2,1,60,0,0
19881,618.556701030928,4,2,1,60,1,0
19881,-50,4,2,1,60,0,0
21736,627.615062761506,4,2,1,60,1,0
22363,615.384615384615,4,2,1,60,1,0
22363,-50,4,2,1,60,0,0
23593,622.729631551635,4,2,1,60,1,0
23593,-50,4,2,1,60,0,0
24838,620.47569803516,4,2,1,60,1,0
24838,-50,4,2,1,60,0,0
26078,618.556701030928,4,2,1,60,1,0
26078,-50,4,2,1,60,0,0
27315,620.15503875969,4,2,1,60,1,0
27315,-50,4,2,1,60,0,0
29175,625,4,2,1,60,1,0
29800,618.875709128417,4,2,1,60,1,0
29800,-50,4,2,1,60,0,0
32275,619.834710743802,4,2,1,60,1,0
32275,-50,4,2,1,60,0,0
34754,618.556701030928,4,2,1,60,1,0
34754,-50,4,2,1,60,0,0
37228,622.729631551635,4,2,1,60,1,0
37228,-50,4,2,1,60,0,0
37850,-50,4,2,1,60,0,0
38161,-50,4,2,1,60,0,0
38473,621.43966856551,4,2,1,60,1,0
38473,-50,4,2,1,60,0,0
39715,618.556701030928,4,2,1,60,1,0
39715,-50,4,2,1,60,0,0
42189,620.47569803516,4,2,1,60,1,1
42189,-50,4,2,1,60,0,1
44670,619.354838709677,4,2,1,60,1,1
44670,-50,4,2,1,60,0,1
47147,621.761658031088,4,2,1,60,1,1
47147,-50,4,2,1,60,0,1
47768,618.556701030928,4,2,1,60,1,1
47768,-50,4,2,1,60,0,1
48386,623.376623376623,4,2,1,60,1,1
48386,-50,4,2,1,60,0,1
49632,612.244897959184,4,2,1,60,1,1
49632,-50,4,2,1,60,0,1
50550,638.297872340426,4,2,1,60,1,1
50869,620.15503875969,4,2,1,60,1,1
50869,-50,4,2,1,60,0,1
50872,620.15503875969,4,2,1,60,1,1
51024,620.15503875969,4,2,1,60,1,1
51489,623.376623376623,4,2,1,60,1,1
51489,-50,4,2,1,60,0,1
52112,616.966580976864,4,2,1,60,1,1
53037,612.244897959184,4,2,1,60,1,1
53037,-50,4,2,1,60,0,1
53652,612.244897959184,4,2,1,60,1,1
53652,-49.7512437810945,4,2,1,60,0,1
53802,612.244897959184,4,2,1,60,1,1
53955,625,4,2,1,60,1,1
54267,638.297872340426,4,2,1,60,1,1
54586,641.711229946524,4,2,1,60,1,0
55217,600,4,2,1,60,1,0
55826,600,4,2,1,60,1,0
56420,642.398286937902,4,2,1,60,1,0
57062,652.173913043478,4,2,1,45,1,0
58040,689.655172413793,4,2,1,45,1,0
58384,736.196319018405,4,2,1,40,1,0
59120,937.5,4,2,1,25,1,0
59588,1188.11881188119,4,2,1,20,1,0
60182,1043.47826086957,4,2,1,20,1,0
60182,-128.205128205128,4,2,1,20,0,0

[Colours]
Combo1 : 29,49,79
Combo2 : 0,128,0
Combo3 : 128,128,128

[HitObjects]
66,97,62,5,4,2:3:0:0:
66,97,542,1,4,2:3:0:0:
92,199,1010,5,4,2:3:0:0:
92,199,1328,1,4,2:3:0:0:
92,199,1621,1,4,2:3:0:0:
129,308,1910,21,4,2:3:0:0:
129,308,2055,1,4,2:3:0:0:
129,308,2201,1,4,2:3:0:0:
129,308,2346,1,4,2:3:0:0:
129,308,2500,6,0,P|186:313|240:262,1,104,6|0,2:0|2:0,2:0:0:0:
386,239,2813,2,0,P|334:237|272:198,1,104,2|0,2:0|2:0,2:0:0:0:
110,182,3126,2,0,P|164:172|224:141,1,104,2|0,1:2|2:0,2:0:0:0:
405,140,3439,2,0,P|352:127|291:99,1,104,2|0,3:2|2:0,2:0:0:0:
131,30,3753,22,0,P|111:87|129:255,1,208,2|0,3:2|2:0,2:0:0:0:
392,232,4374,2,0,P|407:129|381:30,1,208,2|0,1:2|3:2,2:0:0:0:
207,144,4996,6,0,B|175:176|175:224|199:288|255:256|312:224|335:288|335:336|303:368,1,312,2|0,3:2|3:0,2:0:0:0:
207,368,5617,1,0,1:2:0:0:
207,368,5928,1,0,3:0:0:0:
303,144,6239,22,0,B|335:176|335:224|311:288|255:256|198:224|175:288|175:336|207:368,1,312,0|0,3:0|2:0,2:0:0:0:
303,368,6861,5,8,2:0:0:0:
106,157,7172,1,8,2:0:0:0:
383,76,7483,22,0,P|326:71|272:122,1,104,2|0,3:2|2:0,2:0:0:0:
126,145,7790,2,0,P|178:147|240:186,1,104,2|0,2:0|2:0,2:0:0:0:
402,202,8098,2,0,P|348:212|288:243,1,104,2|0,1:2|2:0,2:0:0:0:
107,244,8406,2,0,P|160:257|221:285,1,104,2|0,3:2|2:0,2:0:0:0:
423,333,8713,6,0,P|481:192|424:52,1,312,2|0,3:2|2:0,2:0:0:0:
328,30,9334,1,0,1:2:0:0:
256,224,9645,1,2,3:2:0:0:
191,50,9957,22,0,P|142:137|43:145,1,208,2|0,3:2|2:0,2:0:0:0:
43,239,10424,2,0,P|152:253|191:343,1,208,2|0,2:0|2:0,2:0:0:0:
86,340,10892,1,2,3:2:0:0:
132,142,11204,6,0,P|255:61|379:141,1,312,2|0,3:2|2:0,2:0:0:0:
405,234,11828,1,10,2:0:0:0:
107,234,12139,1,8,2:0:0:0:
341,360,12451,22,0,P|324:284|324:225,1,104,6|0,2:0|2:0,2:0:0:0:
165,323,12758,2,0,P|182:247|182:188,1,104,2|0,2:0|2:0,2:0:0:0:
332,137,13066,2,0,P|355:62|384:11,1,104,2|0,1:2|2:0,2:0:0:0:
177,104,13374,2,0,P|153:29|124:-21,1,104,2|0,3:2|2:0,2:0:0:0:
47,170,13682,6,0,P|78:275|133:363,1,208,2|0,3:2|2:0,2:0:0:0:
382,358,14298,2,0,P|436:269|465:170,1,208,2|0,1:2|3:2,2:0:0:0:
255,32,14921,22,0,B|117:32|117:32|60:33|5:87|34:165,1,312,2|0,3:2|3:0,2:0:0:0:
120,123,15541,1,0,1:2:0:0:
120,123,15851,1,0,3:0:0:0:
256,323,16161,6,0,B|394:323|394:323|451:322|506:268|477:190,1,312,0|0,3:0|2:0,2:0:0:0:
392,232,16781,1,8,2:0:0:0:
120,232,17091,1,8,2:0:0:0:
141,6,17401,22,0,P|163:53|176:103,1,104,2|0,3:2|2:0,2:0:0:0:
366,39,17711,2,0,P|345:86|332:136,1,104,2|0,2:0|2:0,2:0:0:0:
183,221,18021,2,0,P|178:272|165:322,1,104,2|0,1:2|2:0,2:0:0:0:
322,258,18331,2,0,P|327:309|340:359,1,104,2|0,3:2|2:0,2:0:0:0:
164,322,18641,6,0,P|90:192|165:64,1,312,2|0,3:2|2:0,2:0:0:0:
256,21,19261,1,0,1:2:0:0:
175,193,19571,1,2,3:2:0:0:
320,333,19881,22,0,P|369:246|469:239,1,208,2|0,3:2|2:0,2:0:0:0:
469,144,20344,2,0,P|370:137|321:50,1,208,2|0,2:0|2:0,2:0:0:0:
426,44,20808,1,2,3:2:0:0:
192,16,21118,6,0,B|200:159|200:159|311:225|311:225|320:368,1,416,2|12,3:2|2:3,2:0:0:0:
302,369,21892,1,12,2:3:0:0:
285,370,22049,1,12,2:3:0:0:
268,370,22206,1,12,2:3:0:0:
251,370,22363,22,0,P|156:248|-10:232,1,312,4|0,3:2|2:0,2:0:0:0:
30,99,22978,1,0,1:2:0:0:
110,336,23286,1,2,3:2:0:0:
358,306,23593,6,0,P|232:151|7:101,1,416,2|0,3:2|1:2,2:0:0:0:
110,336,24527,1,0,2:0:0:0:
29,98,24838,22,0,B|183:112|183:112|304:13,1,312,2|0,3:2|3:2,2:0:0:0:
385,102,25458,1,0,1:2:0:0:
163,36,25768,1,2,3:2:0:0:
17,221,26078,6,0,B|223:235|223:235|399:92,1,416,2|8,3:2|2:0,2:0:0:0:
163,36,27005,1,10,3:2:0:0:
228,232,27315,22,0,P|405:309|521:155,1,416,2|0,3:2|1:2,2:0:0:0:
477,360,28245,1,2,3:2:0:0:
364,162,28555,6,0,P|187:85|74:244,1,416,2|0,3:2|1:2,2:0:0:0:
121,34,29487,1,2,3:2:0:0:
335,32,29800,22,0,L|160:181,1,208,2|0,3:2|2:0,2:0:0:0:
177,32,30264,2,0,L|352:181,1,208,2|0,2:0|2:0,2:0:0:0:
256,243,30728,1,2,3:2:0:0:
103,347,31037,6,0,P|256:321|408:348,1,312,2|0,3:2|2:0,2:0:0:0:
399,236,31656,1,8,2:0:0:0:
113,148,31966,1,8,2:0:0:0:
244,306,32275,22,0,P|298:322|381:320,1,104,6|0,3:2|2:0,2:0:0:0:
512,229,32584,2,0,P|458:245|375:243,1,104,2|0,2:0|2:0,2:0:0:0:
244,152,32894,2,0,P|298:168|381:166,1,104,2|0,1:2|2:0,2:0:0:0:
512,75,33204,2,0,P|458:91|375:89,1,104,2|0,3:2|2:0,2:0:0:0:
241,26,33514,6,0,P|138:20|14:67,1,208,2|0,3:2|2:0,2:0:0:0:
271,151,34134,2,0,P|374:157|498:110,1,208,2|0,1:2|3:2,2:0:0:0:
399,310,34754,22,0,B|370:336|332:352|290:348|257:321|257:321|131:210,1,312,2|0,3:2|3:0,2:0:0:0:
72,157,35372,1,0,1:2:0:0:
72,157,35681,1,0,3:0:0:0:
113,310,35991,6,0,B|142:336|180:352|222:348|255:321|255:321|381:210,1,312,0|0,3:0|2:0,2:0:0:0:
440,157,36609,1,8,2:0:0:0:
195,253,36918,1,8,2:0:0:0:
268,78,37228,22,0,P|214:62|131:64,1,104,2|0,3:2|2:0,2:0:0:0:
0,155,37539,2,0,P|54:139|137:141,1,104,2|0,2:0|2:0,2:0:0:0:
268,232,37850,2,0,P|214:216|131:218,1,104,0|0,1:2|2:0,2:0:0:0:
0,309,38162,2,0,P|54:293|137:295,1,104,2|0,3:2|2:0,2:0:0:0:
268,358,38473,6,0,P|392:350|444:161,1,312,2|0,3:2|2:0,2:0:0:0:
441,98,39094,1,0,1:2:0:0:
256,192,39405,1,2,3:2:0:0:
66,280,39715,22,0,P|127:362|210:327,1,208,2|0,3:2|2:0,2:0:0:0:
302,263,40178,2,0,P|392:229|446:309,1,208,2|0,2:0|2:0,2:0:0:0:
364,358,40642,1,2,3:2:0:0:
380,142,40952,6,0,P|256:62|132:143,1,312,2|0,3:2|2:0,2:0:0:0:
107,234,41570,1,8,2:0:0:0:
405,234,41879,1,8,2:0:0:0:
216,344,42189,22,0,L|92:367,1,104,6|0,3:2|2:0,2:0:0:0:
116,253,42499,2,0,L|-8:276,1,104,2|0,2:0|2:0,2:0:0:0:
202,126,42809,2,0,L|78:149,1,104,2|0,1:2|2:0,2:0:0:0:
102,35,43119,2,0,L|-22:58,1,104,2|0,3:2|2:0,2:0:0:0:
0,203,43429,6,0,P|19:281|129:355,1,208,2|0,3:2|2:0,2:0:0:0:
393,353,44050,2,0,P|480:299|512:203,1,208,2|0,1:2|3:2,2:0:0:0:
281,27,44670,22,0,B|222:152|222:152|197:203|125:230|67:171,1,312,2|0,3:2|3:0,2:0:0:0:
145,114,45289,1,0,1:2:0:0:
145,114,45599,1,0,3:0:0:0:
231,357,45908,6,0,B|289:231|289:231|314:180|386:153|444:212,1,312,0|0,3:0|2:0,2:0:0:0:
375,274,46528,1,8,2:0:0:0:
129,221,46837,1,8,2:0:0:0:
296,40,47147,22,0,L|420:17,1,104,2|0,3:2|2:0,2:0:0:0:
396,131,47457,2,0,L|498:112,1,104,2|0,2:0|2:0,2:0:0:0:
310,258,47768,2,0,L|412:239,1,104,2|0,1:2|2:0,2:0:0:0:
410,349,48077,2,0,L|512:330,1,104,2|0,3:2|2:0,2:0:0:0:
412,239,48386,6,0,L|393:136,1,104,2|0,3:2|2:0,2:0:0:0:
310,297,48697,2,0,L|291:194,1,104,2|0,2:0|2:0,2:0:0:0:
193,283,49009,2,0,L|174:180,1,104,2|0,1:2|2:0,2:0:0:0:
70,238,49321,2,0,L|88:340,1,104,2|0,3:2|2:0,2:0:0:0:
208,372,49632,22,0,P|298:334|273:218,1,208,2|0,3:2|2:0,2:0:0:0:
219,147,50091,2,0,P|214:49|304:12,1,208,2|0,2:0|2:0,2:0:0:0:
408,18,50550,1,2,3:2:0:0:
311,191,50869,6,0,P|306:293|376:383,1,208,2|0,3:2|2:0,2:0:0:0:
201,191,51489,2,0,P|206:293|136:383,1,208,10|8,2:0|2:0,2:0:0:0:
71,193,52112,21,2,3:2:0:0:
161,27,52420,1,0,2:0:0:0:
351,27,52728,1,0,1:0:0:0:
441,193,53037,6,0,P|454:278|382:381,1,208,6|0,3:2|2:0,2:0:0:0:
203,281,53652,2,0,L|321:81,1,208,6|8,3:2|2:0,2:0:0:0:
136,7,54267,1,6,3:2:0:0:
71,191,54586,22,0,P|51:238|37:292,1,104,4|2,3:2|2:0,2:0:0:0:
122,374,55217,2,0,P|172:367|226:352,1,104,2|2,2:0|2:0,2:0:0:0:
254,238,55826,1,2,2:0:0:0:
239,119,56126,1,2,2:0:0:0:
303,18,56420,1,2,2:0:0:0:
422,6,56741,1,2,2:0:0:0:
512,71,57062,5,2,2:0:0:0:
413,114,57388,1,0,2:0:0:0:
354,189,57714,1,0,2:0:0:0:
338,266,58040,1,2,2:0:0:0:
354,331,58384,1,2,2:0:0:0:
400,367,58752,1,0,2:0:0:0:
438,370,59120,1,2,2:0:0:0:
452,359,59588,1,0,2:0:0:0:
457,350,60182,6,0,B|429:331|363:348|369:280|367:263|367:263|367:245|373:209|329:194|300:213|298:237|296:244|296:244|291:257|308:302|261:345|220:314|211:308|211:308|202:301|160:269|185:217|205:199|213:188|213:188|226:171|235:146|222:122|200:104|169:110|160:112|160:112|149:114|112:122|61:95|52:23,1,811.200027231446,6|4,2:0|2:0,2:0:0:0:
