osu file format v14

[General]
AudioFilename: audio.mp3
AudioLeadIn: 0
PreviewTime: 62
Countdown: 0
SampleSet: Soft
StackLeniency: 0.7
Mode: 0
LetterboxInBreaks: 0
WidescreenStoryboard: 1

[Editor]
Bookmarks: 3310
DistanceSpacing: 0.8
BeatDivisor: 4
GridSize: 32
TimelineZoom: 1.4

[Metadata]
Title:EastEnders Theme (New BBC TV Version 2009)
TitleUnicode:EastEnders Theme (New BBC TV Version 2009)
Artist:The Simon May Orchestra
ArtistUnicode:The Simon May Orchestra
Creator:AJT
Version:Apollo's Insane
Source:EastEnders
Tags:leslie osborne walford british broadcasting corporation english instrumental other classical orchestral piano tune song drama soap opera aistre alphabet venax apollo apo11o doomsday doomsday93 gazza respirte affirmation neoskylove
BeatmapID:2623454
BeatmapSetID:1259039

[Difficulty]
HPDrainRate:6
CircleSize:8
OverallDifficulty:7
ApproachRate:8
SliderMultiplier:1.84
SliderTickRate:1

[Events]
//Background and Video events
0,0,"bg.jpg",0,0
//Break Periods
//Storyboard Layer 0 (Background)
//Storyboard Layer 1 (Fail)
//Storyboard Layer 2 (Pass)
//Storyboard Layer 3 (Foreground)
//Storyboard Layer 4 (Overlay)
//Storyboard Sound Samples

[TimingPoints]
62,961.538461538462,4,3,1,60,1,0
542,937.5,4,3,1,60,1,0
1010,636.604774535809,4,3,1,60,1,0
1328,916.030534351145,4,3,1,60,1,0
1621,551.724137931035,4,3,1,60,1,0
1910,582.52427184466,4,3,1,60,1,0
2500,626.631853785901,4,3,1,60,1,0
3753,621.761658031088,4,3,1,60,1,0
4996,621.761658031088,4,3,1,60,1,0
7483,615.384615384615,4,3,1,60,1,0
8713,621.761658031088,4,3,1,60,1,0
9957,623.700623700624,4,3,1,60,1,0
12451,615.700359158543,4,3,1,60,1,0
14298,623.376623376623,4,3,1,60,1,0
14301,623.376623376623,4,3,1,60,1,0
14454,623.376623376623,4,2,1,60,1,0
14921,620.15503875969,4,2,1,60,1,0
17401,620.15503875969,4,2,1,60,1,0
19881,618.556701030928,4,2,1,60,1,0
21736,627.615062761506,4,2,1,60,1,0
22363,615.384615384615,4,2,1,60,1,0
22363,-125,4,3,1,60,0,0
23593,622.729631551635,4,2,1,60,1,0
23593,-125,4,3,1,60,0,0
24838,620.47569803516,4,2,1,60,1,0
24838,-125,4,3,1,60,0,0
26078,618.556701030928,4,2,1,60,1,0
26078,-125,4,3,1,60,0,0
27315,620.15503875969,4,2,1,60,1,0
27315,-125,4,3,1,60,0,0
28555,-125.31328320802,4,3,1,60,0,0
29175,625,4,2,1,60,1,0
29800,618.875709128417,4,2,1,60,1,0
29800,-125,4,3,1,60,0,0
32275,619.834710743802,4,2,1,60,1,0
34754,618.556701030928,4,2,1,60,1,0
37228,622.729631551635,4,2,1,60,1,0
38473,621.43966856551,4,2,1,60,1,0
39715,618.556701030928,4,2,1,60,1,0
42189,620.47569803516,4,2,1,60,1,1
44670,619.354838709677,4,2,1,60,1,1
47147,621.761658031088,4,2,1,60,1,1
47768,618.556701030928,4,2,1,60,1,1
48386,623.376623376623,4,2,1,60,1,1
49632,612.244897959184,4,2,1,60,1,1
50550,638.297872340426,4,2,1,60,1,1
50869,620.15503875969,4,2,1,60,1,1
50872,620.15503875969,4,2,1,60,1,1
51024,620.15503875969,4,2,1,60,1,1
51489,623.376623376623,4,2,1,60,1,1
52112,616.966580976864,4,2,1,60,1,1
53037,612.244897959184,4,2,1,60,1,1
53652,612.244897959184,4,2,1,60,1,1
53802,612.244897959184,4,2,1,60,1,1
53955,625,4,2,1,60,1,1
54267,638.297872340426,4,2,1,60,1,1
54586,641.711229946524,4,2,1,60,1,0
55217,600,4,2,1,60,1,0
55826,600,4,2,1,60,1,0
56420,642.398286937902,4,2,1,60,1,0
57062,652.173913043478,4,2,1,45,1,0
58040,689.655172413793,4,2,1,45,1,0
58384,736.196319018405,4,2,1,40,1,0
59120,937.5,4,2,1,25,1,0
59588,1188.11881188119,4,2,1,20,1,0
60182,1043.47826086957,4,2,1,20,1,0
65399,-100,4,3,1,5,0,0

[Colours]
Combo1 : 40,40,255
Combo2 : 192,192,192
Combo3 : 128,128,128
Combo4 : 0,128,0
Combo5 : 0,255,0

[HitObjects]
420,338,62,5,4,2:3:0:0:
404,200,542,1,4,2:3:0:0:
293,286,1010,1,4,2:3:0:0:
412,268,1328,5,4,2:3:0:0:
349,242,1621,1,4,2:3:0:0:
357,312,1910,5,4,2:3:0:0:
373,274,2055,1,4,2:3:0:0:
388,235,2201,1,4,2:3:0:0:
404,200,2346,1,4,2:3:0:0:
419,165,2500,6,0,L|417:115,1,46,6|0,2:0|2:0,2:0:0:0:
463,163,2813,2,0,P|442:169|419:165,1,46,2|0,2:0|2:0,2:0:0:0:
337,170,3126,2,0,L|334:119,1,46,2|0,1:2|2:0,2:0:0:0:
381,169,3439,2,0,P|359:175|336:170,1,46,2|0,3:2|2:0,2:0:0:0:
269,167,3753,6,0,P|227:156|181:185,1,92,2|0,3:2|2:0,2:0:0:0:
262,282,4374,2,0,P|292:251|290:196,1,92,2|0,1:2|3:2,2:0:0:0:
165,218,4996,2,0,P|176:259|224:285,1,92,2|0,3:2|2:0,2:0:0:0:
243,317,5462,5,0,3:0:0:0:
243,317,5617,2,0,L|245:367,1,46,0|0,1:2|2:0,2:0:0:0:
287,318,5928,2,0,P|265:311|242:316,1,46,0|0,3:0|2:0,2:0:0:0:
187,350,6239,2,0,P|143:360|104:339,1,92,0|0,3:0|2:0,2:0:0:0:
0,384,6861,5,8,2:0:0:0:
0,384,7172,1,8,2:0:0:0:
50,294,7483,6,0,L|52:243,1,46,2|0,3:2|2:0,2:0:0:0:
5,292,7790,2,0,P|26:298|49:293,1,46,2|0,2:0|2:0,2:0:0:0:
133,300,8098,2,0,L|135:249,1,46,2|0,1:2|2:0,2:0:0:0:
88,298,8406,2,0,P|109:304|132:299,1,46,2|0,3:2|2:0,2:0:0:0:
205,304,8713,6,0,L|208:197,1,92,2|0,3:2|2:0,2:0:0:0:
211,109,9334,1,0,1:2:0:0:
107,105,9645,2,0,L|54:103,1,46,2|0,3:2|2:0,2:0:0:0:
25,38,9957,6,0,B|44:77|4:82|22:126,1,92,2|0,3:2|2:0,2:0:0:0:
2,171,10424,2,0,B|40:190|46:150|90:168,1,92,2|0,2:0|2:0,2:0:0:0:
135,149,10892,2,0,P|139:172|133:194,1,46,2|0,3:2|2:0,2:0:0:0:
89,242,11204,2,0,L|180:250,1,92,2|0,3:2|2:0,2:0:0:0:
300,261,11828,5,10,2:0:0:0:
300,261,12139,1,8,2:0:0:0:
234,157,12451,6,0,P|231:134|244:110,1,46,6|0,2:0|2:0,2:0:0:0:
279,160,12758,2,0,L|227:156,1,46,2|0,2:0|2:0,2:0:0:0:
195,110,13066,2,0,P|192:87|205:63,1,46,2|0,1:2|2:0,2:0:0:0:
240,113,13374,2,0,L|188:109,1,46,2|0,3:2|2:0,2:0:0:0:
160,48,13682,6,0,P|188:22|250:21,1,92,2|0,3:2|2:0,2:0:0:0:
219,156,14298,2,0,P|182:144|150:91,1,92,2|0,1:2|3:2,2:0:0:0:
283,50,14921,2,0,P|291:87|261:141,1,92,2|0,3:2|2:0,2:0:0:0:
257,182,15386,5,0,3:0:0:0:
257,182,15541,2,0,L|283:225,1,46,0|0,1:2|2:0,2:0:0:0:
218,203,15851,2,0,P|233:188|263:182,1,46,0|0,3:0|2:0,2:0:0:0:
330,193,16161,2,0,L|311:295,1,92,0|0,3:0|2:0,2:0:0:0:
354,383,16781,5,8,2:0:0:0:
354,383,17091,1,8,2:0:0:0:
414,319,17401,6,0,P|423:298|415:270,1,46,2|0,3:2|2:0,2:0:0:0:
368,319,17711,2,0,L|421:318,1,46,2|0,2:0|2:0,2:0:0:0:
464,275,18021,2,0,P|473:254|465:226,1,46,2|0,1:2|2:0,2:0:0:0:
418,275,18331,2,0,L|471:274,1,46,2|0,3:2|2:0,2:0:0:0:
509,227,18641,6,0,P|514:176|496:139,1,92,2|0,3:2|2:0,2:0:0:0:
424,65,19261,1,0,1:2:0:0:
348,137,19571,2,0,P|314:145|297:139,1,46,2|0,3:2|2:0,2:0:0:0:
360,98,19881,6,0,P|386:117|370:172,1,92,2|0,3:2|2:0,2:0:0:0:
348,137,20344,2,0,L|451:119,1,92,2|0,2:0|2:0,2:0:0:0:
486,139,20808,2,0,L|475:85,1,46,2|0,3:2|2:0,2:0:0:0:
512,43,21118,2,0,L|421:63,1,92,2|0,3:2|2:0,2:0:0:0:
299,5,21736,5,12,2:3:0:0:
333,20,21892,1,12,2:3:0:0:
349,55,22049,1,12,2:3:0:0:
340,93,22206,1,12,2:3:0:0:
310,118,22363,6,0,B|272:135|240:111|250:103|211:73|168:97,1,147.2,4|0,3:2|1:2,2:0:0:0:
54,145,23286,1,2,3:2:0:0:
70,16,23593,2,0,P|98:7|141:22,1,73.6,2|0,3:2|2:0,2:0:0:0:
132,110,24215,2,0,P|96:118|63:105,1,73.6,0|0,1:2|2:0,2:0:0:0:
132,110,24838,6,0,L|141:199,1,73.6,2|0,3:2|2:0,2:0:0:0:
128,234,25303,1,0,3:2:0:0:
128,234,25458,2,0,L|174:229,1,36.8,0|0,1:2|2:0,2:0:0:0:
204,226,25768,2,0,L|250:221,1,36.8,2|0,3:2|2:0,2:0:0:0:
284,218,26078,2,0,P|303:248|290:280,1,73.6,2|0,3:2|2:0,2:0:0:0:
217,376,26696,5,8,2:0:0:0:
217,376,27005,1,10,3:2:0:0:
128,234,27315,6,0,P|92:194|97:284,1,220.8,2|2,3:2|3:2,2:0:0:0:
220,282,28555,2,0,P|262:206|179:229,1,220.8,2|2,3:2|3:2,2:0:0:0:
125,341,29800,6,0,B|142:374|142:374|165:345,1,73.6,2|0,3:2|2:0,2:0:0:0:
194,302,30264,2,0,B|214:270|214:270|177:265,1,73.6,2|0,2:0|2:0,2:0:0:0:
138,218,30728,2,0,L|179:222,1,36.8,2|0,3:2|2:0,2:0:0:0:
125,261,31037,2,0,B|87:259|87:259|101:293,1,73.6,2|0,3:2|2:0,2:0:0:0:
216,228,31656,5,8,2:0:0:0:
216,228,31966,1,8,2:0:0:0:
299,290,32275,6,0,P|322:292|345:285,1,46,6|0,3:2|2:0,2:0:0:0:
360,210,32584,2,0,L|368:259,1,46,2|0,2:0|2:0,2:0:0:0:
480,291,32894,2,0,P|457:293|435:286,1,46,2|0,1:2|2:0,2:0:0:0:
414,213,33204,2,0,L|406:262,1,46,2|0,3:2|2:0,2:0:0:0:
500,323,33514,6,0,P|450:328|408:312,1,92,2|0,3:2|2:0,2:0:0:0:
370,177,34134,2,0,P|399:217|406:262,1,92,2|0,1:2|3:2,2:0:0:0:
308,362,34754,2,0,P|328:316|363:287,1,92,2|0,3:2|2:0,2:0:0:0:
406,258,35217,5,0,3:0:0:0:
406,258,35372,2,0,P|405:234|395:213,1,46,0|0,1:2|2:0,2:0:0:0:
450,260,35681,2,0,P|426:263|399:255,1,46,0|0,3:0|2:0,2:0:0:0:
364,195,35991,2,0,L|375:95,1,92,0|0,3:0|2:0,2:0:0:0:
280,8,36609,5,8,2:0:0:0:
280,8,36918,1,8,2:0:0:0:
194,76,37228,6,0,P|187:100|196:125,1,46,2|0,3:2|2:0,2:0:0:0:
265,193,37539,2,0,L|256:143,1,46,2|0,2:0|2:0,2:0:0:0:
285,80,37850,2,0,P|292:104|283:129,1,46,0|0,1:2|2:0,2:0:0:0:
212,192,38162,2,0,L|221:142,1,46,2|0,3:2|2:0,2:0:0:0:
157,60,38473,6,0,P|146:105|166:153,1,92,2|0,3:2|2:0,2:0:0:0:
228,224,39094,1,0,1:2:0:0:
150,290,39405,2,0,P|131:274|124:248,1,46,2|0,3:2|2:0,2:0:0:0:
90,223,39715,6,0,B|72:176|110:176|91:131,1,92,2|0,3:2|2:0,2:0:0:0:
57,63,40178,2,0,B|75:110|37:110|56:155,1,92,2|0,2:0|2:0,2:0:0:0:
125,199,40642,2,0,P|150:200|171:187,1,46,2|0,3:2|2:0,2:0:0:0:
125,199,40952,2,0,L|132:307,1,92,2|0,3:2|2:0,2:0:0:0:
68,382,41570,5,8,2:0:0:0:
68,382,41879,1,8,2:0:0:0:
2,322,42189,6,0,P|-3:299|2:277,1,46,6|0,3:2|2:0,2:0:0:0:
82,297,42499,2,0,P|60:304|38:299,1,46,2|0,2:0|2:0,2:0:0:0:
1,238,42809,2,0,P|-4:215|1:193,1,46,2|0,1:2|2:0,2:0:0:0:
81,213,43119,2,0,P|59:220|37:215,1,46,2|0,3:2|2:0,2:0:0:0:
2,151,43429,6,0,P|44:132|97:146,1,92,2|0,3:2|2:0,2:0:0:0:
160,53,44050,2,0,P|155:98|116:137,1,92,2|0,1:2|3:2,2:0:0:0:
165,238,44670,2,0,P|127:211|113:158,1,92,2|0,3:2|2:0,2:0:0:0:
101,108,45134,5,0,3:0:0:0:
101,108,45289,2,0,L|94:61,1,46,0|0,1:2|2:0,2:0:0:0:
66,27,45599,2,0,P|85:18|111:21,1,46,0|0,3:0|2:0,2:0:0:0:
144,69,45908,2,0,P|188:77|230:59,1,92,0|0,3:0|2:0,2:0:0:0:
330,0,46528,5,8,2:0:0:0:
330,0,46837,1,8,2:0:0:0:
402,68,47147,6,0,P|432:70|449:64,1,46,2|0,3:2|2:0,2:0:0:0:
392,22,47457,2,0,L|402:71,1,46,2|0,2:0|2:0,2:0:0:0:
456,111,47768,2,0,P|486:113|503:107,1,46,2|0,1:2|2:0,2:0:0:0:
446,65,48077,2,0,L|456:114,1,46,2|0,3:2|2:0,2:0:0:0:
471,191,48386,5,2,3:2:0:0:
488,303,48697,1,2,2:0:0:0:
381,320,49009,1,2,1:2:0:0:
364,208,49321,1,2,3:2:0:0:
471,191,49632,6,0,P|483:165|455:110,1,92,2|0,3:2|2:0,2:0:0:0:
412,162,50091,2,0,P|400:188|428:243,1,92,2|0,2:0|2:0,2:0:0:0:
477,293,50550,2,0,P|488:320|484:339,1,46,2|0,3:2|2:0,2:0:0:0:
443,384,50869,6,0,L|343:370,1,92,2|0,3:2|2:0,2:0:0:0:
198,341,51489,2,0,L|289:328,1,92,10|8,2:0|2:0,2:0:0:0:
383,288,52112,5,2,3:2:0:0:
291,274,52420,1,0,2:0:0:0:
383,288,52728,1,0,1:0:0:0:
357,260,53037,5,6,3:2:0:0:
343,360,53343,1,0,2:0:0:0:
312,383,53649,5,6,3:2:0:0:
325,286,53955,1,8,2:0:0:0:
282,206,54267,1,6,3:2:0:0:
325,286,54586,1,4,3:2:0:0:
256,192,57062,12,0,59588,2:0:0:0:
256,192,60182,12,0,65399,2:0:0:0:
