osu file format v14

[General]
AudioFilename: audio.mp3
AudioLeadIn: 0
PreviewTime: 62
Countdown: 0
SampleSet: Drum
StackLeniency: 0.7
Mode: 0
LetterboxInBreaks: 0
WidescreenStoryboard: 1

[Editor]
DistanceSpacing: 0.8
BeatDivisor: 4
GridSize: 16
TimelineZoom: 2.4

[Metadata]
Title:EastEnders Theme (New BBC TV Version 2009)
TitleUnicode:EastEnders Theme (New BBC TV Version 2009)
Artist:The Simon May Orchestra
ArtistUnicode:The Simon May Orchestra
Creator:AJT
Version:Albert Square
Source:EastEnders
Tags:leslie osborne walford british broadcasting corporation english instrumental other classical orchestral piano tune song drama soap opera aistre alphabet venax apollo apo11o doomsday doomsday93 gazza respirte affirmation neoskylove
BeatmapID:2617231
BeatmapSetID:1259039

[Difficulty]
HPDrainRate:6
CircleSize:4.4
OverallDifficulty:8
ApproachRate:9
SliderMultiplier:3.59999990463257
SliderTickRate:1

[Events]
//Background and Video events
0,0,"bg.jpg",0,0
//Break Periods
//Storyboard Layer 0 (Background)
//Storyboard Layer 1 (Fail)
//Storyboard Layer 2 (Pass)
//Storyboard Layer 3 (Foreground)
//Storyboard Layer 4 (Overlay)
//Storyboard Sound Samples

[TimingPoints]
62,961.538461538462,4,3,1,60,1,0
542,937.5,4,3,1,60,1,0
1010,636.604774535809,4,3,1,60,1,0
1328,916.030534351145,4,3,1,60,1,0
1621,551.724137931035,4,3,1,60,1,0
1910,582.52427184466,4,3,1,60,1,0
2500,626.631853785901,4,3,1,60,1,0
2656,-100,4,3,1,5,0,0
2813,-100,4,3,1,60,0,0
2969,-100,4,3,1,5,0,0
3126,-100,4,3,1,60,0,0
3282,-100,4,3,1,5,0,0
3439,-100,4,3,1,60,0,0
3595,-100,4,3,1,5,0,0
3753,621.761658031088,4,3,1,60,1,0
4219,-100,4,3,1,5,0,0
4374,-100,4,3,1,60,0,0
4840,-100,4,3,1,5,0,0
4996,621.761658031088,4,3,1,60,1,0
4996,-200,4,3,1,60,0,0
6239,-66.6666666666667,4,3,1,60,0,0
7016,-66.6666666666667,4,3,1,5,0,0
7172,-66.6666666666667,4,3,1,60,0,0
7327,-66.6666666666667,4,3,1,5,0,0
7483,615.384615384615,4,3,1,60,1,0
7636,-100,4,3,1,5,0,0
7790,-100,4,3,1,60,0,0
7943,-100,4,3,1,5,0,0
8098,-100,4,3,1,60,0,0
8251,-100,4,3,1,5,0,0
8406,-100,4,3,1,60,0,0
8559,-100,4,3,1,5,0,0
8713,621.761658031088,4,3,1,60,1,0
8713,-200,4,3,1,60,0,0
9645,-400,4,3,1,60,0,0
9800,-400,4,3,1,5,0,0
9957,623.700623700624,4,3,1,60,1,0
10268,-100,4,3,1,5,0,0
10424,-100,4,3,1,60,0,0
10735,-100,4,3,1,5,0,0
10892,-50,4,3,1,60,0,0
11047,-50,4,3,1,5,0,0
11204,-100,4,3,1,60,0,0
12451,615.700359158543,4,3,1,60,1,0
12604,-100,4,3,1,5,0,0
12758,-100,4,3,1,60,0,0
12911,-100,4,3,1,5,0,0
13066,-100,4,3,1,60,0,0
13219,-100,4,3,1,5,0,0
13374,-100,4,3,1,60,0,0
13527,-100,4,3,1,5,0,0
13682,-133.333333333333,4,3,1,60,0,0
14143,-133.333333333333,4,3,1,5,0,0
14298,623.376623376623,4,3,1,60,1,0
14298,-133.333333333333,4,3,1,60,0,0
14301,623.376623376623,4,3,1,60,1,0
14454,623.376623376623,4,2,1,60,1,0
14765,-100,4,3,1,5,0,0
14921,620.15503875969,4,2,1,60,1,0
14921,-200,4,3,1,60,0,0
16161,-100,4,3,1,60,0,0
16781,-66.6666666666667,4,3,1,60,0,0
16936,-66.6666666666667,4,3,1,5,0,0
17091,-66.6666666666667,4,3,1,60,0,0
17246,-66.6666666666667,4,3,1,5,0,0
17401,620.15503875969,4,2,1,60,1,0
17556,-100,4,3,1,5,0,0
17711,-100,4,3,1,60,0,0
17866,-100,4,3,1,5,0,0
18021,-100,4,3,1,60,0,0
18176,-100,4,3,1,5,0,0
18331,-100,4,3,1,60,0,0
18486,-100,4,3,1,5,0,0
18641,-200,4,3,1,60,0,0
19571,-400,4,3,1,60,0,0
19726,-400,4,3,1,5,0,0
19881,618.556701030928,4,2,1,60,1,0
19881,-80,4,3,1,60,0,0
20190,-80,4,3,1,5,0,0
20344,-80,4,3,1,60,0,0
20653,-80,4,3,1,5,0,0
20808,-80,4,3,1,60,0,0
20962,-80,4,3,1,5,0,0
21118,-80,4,3,1,60,0,0
21736,627.615062761506,4,2,1,60,1,0
22363,615.384615384615,4,2,1,60,1,0
22363,-200,4,3,1,60,0,0
23439,-200,4,3,1,5,0,0
23593,622.729631551635,4,2,1,60,1,0
23593,-200,4,3,1,60,0,0
24838,620.47569803516,4,2,1,60,1,0
24838,-133.333333333333,4,3,1,60,0,0
26078,618.556701030928,4,2,1,60,1,0
26078,-133.333333333333,4,3,1,60,0,0
26850,-133.333333333333,4,3,1,5,0,0
27005,-133.333333333333,4,3,1,60,0,0
27159,-133.333333333333,4,3,1,5,0,0
27315,620.15503875969,4,2,1,60,1,0
28090,-100,4,3,1,5,0,0
28245,-100,4,3,1,60,0,0
28400,-100,4,3,1,5,0,0
28555,-100,4,3,1,60,0,0
29175,625,4,2,1,60,1,0
29331,-100,4,3,1,5,0,0
29487,-100,4,3,1,60,0,0
29643,-100,4,3,1,5,0,0
29800,618.875709128417,4,2,1,60,1,0
30109,-100,4,3,1,5,0,0
30264,-100,4,3,1,60,0,0
30573,-100,4,3,1,5,0,0
30728,-100,4,3,1,60,0,0
30882,-100,4,3,1,5,0,0
31037,-100,4,3,1,60,0,0
31191,-100,4,3,1,5,0,0
31347,-100,4,3,1,60,0,0
31810,-100,4,3,1,5,0,0
31966,-100,4,3,1,60,0,0
32120,-100,4,3,1,5,0,0
32275,619.834710743802,4,2,1,60,1,0
32429,-100,4,3,1,5,0,0
32584,-100,4,3,1,60,0,0
32738,-100,4,3,1,5,0,0
32894,-100,4,3,1,60,0,0
33048,-100,4,3,1,5,0,0
33204,-100,4,3,1,60,0,0
33358,-100,4,3,1,5,0,0
33514,-100,4,3,1,60,0,0
33978,-100,4,3,1,5,0,0
34134,-100,4,3,1,60,0,0
34598,-100,4,3,1,5,0,0
34754,618.556701030928,4,2,1,60,1,0
34754,-200,4,3,1,60,0,0
35991,-66.6666666666667,4,3,1,60,0,0
36763,-66.6666666666667,4,3,1,5,0,0
36918,-66.6666666666667,4,3,1,60,0,0
37072,-66.6666666666667,4,3,1,5,0,0
37228,622.729631551635,4,2,1,60,1,0
37383,-100,4,3,1,5,0,0
37538,-100,4,3,1,60,0,0
37693,-100,4,3,1,5,0,0
37850,-100,4,3,1,60,0,0
38006,-100,4,3,1,5,0,0
38160,-100,4,3,1,60,0,0
38316,-100,4,3,1,5,0,0
38473,621.43966856551,4,2,1,60,1,0
38473,-200,4,3,1,60,0,0
39405,-400,4,3,1,60,0,0
39560,-400,4,3,1,5,0,0
39715,618.556701030928,4,2,1,60,1,0
40024,-100,4,3,1,5,0,0
40178,-100,4,3,1,60,0,0
40487,-100,4,3,1,5,0,0
40642,-50,4,3,1,60,0,0
40796,-50,4,3,1,5,0,0
40952,-100,4,3,1,60,0,0
41106,-100,4,3,1,5,0,0
41261,-100,4,3,1,60,0,0
41724,-100,4,3,1,5,0,0
41879,-100,4,3,1,60,0,0
42033,-100,4,3,1,5,0,0
42189,620.47569803516,4,2,1,60,1,1
42344,-100,4,3,1,5,0,1
42499,-100,4,3,1,60,0,1
42654,-100,4,3,1,5,0,1
42809,-100,4,3,1,60,0,1
42964,-100,4,3,1,5,0,1
43119,-100,4,3,1,60,0,1
43274,-100,4,3,1,5,0,1
43429,-200,4,3,1,60,0,1
44515,-200,4,3,1,5,0,1
44670,619.354838709677,4,2,1,60,1,1
45599,-133.333333333333,4,3,1,60,0,1
45753,-133.333333333333,4,3,1,5,0,1
45908,-133.333333333333,4,3,1,60,0,1
46528,-66.6666666666667,4,3,1,60,0,1
46682,-66.6666666666667,4,3,1,5,0,1
46837,-66.6666666666667,4,3,1,60,0,1
46991,-66.6666666666667,4,3,1,5,0,1
47147,621.761658031088,4,2,1,60,1,1
47147,-80,4,3,1,60,0,1
47302,-80,4,3,1,5,0,1
47457,-80,4,3,1,60,0,1
47612,-80,4,3,1,5,0,1
47768,618.556701030928,4,2,1,60,1,1
47768,-80,4,3,1,60,0,1
47922,-80,4,3,1,5,0,1
48077,-80,4,3,1,60,0,1
48231,-80,4,3,1,5,0,1
48386,623.376623376623,4,2,1,60,1,1
48386,-133.333333333333,4,3,1,60,0,1
48541,-133.333333333333,4,3,1,5,0,1
48697,-133.333333333333,4,3,1,60,0,1
48852,-133.333333333333,4,3,1,5,0,1
49009,-133.333333333333,4,3,1,60,0,1
49164,-133.333333333333,4,3,1,5,0,1
49321,-133.333333333333,4,3,1,60,0,1
49476,-133.333333333333,4,3,1,5,0,1
49632,612.244897959184,4,2,1,60,1,1
49632,-66.6666666666667,4,3,1,60,0,1
50550,638.297872340426,4,2,1,60,1,1
50869,620.15503875969,4,2,1,60,1,1
50872,620.15503875969,4,2,1,60,1,1
51024,620.15503875969,4,2,1,60,1,1
51489,623.376623376623,4,2,1,60,1,1
51644,-100,4,3,1,5,0,1
51800,-100,4,3,1,60,0,1
51955,-100,4,3,1,5,0,1
52112,616.966580976864,4,2,1,60,1,1
53037,612.244897959184,4,2,1,60,1,1
53652,612.244897959184,4,2,1,60,1,1
53802,612.244897959184,4,2,1,60,1,1
53955,625,4,2,1,60,1,1
54267,638.297872340426,4,2,1,60,1,1
54586,641.711229946524,4,2,1,60,1,0
55217,600,4,2,1,60,1,0
55826,600,4,2,1,60,1,0
56420,642.398286937902,4,2,1,60,1,0
57062,652.173913043478,4,2,1,45,1,0
57062,-133.333333333333,4,3,1,45,0,0
58040,689.655172413793,4,2,1,45,1,0
58384,736.196319018405,4,2,1,40,1,0
58384,-200,4,3,1,40,0,0
59120,937.5,4,2,1,25,1,0
59588,1188.11881188119,4,2,1,20,1,0
60182,1043.47826086957,4,2,1,20,1,0
60182,-222.222222222222,4,3,2,20,0,0
65399,-222.222222222222,4,3,2,5,0,0

[Colours]
Combo1 : 29,49,79
Combo2 : 0,128,0
Combo3 : 128,128,128

[HitObjects]
99,180,62,5,4,2:3:0:0:
99,180,542,5,4,2:3:0:0:
99,180,1010,21,4,2:3:0:0:
190,273,1328,5,4,2:3:0:0:
198,179,1621,1,4,2:3:0:0:
100,273,1910,21,4,2:3:0:0:
198,179,2055,1,4,2:3:0:0:
190,273,2201,1,4,2:3:0:0:
99,180,2346,1,4,2:3:0:0:
244,343,2500,6,0,B|202:319|188:264,1,89.9999976158142,6|0,2:0|2:0,2:0:0:0:
252,110,2813,2,0,B|210:134|196:189,1,89.9999976158142,2|0,2:0|2:0,2:0:0:0:
47,343,3126,2,0,B|89:319|103:264,1,89.9999976158142,2|0,1:2|2:0,2:0:0:0:
46,111,3439,2,0,B|88:135|102:190,1,89.9999976158142,2|0,3:2|2:0,2:0:0:0:
198,179,3753,22,0,B|248:88|362:176|417:42,1,269.999992847443,2|0,3:2|2:0,2:0:0:0:
213,46,4374,2,0,B|267:176|381:88|432:179,1,269.999992847443,2|0,1:2|2:0,2:0:0:0:
512,205,4996,6,0,P|487:240|431:257,1,89.9999976158142,2|0,3:2|2:0,2:0:0:0:
340,298,5462,1,0,3:0:0:0:
262,323,5617,2,0,P|286:358|342:375,1,89.9999976158142,0|0,1:2|3:0,2:0:0:0:
176,256,6239,22,0,B|120:273|66:256|66:256|40:192|66:132|66:132|121:113|176:132|176:132|185:164|176:201,1,405.000004720688,0|0,3:0|2:0,2:0:0:0:
262,323,6861,6,0,P|323:343|395:326,1,134.999996423721,8|0,2:0|2:0,2:0:0:0:
482,217,7172,2,0,P|421:197|349:214,1,134.999996423721,8|0,2:0|2:0,2:0:0:0:
259,105,7483,22,0,B|211:97|211:97|219:50,1,89.9999976158142,2|0,3:2|2:0,2:0:0:0:
233,263,7790,2,0,B|185:255|185:255|178:302,1,89.9999976158142,2|0,2:0|2:0,2:0:0:0:
11,227,8098,2,0,B|58:234|58:234|50:281,1,89.9999976158142,2|0,1:2|2:0,2:0:0:0:
37,69,8406,2,0,B|84:76|84:76|91:29,1,89.9999976158142,2|0,3:2|2:0,2:0:0:0:
232,26,8713,6,0,B|277:19|277:19|323:49,1,89.9999976158142,2|0,3:2|2:0,2:0:0:0:
262,97,9179,1,0,2:0:0:0:
464,32,9334,1,0,1:2:0:0:
432,304,9645,22,0,L|421:273,1,22.4999994039536,2|0,3:2|2:0,2:0:0:0:
477,189,9957,6,0,B|383:185|383:185|324:248,1,179.999995231628,2|0,3:2|2:0,2:0:0:0:
332,359,10424,2,0,B|242:330|242:330|208:251,1,179.999995231628,2|0,2:0|2:0,2:0:0:0:
237,142,10892,2,0,B|147:170|147:170|113:249,1,179.999995231628,2|0,3:2|2:0,2:0:0:0:
132,363,11204,22,0,B|42:334|42:334|8:255,1,179.999995231628,2|0,3:2|2:0,2:0:0:0:
48,128,11672,1,0,2:0:0:0:
113,248,11828,1,10,2:0:0:0:
160,16,12139,1,8,2:0:0:0:
224,160,12451,6,0,B|271:152|271:152|278:199,1,89.9999976158142,6|0,2:0|2:0,2:0:0:0:
484,162,12758,2,0,B|436:169|436:169|429:122,1,89.9999976158142,2|0,2:0|2:0,2:0:0:0:
463,357,13066,2,0,B|455:309|455:309|502:302,1,89.9999976158142,2|0,1:2|2:0,2:0:0:0:
235,347,13374,2,0,B|282:339|282:339|289:386,1,89.9999976158142,2|0,3:2|2:0,2:0:0:0:
154,341,13682,22,0,B|155:263|260:281|249:174,1,202.499994635583,2|0,3:2|2:0,2:0:0:0:
399,191,14298,2,0,B|321:190|339:85|232:96,1,202.499994635583,2|0,1:2|2:0,2:0:0:0:
144,78,14921,6,0,P|164:36|208:16,1,89.9999976158143,2|0,3:2|2:0,2:0:0:0:
249,175,15386,1,0,3:0:0:0:
401,111,15541,1,0,1:2:0:0:
144,78,15851,1,0,3:0:0:0:
249,175,16161,22,0,B|236:216|249:255|249:255|287:266|329:255|329:255|341:214|329:175|329:175|304:165|269:185,1,269.999992847443,0|0,3:0|2:0,2:0:0:0:
195,51,16781,6,0,P|170:115|100:143,1,134.999996423721,8|0,2:0|2:0,2:0:0:0:
371,71,17091,2,0,P|396:135|465:163,1,134.999996423721,8|0,2:0|2:0,2:0:0:0:
353,280,17401,22,0,B|394:260|394:260|438:268,1,89.9999976158142,2|0,3:2|2:0,2:0:0:0:
259,344,17711,2,0,B|217:324|217:324|173:332,1,89.9999976158142,2|0,2:0|2:0,2:0:0:0:
400,160,18021,2,0,B|441:140|441:140|485:148,1,89.9999976158142,2|0,1:2|2:0,2:0:0:0:
224,230,18331,2,0,B|182:210|182:210|138:218,1,89.9999976158142,2|0,3:2|2:0,2:0:0:0:
272,96,18641,6,0,B|242:61|242:61|238:16,1,89.9999976158142,2|0,3:2|2:0,2:0:0:0:
312,32,19106,1,0,2:0:0:0:
64,176,19261,1,0,1:2:0:0:
361,131,19571,22,0,L|361:163,1,22.4999994039536,2|0,3:2|2:0,2:0:0:0:
217,267,19881,6,0,B|306:190|306:190|413:207,1,224.999994039536,2|0,3:2|2:0,2:0:0:0:
492,115,20344,2,0,B|517:230|517:230|452:316,1,224.999994039536,2|0,2:0|2:0,2:0:0:0:
500,17,20808,22,0,B|446:17|446:17|408:61,1,112.499997019768,2|0,3:2|2:0,2:0:0:0:
354,315,21118,2,0,B|322:91,1,224.999994039536,2|0,3:2|2:0,2:0:0:0:
256,16,21582,1,0,2:0:0:0:
208,176,21736,5,12,2:3:0:0:
192,256,21892,1,12,2:3:0:0:
96,112,22049,21,12,2:3:0:0:
64,16,22206,1,12,2:3:0:0:
0,192,22363,6,0,B|-24:276|-24:276|53:339,1,179.999995231628,4|0,3:2|1:2,2:0:0:0:
183,127,23286,2,0,L|187:174,1,44.9999988079071,2|0,3:2|2:0,2:0:0:0:
292,265,23593,2,0,B|236:202|236:202|139:224,1,179.999995231628,2|0,3:2|1:2,2:0:0:0:
402,23,24838,22,0,B|353:3|303:23|303:23|244:47|195:16,1,202.499994635583,2|0,3:2|3:2,2:0:0:0:
348,92,25458,1,0,1:2:0:0:
112,192,25768,1,2,3:2:0:0:
436,357,26078,2,0,B|387:377|337:357|337:357|278:333|229:364,1,202.499994635583,2|0,3:2|2:0,2:0:0:0:
380,292,26696,6,0,L|310:266,1,67.4999982118608,8|0,2:0|2:0,2:0:0:0:
176,208,27005,2,0,L|106:182,1,67.4999982118608,10|0,3:2|2:0,2:0:0:0:
23,250,27315,22,0,B|42:147|177:195|187:51,1,269.999992847443,2|0,3:2|2:0,2:0:0:0:
11,50,27935,6,0,B|94:83,1,89.9999976158142,0|0,1:2|2:0,2:0:0:0:
256,160,28245,2,0,B|339:193,1,89.9999976158142,2|0,3:2|2:0,2:0:0:0:
498,86,28555,22,0,B|478:188|343:140|333:284,1,269.999992847443,2|0,3:2|2:0,2:0:0:0:
505,319,29175,6,0,B|435:261,1,89.9999976158142,0|0,1:2|2:0,2:0:0:0:
288,144,29487,2,0,B|218:86,1,89.9999976158142,2|0,3:2|2:0,2:0:0:0:
91,23,29800,22,0,B|98:59|120:82|144:82|144:82|144:22|203:17,1,179.999995231628,2|0,3:2|2:0,2:0:0:0:
224,194,30264,2,0,B|260:186|283:164|283:140|283:140|223:140|218:81,1,179.999995231628,2|0,2:0|2:0,2:0:0:0:
362,14,30728,2,0,P|318:29|291:68,1,89.9999976158143,2|0,3:2|2:0,2:0:0:0:
427,168,31037,6,0,P|411:124|368:97,1,89.9999976158143,2|0,3:2|2:0,2:0:0:0:
344,171,31347,1,0,2:0:0:0:
384,240,31501,1,0,2:0:0:0:
336,384,31656,22,0,B|247:362,1,89.9999976158142,8|0,2:0|2:0,2:0:0:0:
128,336,31966,2,0,B|39:314,1,89.9999976158142,8|0,2:0|2:0,2:0:0:0:
201,261,32275,6,0,B|225:219|280:205,1,89.9999976158142,6|0,3:2|2:0,2:0:0:0:
434,269,32584,2,0,B|410:227|355:213,1,89.9999976158142,2|0,2:0|2:0,2:0:0:0:
201,64,32894,2,0,B|225:106|280:120,1,89.9999976158142,2|0,1:2|2:0,2:0:0:0:
433,63,33204,2,0,B|409:105|354:119,1,89.9999976158142,2|0,3:2|2:0,2:0:0:0:
364,215,33514,22,0,B|314:306|200:218|145:352,1,269.999992847443,2|0,3:2|2:0,2:0:0:0:
348,347,34134,2,0,B|295:218|181:306|130:215,1,269.999992847443,2|0,1:2|2:0,2:0:0:0:
46,207,34754,6,0,P|64:166|113:135,1,89.9999976158142,2|0,3:2|2:0,2:0:0:0:
272,16,35217,1,0,3:0:0:0:
336,48,35372,2,0,L|432:32,1,89.9999976158142,0|0,1:2|3:0,2:0:0:0:
474,248,35991,22,0,B|506:268|514:298|514:298|486:348|436:376|436:376|368:342|349:288|349:288|372:238|426:211,1,405.000004720688,0|0,3:0|2:0,2:0:0:0:
486,125,36609,6,0,P|438:107|353:130,1,134.999996423721,8|0,2:0|2:0,2:0:0:0:
208,48,36918,2,0,P|160:66|75:43,1,134.999996423721,8|0,2:0|2:0,2:0:0:0:
0,140,37228,22,0,B|29:178|29:178|67:149,1,89.9999976158142,2|0,3:2|2:0,2:0:0:0:
164,292,37539,2,0,B|125:321|125:321|97:283,1,89.9999976158142,2|0,2:0|2:0,2:0:0:0:
249,164,37850,2,0,B|277:202|277:202|314:173,1,89.9999976158142,0|0,1:2|2:0,2:0:0:0:
442,297,38162,2,0,B|403:325|403:325|375:287,1,89.9999976158142,2|0,3:2|2:0,2:0:0:0:
412,125,38473,6,0,P|384:89|341:70,1,89.9999976158142,2|0,3:2|2:0,2:0:0:0:
310,176,38939,1,0,2:0:0:0:
144,0,39094,1,0,1:2:0:0:
9,189,39405,22,0,L|7:214,1,22.4999994039536,2|0,3:2|2:0,2:0:0:0:
17,320,39715,6,0,B|32:255|32:255|52:216|52:216|70:148,1,179.999995231628,2|0,3:2|2:0,2:0:0:0:
83,0,40178,2,0,B|113:58|113:58|142:91|142:91|176:153,1,179.999995231628,2|0,2:0|2:0,2:0:0:0:
213,261,40642,2,0,B|248:205|248:205|262:163|262:163|299:103,1,179.999995231628,2|0,3:2|2:0,2:0:0:0:
306,17,40952,22,0,P|350:29|377:64,1,89.9999976158143,2|0,3:2|2:0,2:0:0:0:
298,103,41261,1,0,2:0:0:0:
145,69,41416,1,0,2:0:0:0:
0,32,41570,6,0,B|9:123,1,89.9999976158142,8|0,2:0|2:0,2:0:0:0:
64,240,41879,2,0,B|73:331,1,89.9999976158142,8|0,2:0|2:0,2:0:0:0:
224,208,42189,22,0,B|265:182|265:182|240:142,1,89.9999976158142,6|0,3:2|2:0,2:0:0:0:
306,345,42499,2,0,B|347:319|347:319|371:360,1,89.9999976158142,2|0,2:0|2:0,2:0:0:0:
498,228,42809,2,0,B|457:252|457:252|482:292,1,89.9999976158142,2|0,1:2|2:0,2:0:0:0:
415,91,43119,2,0,B|374:115|374:115|349:74,1,89.9999976158142,2|0,3:2|2:0,2:0:0:0:
226,35,43429,6,0,P|185:14|133:23,1,89.9999976158142,2|0,3:2|2:0,2:0:0:0:
172,85,43895,1,0,2:0:0:0:
80,272,44050,1,2,1:2:0:0:
20,372,44360,22,0,L|9:308,1,44.9999988079071,0|0,3:2|2:0,2:0:0:0:
49,118,44670,6,0,B|42:175|42:175|51:201|51:201|42:295,1,179.999995231628,2|0,3:2|2:0,2:0:0:0:
96,352,45134,1,0,3:0:0:0:
389,260,45289,1,0,1:2:0:0:
480,384,45599,22,0,L|462:317,1,67.4999982118608,0|0,3:0|2:0,2:0:0:0:
445,191,45908,6,0,B|375:179|375:179|314:212,1,134.999996423722,0|0,3:0|2:0,2:0:0:0:
389,260,46373,1,0,2:0:0:0:
97,310,46528,22,0,P|148:311|221:261,1,134.999996423721,8|0,2:0|2:0,2:0:0:0:
240,128,46837,2,0,P|222:79|149:28,1,134.999996423721,8|0,2:0|2:0,2:0:0:0:
30,111,47147,6,0,L|154:118,1,112.499997019768,2|0,3:2|2:0,2:0:0:0:
336,128,47457,2,0,L|460:135,1,112.499997019768,2|0,2:0|2:0,2:0:0:0:
464,240,47768,22,0,L|344:274,1,112.499997019768,2|0,1:2|2:0,2:0:0:0:
157,328,48077,2,0,L|37:362,1,112.499997019768,2|0,3:2|2:0,2:0:0:0:
0,240,48386,6,0,P|11:213|42:193,1,67.4999982118608,2|0,3:2|2:0,2:0:0:0:
96,48,48697,2,0,P|107:74|138:94,1,67.4999982118608,2|0,2:0|2:0,2:0:0:0:
208,256,49009,2,0,P|219:229|250:209,1,67.4999982118608,2|0,1:2|2:0,2:0:0:0:
301,63,49321,2,0,P|314:89|346:108,1,67.4999982118608,2|0,3:2|2:0,2:0:0:0:
444,248,49632,22,0,B|428:190|352:178|352:178|263:167|231:72,1,269.999992847443,2|0,3:2|2:0,2:0:0:0:
352,263,50091,1,2,2:0:0:0:
448,89,50244,2,0,B|432:146|356:158|356:158|267:169|235:264,1,269.999992847443,0|2,1:2|3:2,2:0:0:0:
38,42,50869,6,0,B|168:92|147:0|325:39,1,269.999992847443,2|0,3:2|2:0,2:0:0:0:
480,112,51489,22,0,B|391:135,1,89.9999976158142,10|0,2:0|2:0,2:0:0:0:
176,192,51800,2,0,B|87:215,1,89.9999976158142,8|0,2:0|2:0,2:0:0:0:
50,310,52112,6,0,P|1:246|4:150,1,179.999995231628,2|0,3:2|2:0,2:0:0:0:
80,76,52574,1,0,2:0:0:0:
129,20,52728,2,0,P|87:4|44:14,1,89.9999976158142,0|0,1:0|2:0,2:0:0:0:
208,96,53037,22,0,P|295:70|395:103,1,179.999995231628,6|0,3:2|2:0,2:0:0:0:
431,186,53496,1,0,2:0:0:0:
475,300,53649,2,0,L|468:113,1,179.999995231628,6|8,3:2|2:0,2:0:0:0:
357,98,54111,5,0,2:0:0:0:
314,42,54267,2,0,P|355:27|398:41,1,89.9999976158142,6|0,3:2|2:0,2:0:0:0:
357,98,54586,21,4,3:2:0:0:
257,139,54906,1,2,2:0:0:0:
168,201,55217,1,2,2:0:0:0:
109,291,55517,1,2,2:0:0:0:
57,196,55826,5,2,2:0:0:0:
149,251,56126,1,2,2:0:0:0:
255,236,56420,1,2,2:0:0:0:
334,162,56741,1,2,2:0:0:0:
280,55,57062,22,0,P|216:37|151:57,1,134.999996423722,2|0,2:0|2:0,2:0:0:0:
78,119,57551,1,2,2:0:0:0:
53,203,57714,2,0,L|33:63,1,135.415625149842,0|2,2:0|2:0,2:0:0:0:
107,263,58384,6,0,P|64:283|9:266,1,89.9999976158142,2|0,2:0|2:0,2:0:0:0:
256,192,59120,1,2,2:0:0:0:
457,350,59588,1,0,2:0:0:0:
457,350,60182,6,0,B|363:348|369:280|367:263|367:263|367:245|373:209|329:194|300:213|298:237|296:244|296:244|291:257|308:302|261:345|220:314|211:308|211:308|202:301|160:269|185:217|205:199|213:188|213:188|226:171|235:146|222:122|200:104|169:110|160:112|160:112|149:114|112:122|61:95|52:23,1,809.999953823091,6|0,2:0|2:0,2:0:0:0:
