osu file format v14

[General]
AudioFilename: audio.mp3
AudioLeadIn: 0
PreviewTime: 16989
Countdown: 0
SampleSet: Soft
StackLeniency: 0.7
Mode: 0
LetterboxInBreaks: 0
WidescreenStoryboard: 0

[Editor]
DistanceSpacing: 1.6
BeatDivisor: 4
GridSize: 32
TimelineZoom: 2.3

[Metadata]
Title:The Office Theme Song
TitleUnicode:The Office Theme Song
Artist:The Scrantones
ArtistUnicode:The Scrantones
Creator:Ora
Version:Insane
Source:
Tags:squirrelpascals celsius
BeatmapID:1280507
BeatmapSetID:606113

[Difficulty]
HPDrainRate:5
CircleSize:4.2
OverallDifficulty:8
ApproachRate:9
SliderMultiplier:1.7
SliderTickRate:1

[Events]
//Background and Video events
0,0,"thumb-1920-420121.jpg",0,0
//Break Periods
//Storyboard Layer 0 (Background)
//Storyboard Layer 1 (Fail)
//Storyboard Layer 2 (Pass)
//Storyboard Layer 3 (Foreground)
//Storyboard Sound Samples

[TimingPoints]
48,352.941176470588,4,2,1,40,1,0
48,-117.647058823529,4,2,1,40,0,0
5695,-100,4,2,2,50,0,0
15577,-100,4,2,1,55,0,0
16989,-90.9090909090909,4,2,1,60,0,1
28283,-100,4,2,1,50,0,0
31283,-100,4,2,1,5,0,0

[Colours]
Combo1 : 166,202,199
Combo2 : 194,175,131
Combo3 : 81,82,136

[HitObjects]
335,311,48,6,0,P|328:274|315:237,1,72.2500013780594
261,124,400,2,0,B|297:139|333:124|333:124|360:152|401:150,1,144.500002756119
399,153,1106,1,0,0:0:0:0:
295,52,1283,1,0,0:0:0:0:
410,172,1459,6,0,P|415:207|417:243,1,72.2500013780594
342,350,1812,2,0,B|306:335|270:349|270:349|243:322|202:324,1,144.500002756119
206,323,2518,1,0,0:0:0:0:
334,256,2695,1,0,0:0:0:0:
189,336,2871,6,0,P|152:333|117:328,1,72.2500013780594
7,233,3224,2,0,B|43:218|79:233|79:233|106:205|147:207,1,144.500002756119
143,207,3930,1,0,0:0:0:0:
41,305,4107,1,0,0:0:0:0:
164,194,4283,6,0,P|162:157|156:122,1,72.2500013780594
274,38,4636,2,0,P|267:73|266:109,1,72.2500013780594
333,237,4989,1,0,0:0:0:0:
488,209,5165,1,0,0:0:0:0:
340,151,5342,1,0,0:0:0:0:
433,279,5518,1,0,0:0:0:0:
260,204,5695,6,0,P|215:205|173:219,1,85,8|0,0:0|0:0,0:0:0:0:
76,353,6047,2,0,P|97:313|106:270,1,85,8|0,0:0|0:0,0:0:0:0:
38,119,6400,2,0,P|61:157|94:186,1,85,8|0,0:0|0:0,0:0:0:0:
260,204,6753,1,8,0:0:0:0:
198,63,6930,1,0,0:0:0:0:
388,103,7106,5,8,0:0:0:0:
252,122,7283,1,0,0:0:0:0:
389,22,7459,2,0,P|434:37|462:73,1,85,8|0,0:0|0:0,0:0:0:0:
429,232,7812,1,8,0:0:0:0:
388,103,7989,1,0,0:0:0:0:
512,208,8165,2,0,P|512:256|483:302,1,85
312,286,8518,5,8,0:0:0:0:
429,232,8695,1,0,0:0:0:0:
287,366,8871,2,0,P|246:364|197:354,1,85,8|0,0:0|0:0,0:0:0:0:
64,256,9224,2,0,P|108:254|154:244,1,85,8|0,0:0|0:0,0:0:0:0:
261,118,9577,1,8,0:0:0:0:
113,158,9753,1,0,0:0:0:0:
218,291,9930,6,0,P|230:242|219:202,1,85,8|0,0:0|0:0,0:0:0:0:
265,36,10283,2,0,P|253:85|264:125,1,85,8|0,0:0|0:0,0:0:0:0:
447,186,10636,1,8,0:0:0:0:
273,222,10812,1,0,0:0:0:0:
341,117,10989,1,8,0:0:0:0:
378,291,11165,1,0,0:0:0:0:
253,120,11342,6,0,P|257:76|265:35,1,85,8|0,0:0|0:0,0:0:0:0:
171,158,11695,2,0,P|167:114|168:73,1,85,8|0,0:0|0:0,0:0:0:0:
11,249,12047,2,0,P|8:291|-1:333,1,85,8|0,0:0|0:0,0:0:0:0:
93,211,12400,2,0,P|98:254|95:295,1,85,8|0,0:0|0:0,0:0:0:0:
183,149,12753,5,8,0:0:0:0:
31,122,12930,1,0,0:0:0:0:
171,256,13106,2,0,P|213:254|261:248,1,85,8|0,0:0|0:0,0:0:0:0:
323,65,13459,1,8,0:0:0:0:
455,219,13636,1,0,0:0:0:0:
512,105,13812,1,8,0:0:0:0:
337,191,13989,1,0,0:0:0:0:
428,51,14165,6,0,P|467:15|509:3,1,85,8|0,0:0|0:0,0:0:0:0:
405,144,14518,2,0,P|366:180|324:192,1,85,8|0,0:0|0:0,0:0:0:0:
155,50,14871,1,0,0:0:0:0:
327,110,15047,1,0,0:0:0:0:
186,229,15224,1,8,0:0:0:0:
155,50,15400,1,0,0:0:0:0:
327,110,15577,5,0,0:0:0:0:
185,136,15753,1,0,0:0:0:0:
419,18,15930,2,0,P|408:61|403:109,1,85,12|0,0:0|0:0,0:0:0:0:
430,290,16283,1,0,0:0:0:0:
471,160,16459,1,0,0:0:0:0:
268,151,16636,1,0,0:0:0:0:
265,192,16724,1,0,0:0:0:0:
274,231,16812,1,0,0:0:0:0:
301,263,16900,1,0,0:0:0:0:
337,288,16989,6,0,P|385:294|429:290,1,93.5000028533936,4|0,0:0|0:0,0:0:0:0:
268,151,17342,2,0,P|220:146|174:153,1,93.5000028533936,8|0,0:0|0:0,0:0:0:0:
353,223,17695,1,0,0:0:0:0:
322,76,17871,1,0,0:0:0:0:
222,266,18047,2,0,P|219:315|227:358,1,93.5000028533936,8|0,0:0|0:0,0:0:0:0:
92,227,18400,6,0,P|43:224|0:232,1,93.5000028533936
197,121,18753,2,0,P|200:72|192:29,1,93.5000028533936,8|0,0:0|0:0,0:0:0:0:
296,208,19107,1,0,0:0:0:0:
109,125,19283,1,0,0:0:0:0:
309,82,19460,1,8,0:0:0:0:
172,234,19636,1,0,0:0:0:0:
397,145,19812,6,0,P|395:194|390:249,1,93.5000028533936
234,372,20165,2,0,P|236:321|241:268,1,93.5000028533936,8|0,0:0|0:0,0:0:0:0:
391,238,20518,1,0,0:0:0:0:
315,330,20695,1,0,0:0:0:0:
208,157,20871,2,0,L|312:164,1,93.5000028533936,8|0,0:0|0:0,0:0:0:0:
126,230,21224,6,0,P|102:181|101:132,1,93.5000028533936
219,303,21577,1,8,0:0:0:0:
70,285,21753,1,0,0:0:0:0:
208,157,21930,2,0,P|253:152|298:164,1,93.5000028533936
418,335,22283,1,0,0:0:0:0:
400,291,22371,1,0,0:0:0:0:
406,246,22459,1,0,0:0:0:0:
434,209,22547,1,0,0:0:0:0:
477,190,22636,6,0,P|432:208|385:213,1,93.5000028533936,4|0,0:0|0:0,0:0:0:0:
207,156,22989,1,8,0:0:0:0:
337,152,23165,1,0,0:0:0:0:
227,248,23342,2,0,P|214:199|207:156,1,93.5000028533936
390,24,23695,2,0,P|403:73|409:115,1,93.5000028533936,8|0,0:0|0:0,0:0:0:0:
198,59,24047,6,0,P|247:46|290:39,1,93.5000028533936
422,222,24400,2,0,P|373:235|331:241,1,93.5000028533936,8|0,0:0|0:0,0:0:0:0:
112,156,24753,1,0,0:0:0:0:
235,279,24930,1,0,0:0:0:0:
198,59,25106,1,8,0:0:0:0:
119,269,25283,1,0,0:0:0:0:
325,180,25459,6,0,L|217:169,1,93.5000028533936,4|0,0:0|0:0,0:0:0:0:
26,260,25812,2,0,L|134:271,1,93.5000028533936,8|0,0:0|0:0,0:0:0:0:
281,97,26165,1,0,0:0:0:0:
235,279,26342,1,0,0:0:0:0:
68,180,26518,1,8,0:0:0:0:
214,158,26695,1,0,0:0:0:0:
157,345,26871,6,0,P|150:285|150:247,1,93.5000028533936
362,251,27224,6,0,P|361:298|355:345,1,93.5000028533936,8|0,0:0|0:0,0:0:0:0:
193,78,27577,1,0,0:0:0:0:
326,178,27753,1,0,0:0:0:0:
126,159,27930,1,8,0:0:0:0:
388,97,28106,1,8,0:0:0:0:
256,344,28283,5,4,0:0:0:0:
256,192,28371,12,0,31283,0:0:0:0:
