osu file format v14

[General]
AudioFilename: audio.mp3
AudioLeadIn: 0
PreviewTime: 16989
Countdown: 0
SampleSet: Soft
StackLeniency: 0.7
Mode: 0
LetterboxInBreaks: 0
WidescreenStoryboard: 0

[Editor]
Bookmarks: 26606
DistanceSpacing: 1.5
BeatDivisor: 4
GridSize: 32
TimelineZoom: 2.5

[Metadata]
Title:The Office Theme Song
TitleUnicode:The Office Theme Song
Artist:The Scrantones
ArtistUnicode:The Scrantones
Creator:-GriM-
Version:Insane (Michael)
Source:The Office (US VER.)
Tags:tv series cbs english the office
BeatmapID:1346949
BeatmapSetID:634857

[Difficulty]
HPDrainRate:6
CircleSize:4
OverallDifficulty:8
ApproachRate:9
SliderMultiplier:1.8
SliderTickRate:1

[Events]
//Background and Video events
0,0,"maxresdefault.jpg",0,0
//Break Periods
//Storyboard Layer 0 (Background)
//Storyboard Layer 1 (Fail)
//Storyboard Layer 2 (Pass)
//Storyboard Layer 3 (Foreground)
//Storyboard Sound Samples

[TimingPoints]
48,352.941176470588,4,2,1,50,1,0
400,-133.333333333333,4,2,1,50,0,0
4547,-133.333333333333,4,2,1,20,0,0
4636,-133.333333333333,4,2,1,50,0,0
4900,-133.333333333333,4,2,1,20,0,0
4989,-100,4,2,1,50,0,0
15577,-80,4,2,1,50,0,0
31283,-80,4,2,1,5,0,0

[Colours]
Combo1 : 192,192,192
Combo2 : 128,64,64
Combo3 : 253,255,255
Combo4 : 0,0,160

[HitObjects]
69,124,48,5,2,0:0:0:0:
128,224,224,1,0,0:0:0:0:
175,150,400,2,0,P|240:170|315:146,1,135.000005149842,2|0,0:0|0:0,0:0:0:0:
416,260,1106,1,0,0:0:0:0:
416,260,1283,1,0,0:0:0:0:
380,339,1459,5,2,0:0:0:0:
333,264,1636,1,0,0:0:0:0:
297,343,1812,2,0,P|232:322|156:351,1,135.000005149842,2|0,0:0|0:0,0:0:0:0:
4,274,2518,1,0,0:0:0:0:
4,274,2695,1,0,0:0:0:0:
52,200,2871,5,2,0:0:0:0:
120,254,3047,1,0,0:0:0:0:
186,196,3224,2,0,P|251:175|325:198,1,135.000005149842,2|0,0:0|0:0,0:0:0:0:
369,357,3930,1,0,0:0:0:0:
369,357,4106,1,0,0:0:0:0:
313,293,4283,6,0,P|333:245|312:188,1,112.500004291535,2|0,0:0|0:0,0:0:0:0:
276,186,4636,2,0,P|256:138|277:81,1,101.250003862381,2|0,0:0|0:0,0:0:0:0:
313,80,4989,1,2,0:0:0:0:
375,161,5165,1,0,0:0:0:0:
181,122,5342,1,2,0:0:0:0:
406,78,5518,1,0,0:0:0:0:
356,260,5695,6,0,L|229:264,1,90,2|0,0:3|0:0,0:0:0:0:
124,231,6047,2,0,L|152:316,1,90,2|0,0:3|0:0,0:0:0:0:
345,178,6400,2,0,P|297:160|205:181,1,135,8|0,0:3|0:0,0:0:0:0:
193,195,6753,1,2,0:3:0:0:
152,316,6930,1,0,0:0:0:0:
89,98,7106,5,2,0:3:0:0:
25,187,7283,1,0,0:0:0:0:
107,254,7459,2,0,B|120:220|120:220|117:159,1,90,2|0,0:3|0:0,0:0:0:0:
238,97,7812,1,8,0:3:0:0:
198,291,7989,1,0,0:0:0:0:
289,163,8165,1,0,0:0:0:0:
293,277,8342,1,0,0:0:0:0:
378,168,8518,6,0,P|394:102|359:51,1,90,2|0,0:3|0:0,0:0:0:0:
233,222,8871,1,2,0:3:0:0:
176,69,9047,1,0,0:0:0:0:
87,244,9224,2,0,L|67:145,1,90,8|0,0:3|0:0,0:0:0:0:
155,372,9577,2,0,L|175:262,1,90,2|0,0:3|0:0,0:0:0:0:
331,178,9930,5,2,0:3:0:0:
331,178,10283,1,2,0:3:0:0:
331,178,10636,1,8,0:3:0:0:
276,384,10812,1,0,0:0:0:0:
425,242,10989,1,2,0:3:0:0:
221,271,11165,1,0,0:0:0:0:
252,91,11342,5,2,0:3:0:0:
314,182,11518,1,0,0:0:0:0:
221,271,11695,2,0,B|206:222|206:222|212:182,1,90,2|0,0:3|0:0,0:0:0:0:
439,356,12047,2,0,P|393:329|285:367,1,135,8|0,0:3|0:0,0:0:0:0:
289,358,12400,1,2,0:3:0:0:
343,238,12577,1,0,0:0:0:0:
343,238,12753,6,0,L|359:118,1,90,2|0,0:3|0:0,0:0:0:0:
187,353,13106,2,0,L|304:329,1,90,2|0,0:3|0:0,0:0:0:0:
112,230,13459,5,8,0:3:0:0:
309,150,13636,1,0,0:0:0:0:
187,353,13812,1,2,0:3:0:0:
116,113,13989,1,0,0:0:0:0:
256,54,14165,6,0,L|362:34,1,90
438,145,14518,2,0,P|450:200|430:247,1,90
216,245,14871,1,8,0:3:0:0:
354,377,15047,1,0,0:0:0:0:
344,156,15224,1,2,0:3:0:0:
201,376,15400,1,0,0:0:0:0:
99,246,15577,6,0,P|84:186|110:118,1,112.5,2|0,0:0|0:0,0:0:0:0:
220,14,15930,2,0,L|200:152,1,112.5,4|0,0:0|0:0,0:0:0:0:
254,327,16283,1,2,0:3:0:0:
290,155,16459,1,0,0:0:0:0:
332,141,16547,1,0,0:0:0:0:
371,163,16636,1,10,0:0:0:0:
382,206,16724,1,0,0:0:0:0:
356,242,16812,1,10,0:0:0:0:
313,255,16900,1,0,0:0:0:0:
269,240,16989,6,0,P|198:258|149:243,1,112.5,4|0,0:0|0:0,0:0:0:0:
137,21,17342,1,8,0:0:0:0:
206,187,17518,1,0,0:0:0:0:
305,40,17695,2,0,L|324:169,1,112.5,2|0,0:3|0:0,0:0:0:0:
434,335,18047,2,0,L|417:223,1,112.5,8|0,0:0|0:0,0:0:0:0:
188,344,18400,5,2,0:3:0:0:
334,254,18577,1,0,0:0:0:0:
105,251,18753,2,0,B|160:226|160:226|260:245,1,112.5,8|0,0:0|0:0,0:0:0:0:
363,370,19106,1,2,0:3:0:0:
408,144,19283,1,0,0:0:0:0:
211,218,19459,1,8,0:0:0:0:
457,300,19636,1,0,0:0:0:0:
211,218,19812,6,0,B|159:184|159:184|187:358,1,225,2|8,0:3|0:0,0:0:0:0:
317,256,20342,1,0,0:0:0:0:
241,105,20518,2,0,B|300:86|300:86|383:118,1,112.5,2|0,0:3|0:0,0:0:0:0:
477,181,20871,1,8,0:0:0:0:
317,256,21047,1,0,0:0:0:0:
137,122,21224,6,0,P|220:97|260:118,1,112.5,2|0,0:3|0:0,0:0:0:0:
420,238,21577,2,0,P|337:263|297:242,1,112.5,10|0,0:0|0:0,0:0:0:0:
150,339,21930,1,10,0:0:0:0:
94,180,22106,1,8,0:0:0:0:
250,68,22283,1,10,0:0:0:0:
249,112,22371,1,0,0:0:0:0:
249,156,22459,1,10,0:0:0:0:
247,200,22547,1,0,0:0:0:0:
246,245,22636,6,0,P|319:253|374:236,1,112.5,12|0,0:0|0:0,0:0:0:0:
456,73,22989,2,0,P|383:65|340:96,1,112.5,8|0,0:0|0:0,0:0:0:0:
440,370,23342,2,0,B|464:337|464:337|414:148,1,225,2|8,0:3|0:0,0:0:0:0:
350,298,23871,1,0,0:0:0:0:
300,125,24047,5,2,0:3:0:0:
211,269,24224,1,0,0:0:0:0:
145,124,24400,2,0,B|100:140|100:140|37:125,1,112.5,8|0,0:0|0:0,0:0:0:0:
109,363,24753,1,2,0:3:0:0:
277,233,24930,1,0,0:0:0:0:
51,248,25106,1,8,0:0:0:0:
218,361,25283,1,0,0:0:0:0:
150,188,25459,6,0,B|136:122|136:122|163:47,1,112.5,4|0,0:0|0:0,0:0:0:0:
370,156,25812,2,0,P|277:131|216:157,1,112.5,8|0,0:0|0:0,0:0:0:0:
336,282,26165,5,2,0:3:0:0:
492,128,26342,1,0,0:0:0:0:
401,363,26518,1,8,0:0:0:0:
396,89,26695,1,0,0:0:0:0:
139,104,26871,6,0,L|276:122,1,112.5,2|0,0:3|0:0,0:0:0:0:
43,251,27224,2,0,L|177:245,1,112.5,8|0,0:0|0:0,0:0:0:0:
469,239,27577,5,8,0:0:0:0:
239,357,27753,1,8,0:0:0:0:
217,140,27930,5,10,0:0:0:0:
390,384,28106,1,10,0:0:0:0:
414,85,28283,5,0,0:0:0:0:
256,192,28371,12,0,31283,0:0:0:0:
