osu file format v14

[General]
AudioFilename: audio.mp3
AudioLeadIn: 0
PreviewTime: 16989
Countdown: 0
SampleSet: Soft
StackLeniency: 0.7
Mode: 0
LetterboxInBreaks: 0
WidescreenStoryboard: 1

[Editor]
DistanceSpacing: 1.3
BeatDivisor: 4
GridSize: 32
TimelineZoom: 2.5

[Metadata]
Title:The Office Theme Song
TitleUnicode:The Office Theme Song
Artist:The Scrantones
ArtistUnicode:The Scrantones
Creator:-GriM-
Version:Hard (Dwight)
Source:The Office (US VER.)
Tags:tv series cbs english the office
BeatmapID:1346948
BeatmapSetID:634857

[Difficulty]
HPDrainRate:5
CircleSize:3.5
OverallDifficulty:5
ApproachRate:7.5
SliderMultiplier:1.4
SliderTickRate:1

[Events]
//Background and Video events
0,0,"maxresdefault.jpg",0,0
//Break Periods
//Storyboard Layer 0 (Background)
//Storyboard Layer 1 (Fail)
//Storyboard Layer 2 (Pass)
//Storyboard Layer 3 (Foreground)
//Storyboard Sound Samples

[TimingPoints]
48,352.941176470588,4,2,1,50,1,0
400,-133.333333333333,4,2,1,50,0,0
1106,-100,4,2,1,50,0,0
1812,-133.333333333333,4,2,1,50,0,0
2518,-100,4,2,1,50,0,0
3224,-133.333333333333,4,2,1,50,0,0
3930,-100,4,2,1,50,0,0
4547,-100,4,2,1,20,0,0
4636,-100,4,2,1,50,0,0
4900,-100,4,2,1,20,0,0
4989,-100,4,2,1,50,0,0
31283,-80,4,2,1,5,0,0

[Colours]
Combo1 : 192,192,192
Combo2 : 128,64,64
Combo3 : 253,255,255
Combo4 : 0,0,160

[HitObjects]
64,96,48,5,2,0:0:0:0:
152,76,224,1,0,0:0:0:0:
172,163,400,2,0,P|180:203|159:265,1,105.000004005432,2|0,0:0|0:0,0:0:0:0:
328,333,1106,1,0,0:0:0:0:
421,291,1283,1,0,0:0:0:0:
356,227,1459,5,2,0:0:0:0:
410,153,1636,1,0,0:0:0:0:
347,83,1812,2,0,P|311:70|241:85,1,105.000004005432,2|0,0:0|0:0,0:0:0:0:
112,205,2518,1,0,0:0:0:0:
112,205,2695,1,0,0:0:0:0:
202,204,2871,5,2,0:0:0:0:
290,183,3047,1,0,0:0:0:0:
369,224,3224,2,0,P|401:185|399:127,1,105.000004005432,2|0,0:0|0:0,0:0:0:0:
326,303,3930,5,0,0:0:0:0:
297,206,4106,1,0,0:0:0:0:
221,289,4283,6,0,L|202:193,1,70,2|0,0:0|0:0,0:0:0:0:
297,206,4636,2,0,L|308:121,1,70,2|0,0:0|0:0,0:0:0:0:
211,99,4989,1,2,0:0:0:0:
138,43,5165,1,0,0:0:0:0:
97,124,5342,1,2,0:0:0:0:
211,99,5518,1,0,0:0:0:0:
165,200,5695,6,0,L|152:278,1,70,2|0,0:3|0:0,0:0:0:0:
244,361,6047,2,0,L|231:280,1,70,2|0,0:3|0:0,0:0:0:0:
272,205,6400,2,0,P|315:189|422:201,1,140,8|2,0:3|0:3,0:0:0:0:
485,243,6930,1,0,0:0:0:0:
405,287,7106,5,2,0:3:0:0:
407,195,7283,1,0,0:0:0:0:
377,109,7459,2,0,P|334:99|295:111,1,70,2|0,0:3|0:0,0:0:0:0:
252,175,7812,1,8,0:3:0:0:
232,85,7989,1,0,0:0:0:0:
142,101,8165,1,2,0:3:0:0:
159,193,8342,1,0,0:0:0:0:
159,193,8518,6,0,B|146:253|146:253|164:340,1,140,2|2,0:3|0:3,0:0:0:0:
343,352,9224,2,0,L|358:271,1,70,8|0,0:3|0:0,0:0:0:0:
294,215,9577,2,0,L|275:119,1,70,2|0,0:3|0:0,0:0:0:0:
247,56,9930,5,2,0:3:0:0:
247,56,10283,1,2,0:3:0:0:
251,265,10636,1,8,0:3:0:0:
183,184,10812,1,0,0:0:0:0:
307,183,10989,1,2,0:3:0:0:
251,265,11165,1,0,0:0:0:0:
154,355,11342,6,0,L|136:275,1,70,2|0,0:3|0:0,0:0:0:0:
194,214,11695,2,0,L|212:125,1,70,2|0,0:3|0:0,0:0:0:0:
256,68,12047,2,0,P|322:48|397:69,1,140,8|2,0:3|0:3,0:0:0:0:
332,136,12577,1,0,0:0:0:0:
332,136,12753,5,2,0:3:0:0:
358,223,12930,1,0,0:0:0:0:
256,214,13106,2,0,P|268:261|211:323,1,140,2|8,0:3|0:3,0:0:0:0:
145,258,13636,1,0,0:0:0:0:
177,173,13812,1,2,0:3:0:0:
127,96,13989,1,0,0:0:0:0:
213,46,14165,6,0,P|257:30|363:47,1,140,2|2,0:3|0:3,0:0:0:0:
301,245,14871,2,0,L|291:158,1,70,8|0,0:3|0:0,0:0:0:0:
396,277,15224,2,0,L|384:360,1,70,2|0,0:3|0:0,0:0:0:0:
205,302,15577,5,2,0:0:0:0:
205,302,15930,1,4,0:0:0:0:
128,50,16283,1,2,0:3:0:0:
128,50,16459,2,0,L|120:91,4,35,0|0|10|0|10,0:0|0:0|0:0|0:0|0:0,0:0:0:0:
196,111,16989,6,0,P|247:103|272:109,1,70,4|0,0:0|0:0,0:0:0:0:
298,191,17342,2,0,P|349:199|374:193,1,70,8|0,0:0|0:0,0:0:0:0:
426,126,17695,2,0,P|451:170|423:268,1,140,2|8,0:3|0:0,0:0:0:0:
369,317,18224,1,0,0:0:0:0:
291,269,18400,6,0,L|213:286,1,70,2|0,0:3|0:0,0:0:0:0:
157,220,18753,2,0,L|68:208,1,70,8|0,0:0|0:0,0:0:0:0:
134,132,19106,5,2,0:3:0:0:
216,93,19283,1,0,0:0:0:0:
280,156,19459,1,8,0:0:0:0:
345,92,19636,1,0,0:0:0:0:
402,162,19812,6,0,P|417:205|397:317,1,140,2|8,0:3|0:0,0:0:0:0:
227,264,20518,1,2,0:3:0:0:
292,199,20695,1,0,0:0:0:0:
320,288,20871,1,8,0:0:0:0:
222,132,21224,5,2,0:3:0:0:
222,132,21577,1,10,0:0:0:0:
54,60,21930,2,0,L|39:135,1,70,10|8,0:0|0:0,0:0:0:0:
88,205,22283,2,0,L|98:263,2,35,10|0|10,0:0|0:0|0:0,0:0:0:0:
62,315,22636,6,0,P|95:323|130:317,1,70,12|0,0:0|0:0,0:0:0:0:
218,363,22989,2,0,L|234:291,1,70,8|0,0:0|0:0,0:0:0:0:
176,223,23342,6,0,P|175:163|243:127,1,140,2|8,0:3|0:0,0:0:0:0:
285,208,23871,1,0,0:0:0:0:
285,208,24047,6,0,L|273:279,1,70,2|0,0:3|0:0,0:0:0:0:
360,304,24400,2,0,L|374:382,1,70,8|0,0:0|0:0,0:0:0:0:
454,332,24753,5,2,0:3:0:0:
446,241,24930,1,0,0:0:0:0:
376,182,25106,1,8,0:0:0:0:
285,194,25283,1,0,0:0:0:0:
221,259,25459,6,0,P|165:277|77:267,1,140,4|8,0:0|0:0,0:0:0:0:
142,106,26165,1,2,0:3:0:0:
206,170,26342,1,0,0:0:0:0:
247,89,26518,1,8,0:0:0:0:
142,106,26695,1,0,0:0:0:0:
124,195,26871,6,0,L|144:271,1,70,2|0,0:3|0:0,0:0:0:0:
206,327,27224,2,0,L|226:251,1,70,2|0,0:3|0:0,0:0:0:0:
257,153,27577,1,8,0:0:0:0:
339,191,27753,1,8,0:0:0:0:
378,108,27930,1,10,0:0:0:0:
297,70,28106,1,10,0:0:0:0:
257,153,28283,5,0,0:0:0:0:
256,192,28371,12,0,31283,0:0:0:0:
