osu file format v14

[General]
AudioFilename: audio.mp3
AudioLeadIn: 0
PreviewTime: 16988
Countdown: 0
SampleSet: Soft
StackLeniency: 0.7
Mode: 0
LetterboxInBreaks: 0
WidescreenStoryboard: 1

[Editor]
Bookmarks: 9662
DistanceSpacing: 0.9
BeatDivisor: 4
GridSize: 4
TimelineZoom: 1.7

[Metadata]
Title:The Office Theme (TV Size)
TitleUnicode:The Office Theme (TV Size)
Artist:The Scrantones
ArtistUnicode:The Scrantones
Creator:PotatoBoy123
Version:rei's Insane
Source:The Office
Tags:xenon- xehn yuuya_ke koda unappreciative harepascals piano rock instrumental
BeatmapID:2364117
BeatmapSetID:1005600

[Difficulty]
HPDrainRate:5
CircleSize:4
OverallDifficulty:8
ApproachRate:9
SliderMultiplier:1
SliderTickRate:1

[Events]
//Background and Video events
0,0,"theoffice.jpg",0,0
//Break Periods
//Storyboard Layer 0 (Background)
//Storyboard Layer 1 (Fail)
//Storyboard Layer 2 (Pass)
//Storyboard Layer 3 (Foreground)
//Storyboard Layer 4 (Overlay)
//Storyboard Sound Samples

[TimingPoints]
95,352.941176470588,4,2,3,30,1,0
1196,352.941176470588,4,2,3,30,1,0
1548,352.941176470588,4,2,3,30,1,0
2583,352.941176470588,4,2,3,30,1,0
2957,352.941176470588,4,2,3,30,1,0
5780,-66.6666666666667,4,2,2,50,0,0
14253,352.941176470588,4,2,2,50,1,0
14253,-66.6666666666667,4,2,2,50,0,0
16017,-52.6315789473684,4,2,2,50,0,0
16723,-100,4,2,2,50,0,0
17076,-58.8235294117647,4,2,2,70,0,1
18859,352.941176470588,4,2,2,70,1,1
18859,-58.8235294117647,4,2,2,70,0,1
19917,352.941176470588,4,2,2,70,1,1
19917,-58.8235294117647,4,2,2,70,0,1
20284,352.941176470588,4,2,2,70,1,1
20284,-58.8235294117647,4,2,2,70,0,1
20656,352.941176470588,4,2,2,70,1,1
20832,-58.8235294117647,4,2,2,70,0,1
21166,352.941176470588,4,2,2,70,1,1
21342,352.941176470588,4,2,2,70,1,1
21342,-58.8235294117647,4,2,2,70,0,1
22400,-100,4,2,2,70,0,1
22754,352.941176470588,4,2,2,70,1,1
22754,-58.8235294117647,4,2,2,70,0,1
25209,352.941176470588,4,2,2,70,1,1
25561,352.941176470588,4,2,2,70,1,1
25561,-58.8235294117647,4,2,2,70,0,1
28411,352.941176470588,4,2,2,70,1,0
32079,352.941176470588,4,2,2,70,1,0

[Colours]
Combo1 : 109,98,157
Combo2 : 125,134,121
Combo3 : 81,143,174
Combo4 : 192,217,189

[HitObjects]
112,228,95,6,0,P|144:236|180:252,1,50,2|2,0:0|0:0,0:0:0:0:
271,186,447,2,0,P|255:234|239:346,1,150,2|0,0:0|0:0,0:0:0:0:
354,255,1196,1,2,0:0:0:0:
354,255,1372,1,2,0:0:0:0:
376,112,1548,6,0,P|380:152|384:176,1,50,2|2,0:0|0:0,0:0:0:0:
281,81,1900,2,0,P|230:117|144:93,1,150,2|0,0:0|0:0,0:0:0:0:
71,46,2583,1,2,0:0:0:0:
74,50,2759,1,2,0:0:0:0:
56,224,2957,6,0,P|60:192|64:156,1,50,2|2,0:0|0:0,0:0:0:0:
139,285,3309,2,0,B|232:272|184:232|272:220,1,150,2|0,0:0|0:0,0:0:0:0:
331,302,4015,1,2,0:0:0:0:
331,302,4192,1,2,0:0:0:0:
428,188,4368,6,0,P|420:228|416:256,1,50,2|0,0:0|0:0,0:0:0:0:
316,117,4721,2,0,P|324:157|328:185,1,50,2|0,0:0|0:0,0:0:0:0:
184,121,5074,1,2,0:0:0:0:
255,66,5251,1,2,0:0:0:0:
208,197,5427,1,2,0:0:0:0:
129,60,5604,1,2,0:0:0:0:
296,204,5780,6,0,P|340:188|376:172,1,75.0000028610231,0|0,3:2|0:0,0:0:0:0:
296,310,6133,2,0,P|252:294|216:278,1,75.0000028610231,2|0,3:2|0:0,0:0:0:0:
132,176,6486,2,0,P|60:214|80:301,1,150.000005722046,2|0,3:2|3:2,0:0:0:0:
145,355,7015,1,0,0:0:0:0:
235,208,7192,2,0,P|227:268|223:304,1,75.0000028610231,0|0,3:0|0:0,0:0:0:0:
383,344,7545,2,0,P|375:284|371:248,1,75.0000028610231,0|0,3:0|0:0,0:0:0:0:
491,133,7898,5,2,3:2:0:0:
464,258,8074,1,2,0:0:0:0:
394,61,8251,1,2,3:2:0:0:
421,186,8427,1,2,0:0:0:0:
300,68,8604,6,0,L|216:60,1,75.0000028610231,2|0,3:2|0:0,0:0:0:0:
63,122,8956,2,0,L|137:114,1,75.0000028610231,0|0,3:2|0:0,0:0:0:0:
312,176,9309,2,0,P|271:182|235:194,1,75.0000028610231,0|0,3:2|0:0,0:0:0:0:
65,238,9662,2,0,P|102:243|137:254,1,75.0000028610231,0|0,3:2|0:0,0:0:0:0:
254,331,10015,5,2,3:2:0:0:
254,331,10368,1,2,3:2:0:0:
254,331,10721,1,2,3:2:0:0:
332,172,10897,1,2,0:0:0:0:
220,246,11074,1,2,3:2:0:0:
316,254,11250,1,2,0:0:0:0:
196,156,11427,6,0,P|156:164|120:168,1,75.0000028610231,2|0,3:2|0:0,0:0:0:0:
288,88,11780,2,0,P|328:96|364:100,1,75.0000028610231,0|0,3:2|0:0,0:0:0:0:
446,187,12133,2,0,B|350:207|414:235|306:255,1,150.000005722046,2|0,3:2|3:2,0:0:0:0:
188,197,12662,1,0,0:0:0:0:
231,344,12839,2,0,P|239:288|243:252,1,75.0000028610231,0|0,3:2|0:0,0:0:0:0:
98,191,13192,2,0,P|102:228|108:265,1,75.0000028610231,0|0,3:2|0:0,0:0:0:0:
220,98,13545,5,2,3:2:0:0:
91,85,13721,1,2,0:0:0:0:
253,184,13898,1,2,3:2:0:0:
199,29,14074,1,2,0:0:0:0:
110,211,14253,6,0,B|203:226|156:163|267:185,1,150.000005722046,2|0,3:2|3:2,0:0:0:0:
416,328,14958,1,2,3:2:0:0:
328,304,15135,1,2,0:0:0:0:
248,348,15311,2,0,P|208:364|176:364,1,75.0000028610231,2|0,3:2|0:0,0:0:0:0:
76,188,15664,6,0,L|92:284,1,75.0000028610231,2|0,3:2|0:0,0:0:0:0:
212,84,16017,2,0,L|196:284,1,189.999994926453,6|2,0:0|0:0,0:0:0:0:
316,40,16547,1,2,0:0:0:0:
408,212,16723,2,8,L|400:172,1,25,10|8,0:0|0:0,0:0:0:0:
284,144,16900,2,8,L|292:184,1,25,10|8,0:0|0:0,0:0:0:0:
328,312,17076,6,0,P|360:336|424:336,1,85.0000016212464,6|0,3:2|0:0,0:0:0:0:
478,157,17429,2,0,P|436:161|402:186,1,85.0000016212464,8|0,0:0|0:0,0:0:0:0:
236,308,17782,2,0,B|116:300|184:252|72:244,1,170.000003242493,2|8,3:2|0:0,0:0:0:0:
237,214,18311,1,0,0:0:0:0:
76,140,18488,2,0,P|124:148|160:156,1,85.0000016212464,0|0,3:2|0:0,0:0:0:0:
271,19,18859,2,0,P|223:27|187:35,1,85.0000016212464,8|0,0:0|0:0,0:0:0:0:
388,120,19211,5,2,3:2:0:0:
260,166,19388,1,2,3:2:0:0:
461,173,19564,1,10,0:0:0:0:
313,72,19741,1,2,0:0:0:0:
414,256,19917,6,0,P|467:248|507:240,1,85.0000016212464,2|0,3:2|0:0,0:0:0:0:
350,357,20284,2,0,P|318:321|194:329,1,170.000003242493,8|0,0:0|3:2,0:0:0:0:
59,344,20832,1,0,3:2:0:0:
114,185,21008,2,0,B|123:238|127:294,1,85.0000016212464,8|0,0:0|0:0,0:0:0:0:
229,128,21342,6,0,P|273:100|325:100,1,85.0000016212464,2|0,3:2|0:0,0:0:0:0:
196,294,21694,2,0,P|154:287|120:262,1,85.0000016212464,10|0,0:0|0:0,0:0:0:0:
333,199,22047,1,2,3:2:0:0:
229,361,22224,1,2,3:2:0:0:
241,177,22400,2,0,L|249:209,1,25,10|8,0:0|0:0,0:0:0:0:
312,320,22577,2,0,L|320:289,1,25,10|8,0:0|0:0,0:0:0:0:
304,96,22754,6,0,P|272:72|216:72,1,85.0000016212464,6|0,3:2|0:0,0:0:0:0:
168,264,23106,2,0,P|206:251|238:205,1,85.0000016212464,8|0,0:0|0:0,0:0:0:0:
64,144,23459,2,0,P|56:228|48:328,1,170.000003242493,2|8,3:2|0:0,0:0:0:0:
163,143,23989,1,0,0:0:0:0:
240,256,24165,2,0,L|328:268,1,85.0000016212464,0|0,3:2|0:0,0:0:0:0:
376,144,24518,2,0,L|291:155,1,85.0000016212464,8|0,0:0|0:0,0:0:0:0:
174,306,24871,1,2,3:2:0:0:
324,267,25048,1,2,3:2:0:0:
179,171,25209,1,10,0:0:0:0:
248,343,25385,1,2,0:0:0:0:
291,155,25561,6,0,B|403:159|339:207|455:223,1,170.000003242493,6|8,3:2|0:0,0:0:0:0:
459,59,26090,1,0,0:0:0:0:
459,59,26266,2,0,P|451:115|447:147,1,85.0000016212464,2|2,3:2|3:2,0:0:0:0:
309,84,26619,2,0,P|301:28|297:-4,1,85.0000016212464,10|2,0:0|0:0,0:0:0:0:
259,170,26972,6,0,P|215:194|167:190,1,85.0000016212464,2|0,3:2|0:0,0:0:0:0:
113,28,27325,2,0,P|155:30|190:52,1,85.0000016212464,10|0,0:0|0:0,0:0:0:0:
87,228,27678,1,2,3:2:0:0:
46,94,27855,1,2,3:2:0:0:
78,327,28031,5,10,0:0:0:0:
135,126,28208,1,10,0:0:0:0:
222,365,28411,5,6,0:0:0:0:
256,192,28499,12,0,31322,0:0:0:0:
