osu file format v14

[General]
AudioFilename: audio.mp3
AudioLeadIn: 0
PreviewTime: 38
Countdown: 0
SampleSet: Soft
StackLeniency: 0.7
Mode: 0
LetterboxInBreaks: 0
WidescreenStoryboard: 0

[Editor]
DistanceSpacing: 1
BeatDivisor: 4
GridSize: 8
TimelineZoom: 1

[Metadata]
Title:The Office Theme (TV Size)
TitleUnicode:The Office Theme (TV Size)
Artist:The Scrantones
ArtistUnicode:The Scrantones
Creator:IsomirDiAngelo
Version:That's What She Said
Source:The Office
Tags:pop rock instrumental jay ferguson nbc thats tv show opening american usa comedy dunder mifflin paper jim halpert pam beesley michael scott dwight kurt schrute bears beets battlestar galactica
BeatmapID:2983686
BeatmapSetID:1451284

[Difficulty]
HPDrainRate:6
CircleSize:4.3
OverallDifficulty:8.5
ApproachRate:9
SliderMultiplier:1.7
SliderTickRate:1

[Events]
//Background and Video events
0,0,"wp4013883.jpg",0,0
Video,-381,"intro.mp4"
//Break Periods
//Storyboard Layer 0 (Background)
//Storyboard Layer 1 (Fail)
//Storyboard Layer 2 (Pass)
//Storyboard Layer 3 (Foreground)
//Storyboard Layer 4 (Overlay)
//Storyboard Sound Samples

[TimingPoints]
38,359.281437125748,4,2,1,40,1,0
38,-125,4,2,1,40,0,0
1475,348.837209302325,4,2,1,40,1,0
1475,-125,4,2,1,40,0,0
2870,355.029585798816,4,2,1,40,1,0
4290,352.941176470588,4,2,1,40,1,0
5690,352.941176470588,4,2,1,70,1,0
6307,-100,4,2,1,5,0,0
6396,-100,4,2,1,70,0,0
11957,-100,4,2,1,5,0,0
12046,-100,4,2,1,70,0,0
16284,348.837209302326,4,2,1,70,1,0
16981,-100,4,2,1,80,0,1
17330,-83.3333333333333,4,2,1,80,0,1
17591,-83.3333333333333,4,2,1,5,0,1
17679,353.982300884956,4,2,1,80,1,1
18740,-83.3333333333333,4,2,1,80,0,1
19005,-83.3333333333333,4,2,1,5,0,1
19094,-83.3333333333333,4,2,1,80,0,1
19802,359.281437125748,4,2,1,80,1,1
19802,-83.3333333333333,4,2,1,80,0,1
21218,353.982300884956,4,2,1,80,1,1
21218,-83.3333333333333,4,2,1,80,0,1
23253,-100,4,3,1,5,0,1
23341,-100,4,3,1,80,0,1
24403,-83.3333333333333,4,3,1,80,0,1
24668,-83.3333333333333,4,3,1,5,0,1
24757,-83.3333333333333,4,3,1,80,0,1
28297,-83.3333333333333,4,3,1,80,0,0
28474,-83.3333333333333,4,3,1,40,0,0

[Colours]
Combo1 : 130,115,157
Combo2 : 209,209,209
Combo3 : 149,149,149
Combo4 : 255,176,98

[HitObjects]
356,141,38,6,0,P|386:133|451:130,1,68,2|0,2:0|2:0,2:0:0:0:
481,64,397,1,2,2:0:0:0:
356,141,1115,6,0,P|386:133|451:130,1,68,2|0,2:0|2:0,2:0:0:0:
481,64,1475,1,2,2:0:0:0:
481,64,1649,1,0,2:0:0:0:
420,4,1823,1,2,2:0:0:0:
356,141,2521,6,0,P|386:133|451:130,1,68,2|0,2:0|2:0,2:0:0:0:
481,64,2870,1,2,2:0:0:0:
484,214,3047,1,0,2:0:0:0:
356,141,3225,1,2,2:0:0:0:
356,141,3935,5,2,2:0:0:0:
484,214,4112,1,0,2:0:0:0:
481,64,4290,1,2,2:0:0:0:
481,64,4642,1,2,2:0:0:0:
481,64,4995,1,2,2:0:0:0:
417,102,5172,5,2,2:0:0:0:
486,137,5348,1,2,2:0:0:0:
423,177,5525,1,2,2:0:0:0:
288,287,5690,6,0,P|246:290|179:300,1,85,0|0,3:2|2:0,2:0:0:0:
290,114,6042,2,0,P|358:110|426:100,1,127.5,2|0,3:2|2:0,2:0:0:0:
448,32,6395,5,2,3:2:0:0:
428,24,6572,1,0,2:0:0:0:
344,61,6748,5,0,3:2:0:0:
360,156,6925,1,0,2:0:0:0:
290,114,7101,5,0,3:2:0:0:
416,101,7278,1,0,2:0:0:0:
367,239,7454,2,0,P|318:226|272:229,1,85,0|0,3:2|2:0,2:0:0:0:
182,286,7807,5,2,3:2:0:0:
209,154,7984,1,2,2:0:0:0:
96,97,8160,1,2,3:2:0:0:
2,183,8337,1,2,2:0:0:0:
64,296,8513,1,2,3:2:0:0:
123,242,8690,5,0,2:0:0:0:
52,212,8866,2,0,P|61:175|67:111,1,85,0|0,3:0|2:0,2:0:0:0:
209,154,9219,2,0,P|200:117|194:53,1,85,0|0,3:0|2:0,2:0:0:0:
348,214,9572,1,0,3:0:0:0:
419,172,9748,1,0,2:0:0:0:
496,209,9925,5,2,3:2:0:0:
199,331,10278,1,2,3:2:0:0:
256,15,10631,1,2,3:2:0:0:
358,118,10807,1,2,2:0:0:0:
215,94,10984,1,2,3:2:0:0:
341,34,11160,1,2,2:0:0:0:
276,162,11337,1,2,3:2:0:0:
352,203,11513,5,0,2:0:0:0:
225,243,11690,2,0,P|147:230|72:226,1,127.5,2|0,3:2|2:0,2:0:0:0:
35,172,12042,5,2,3:2:0:0:
40,157,12219,1,0,2:0:0:0:
90,61,12395,5,0,3:0:0:0:
127,150,12572,1,0,2:0:0:0:
209,14,12748,5,0,3:0:0:0:
202,144,12925,1,0,2:0:0:0:
209,14,13101,2,0,P|250:24|323:35,1,85,0|0,3:0|2:0,2:0:0:0:
373,3,13454,1,2,3:2:0:0:
490,72,13631,5,2,2:0:0:0:
349,84,13807,1,2,3:2:0:0:
355,219,13984,1,2,2:0:0:0:
493,203,14160,1,2,3:2:0:0:
417,163,14337,5,0,2:0:0:0:
433,268,14513,2,0,P|425:309|424:365,1,85,0|0,3:0|2:0,2:0:0:0:
210,380,14866,5,2,3:2:0:0:
309,346,15042,1,2,2:0:0:0:
144,251,15219,1,2,3:2:0:0:
337,186,15395,1,2,3:2:0:0:
337,186,15484,1,0,3:0:0:0:
337,186,15572,1,2,3:2:0:0:
0,100,15925,1,4,3:2:0:0:
509,0,16278,5,2,2:0:0:0:
508,84,16458,1,2,3:2:0:0:
446,144,16632,1,8,2:0:0:0:
401,166,16720,1,8,2:0:0:0:
349,161,16807,1,8,2:0:0:0:
308,130,16894,1,8,2:0:0:0:
287,84,16981,1,4,3:2:0:0:
363,31,17156,5,0,3:0:0:0:
476,162,17330,2,0,P|469:223|458:327,1,152.999995330811,10|0,3:2|3:0,3:0:0:0:
359,365,17679,5,0,3:0:0:0:
387,293,17855,1,0,3:0:0:0:
216,227,18032,5,8,3:2:0:0:
304,308,18209,1,0,3:0:0:0:
371,171,18386,1,0,3:0:0:0:
265,94,18563,1,0,3:0:0:0:
168,289,18740,6,0,P|97:269|78:198,1,152.999995330811,8|0,3:2|3:0,3:0:0:0:
27,131,19094,5,2,3:2:0:0:
208,175,19271,1,2,3:2:0:0:
265,94,19448,1,10,3:2:0:0:
457,54,19625,1,2,3:2:0:0:
483,189,19802,5,2,3:2:0:0:
406,156,19981,1,0,3:0:0:0:
321,339,20161,2,0,P|324:293|332:224,1,101.999996887207,8|0,3:2|3:0,3:0:0:0:
70,34,20520,1,0,3:0:0:0:
83,120,20700,1,0,3:0:0:0:
168,93,20879,1,8,3:2:0:0:
158,2,21059,1,0,3:0:0:0:
100,246,21218,6,0,P|41:239|-8:228,1,101.999996887207,2|0,3:2|3:0,3:0:0:0:
407,74,21571,2,0,P|466:67|515:56,1,101.999996887207,10|0,3:2|3:0,3:0:0:0:
346,324,21925,1,2,3:2:0:0:
186,38,22102,1,2,3:2:0:0:
300,183,22279,5,10,3:2:0:0:
278,229,22368,1,8,3:2:0:0:
227,223,22456,1,8,3:2:0:0:
213,173,22545,1,8,3:2:0:0:
259,151,22633,1,4,3:2:0:0:
373,236,22810,5,0,3:0:0:0:
158,359,22987,2,0,P|62:346|-40:336,1,152.999995330811,10|0,3:2|3:0,3:0:0:0:
17,255,23341,5,2,3:2:0:0:
78,311,23518,1,0,3:0:0:0:
219,139,23695,5,8,3:2:0:0:
78,311,23872,1,0,3:0:0:0:
88,82,24049,1,0,3:0:0:0:
207,284,24226,1,0,3:0:0:0:
0,185,24403,2,0,P|65:196|201:209,1,152.999995330811,8|0,3:2|3:0,3:0:0:0:
219,139,24757,5,2,3:2:0:0:
281,347,24934,1,2,3:2:0:0:
479,264,25111,1,10,3:2:0:0:
420,57,25288,1,2,3:2:0:0:
333,95,25465,1,6,3:2:0:0:
401,149,25642,1,0,3:0:0:0:
219,139,25819,6,0,P|224:96|226:27,1,101.999996887207,8|0,3:2|3:0,3:0:0:0:
59,347,26173,5,2,3:2:0:0:
1,159,26350,1,2,3:2:0:0:
222,335,26527,5,10,3:2:0:0:
248,72,26704,1,2,3:2:0:0:
445,312,26881,6,0,P|393:315|318:342,1,101.999996887207,2|0,3:2|3:0,3:0:0:0:
29,79,27235,2,0,P|81:82|156:109,1,101.999996887207,10|0,3:2|3:0,3:0:0:0:
221,245,27589,5,2,3:2:0:0:
286,137,27766,1,2,3:2:0:0:
211,24,27943,5,10,3:2:0:0:
297,380,28120,1,10,3:2:0:0:
211,24,28297,1,6,3:2:0:0:
256,192,28386,12,2,31306,2:0:0:0:
