osu file format v14

[General]
AudioFilename: audio.mp3
AudioLeadIn: 0
PreviewTime: 38
Countdown: 0
SampleSet: Soft
StackLeniency: 0.7
Mode: 0
LetterboxInBreaks: 0
WidescreenStoryboard: 1

[Editor]
DistanceSpacing: 1
BeatDivisor: 4
GridSize: 8
TimelineZoom: 1

[Metadata]
Title:The Office Theme (TV Size)
TitleUnicode:The Office Theme (TV Size)
Artist:The Scrantones
ArtistUnicode:The Scrantones
Creator:IsomirDiAngelo
Version:Normal
Source:The Office
Tags:pop rock instrumental jay ferguson nbc thats tv show opening american usa comedy dunder mifflin paper jim halpert pam beesley michael scott dwight kurt schrute bears beets battlestar galactica
BeatmapID:2983685
BeatmapSetID:1451284

[Difficulty]
HPDrainRate:3.5
CircleSize:4
OverallDifficulty:5
ApproachRate:6
SliderMultiplier:1
SliderTickRate:1

[Events]
//Background and Video events
0,0,"wp4013883.jpg",0,0
Video,-381,"intro.mp4"
//Break Periods
//Storyboard Layer 0 (Background)
//Storyboard Layer 1 (Fail)
//Storyboard Layer 2 (Pass)
//Storyboard Layer 3 (Foreground)
//Storyboard Layer 4 (Overlay)
//Storyboard Sound Samples

[TimingPoints]
38,359.281437125748,4,2,1,40,1,0
38,-125,4,2,1,40,0,0
1475,348.837209302325,4,2,1,40,1,0
1475,-125,4,2,1,40,0,0
2870,355.029585798816,4,2,1,40,1,0
2870,-125,4,2,1,40,0,0
4290,352.941176470588,4,2,1,40,1,0
4290,-125,4,2,1,40,0,0
5690,352.941176470588,4,2,1,70,1,0
5690,-100,4,2,1,70,0,0
16284,348.837209302326,4,2,1,70,1,0
16981,-100,4,3,1,80,0,1
17679,353.982300884956,4,3,1,80,1,1
19802,359.281437125748,4,3,1,80,1,1
21218,353.982300884956,4,3,1,80,1,1
28297,-100,4,3,1,80,0,0
28474,-100,4,2,1,40,0,0

[Colours]
Combo1 : 130,115,157
Combo2 : 209,209,209
Combo3 : 149,149,149
Combo4 : 255,176,98

[HitObjects]
356,141,38,6,0,P|394:130|449:126,1,80,2|2,0:0|0:0,0:0:0:0:
286,99,1115,5,2,0:0:0:0:
356,141,1475,2,0,P|394:130|449:126,1,80,2|2,0:0|0:0,0:0:0:0:
286,99,2521,5,2,0:0:0:0:
356,141,2870,2,0,P|394:130|449:126,1,80,2|2,0:0|0:0,0:0:0:0:
286,99,3935,5,2,0:0:0:0:
356,141,4290,1,2,0:0:0:0:
343,219,4642,1,2,0:0:0:0:
265,238,4995,2,0,P|226:222|181:214,1,80,2|2,0:0|0:0,0:0:0:0:
156,237,5525,5,2,0:0:0:0:
156,237,5690,1,0,3:2:0:0:
114,327,6042,1,2,3:2:0:0:
27,274,6395,2,0,P|40:213|39:154,1,100,2|0,3:2|3:2,0:0:0:0:
133,136,7101,2,0,P|120:75|121:16,1,100,0|0,3:2|3:2,0:0:0:0:
217,21,7807,2,0,P|230:69|234:118,1,100,2|2,3:2|3:2,0:0:0:0:
280,148,8337,5,2,0:2:0:0:
280,148,8513,2,0,P|328:134|398:130,2,100,2|0|0,3:2|3:0|3:0,0:0:0:0:
271,247,9572,1,0,3:0:0:0:
353,300,9925,5,2,3:2:0:0:
290,378,10278,1,2,3:2:0:0:
196,341,10631,2,0,P|160:336|131:326,1,50,2|2,3:2|0:2,0:0:0:0:
112,295,10984,2,0,P|76:300|47:310,1,50,2|2,3:2|0:2,0:0:0:0:
32,264,11337,5,2,3:2:0:0:
63,168,11690,1,2,3:2:0:0:
158,196,12042,2,0,P|209:206|274:205,1,100,2|0,3:2|3:0,0:0:0:0:
298,115,12748,2,0,P|349:105|414:106,1,100,0|0,3:0|3:0,0:0:0:0:
448,189,13454,6,0,P|458:242|476:298,1,100,2|2,3:2|3:2,0:0:0:0:
445,329,13984,1,2,0:2:0:0:
445,329,14160,2,0,P|388:318|328:316,1,100,2|0,3:2|3:0,0:0:0:0:
259,366,14866,6,0,P|260:335|263:313,1,50,2|2,3:2|0:2,0:0:0:0:
221,288,15219,2,0,P|218:253|210:225,1,50,2|2,3:2|3:2,0:0:0:0:
242,197,15572,1,2,3:2:0:0:
154,149,15925,1,4,3:2:0:0:
63,190,16284,2,0,P|69:222|75:256,1,50,2|2,0:0|3:2,0:0:0:0:
43,280,16632,5,8,0:0:0:0:
31,328,16807,1,8,0:0:0:0:
59,368,16981,2,0,P|109:352|168:339,1,100,4|10,0:2|0:2,0:0:0:0:
251,370,17679,2,0,P|242:341|235:308,1,50
270,286,18032,2,0,P|323:298|373:320,1,100,8|0,0:2|0:0,0:0:0:0:
408,291,18563,1,0,0:0:0:0:
408,291,18740,1,8,0:2:0:0:
475,217,19094,6,0,P|477:188|479:149,1,50,2|2,0:2|0:2,0:0:0:0:
434,143,19448,2,0,P|431:114|430:75,1,50,10|2,0:2|0:2,0:0:0:0:
401,51,19802,2,0,P|456:32|512:31,2,100,2|8|0,0:2|0:2|0:0,0:0:0:0:
363,25,20700,1,0,0:0:0:0:
363,25,20879,1,8,0:2:0:0:
274,72,21218,5,2,0:2:0:0:
174,58,21571,1,10,0:2:0:0:
75,42,21925,2,0,P|74:73|65:104,1,50,2|2,0:2|0:2,0:0:0:0:
22,107,22279,5,10,0:2:0:0:
1,149,22456,1,8,0:2:0:0:
26,192,22633,2,0,P|27:253|44:305,1,100,4|10,0:2|0:2,0:0:0:0:
131,324,23341,2,0,P|159:317|197:313,1,50,2|0,0:2|0:0,0:0:0:0:
223,338,23695,2,0,P|224:277|241:225,1,100,8|0,0:2|0:0,0:0:0:0:
200,202,24226,1,0,0:0:0:0:
200,202,24403,1,8,0:2:0:0:
240,110,24757,6,0,P|276:103|305:103,1,50,2|2,0:2|0:2,0:0:0:0:
321,63,25111,2,0,P|357:70|386:70,1,50,10|2,0:2|0:2,0:0:0:0:
403,107,25465,2,0,P|459:94|520:90,1,100,6|8,0:2|0:2,0:0:0:0:
485,189,26173,2,0,L|483:240,1,50,2|2,0:2|0:2,0:0:0:0:
445,271,26527,2,0,L|453:332,1,50,10|2,0:2|0:2,0:0:0:0:
426,363,26881,5,2,0:2:0:0:
326,375,27235,1,10,0:2:0:0:
273,289,27589,2,0,P|280:255|285:217,1,50,2|2,0:2|0:2,0:0:0:0:
265,192,27943,5,10,0:2:0:0:
222,166,28120,1,10,0:2:0:0:
172,173,28297,1,6,0:2:0:0:
256,192,28474,12,2,31306,0:0:0:0:
