osu file format v14

[General]
AudioFilename: audio.mp3
AudioLeadIn: 0
PreviewTime: 38
Countdown: 0
SampleSet: Drum
StackLeniency: 0.7
Mode: 0
LetterboxInBreaks: 0
WidescreenStoryboard: 1

[Editor]
DistanceSpacing: 1
BeatDivisor: 4
GridSize: 8
TimelineZoom: 1

[Metadata]
Title:The Office Theme (TV Size)
TitleUnicode:The Office Theme (TV Size)
Artist:The Scrantones
ArtistUnicode:The Scrantones
Creator:IsomirDiAngelo
Version:Insane
Source:The Office
Tags:pop rock instrumental jay ferguson nbc thats tv show opening american usa comedy dunder mifflin paper jim halpert pam beesley michael scott dwight kurt schrute bears beets battlestar galactica
BeatmapID:2983684
BeatmapSetID:1451284

[Difficulty]
HPDrainRate:5
CircleSize:4
OverallDifficulty:8
ApproachRate:8.5
SliderMultiplier:1.5
SliderTickRate:1

[Events]
//Background and Video events
0,0,"wp4013883.jpg",0,0
Video,-381,"intro.mp4"
//Break Periods
//Storyboard Layer 0 (Background)
//Storyboard Layer 1 (Fail)
//Storyboard Layer 2 (Pass)
//Storyboard Layer 3 (Foreground)
//Storyboard Layer 4 (Overlay)
//Storyboard Sound Samples

[TimingPoints]
38,359.281437125748,4,2,1,40,1,0
38,-125,4,2,1,40,0,0
1475,348.837209302325,4,2,1,40,1,0
1475,-125,4,2,1,40,0,0
2870,355.029585798816,4,2,1,40,1,0
2870,-125,4,2,1,40,0,0
4290,352.941176470588,4,2,1,40,1,0
4290,-125,4,2,1,40,0,0
5690,352.941176470588,4,2,1,70,1,0
5690,-100,4,2,1,70,0,0
6308,-100,4,2,1,5,0,0
6396,-100,4,2,1,70,0,0
11958,-100,4,2,1,5,0,0
12046,-100,4,2,1,70,0,0
16284,348.837209302326,4,2,1,70,1,0
16981,-83.3333333333333,4,3,1,80,0,1
17592,-83.3333333333333,4,3,1,5,0,1
17679,353.982300884956,4,3,1,5,1,1
17679,-83.3333333333333,4,3,1,80,0,1
19802,359.281437125748,4,3,1,80,1,1
19802,-83.3333333333333,4,3,1,80,0,1
21218,353.982300884956,4,3,1,80,1,1
21218,-83.3333333333333,4,3,1,80,0,1
23253,-83.3333333333333,4,3,1,5,0,1
23341,-83.3333333333333,4,3,1,80,0,1
24669,-83.3333333333333,4,3,1,5,0,1
24757,-83.3333333333333,4,3,1,80,0,1
28297,-83.3333333333333,4,3,1,80,0,0
28474,-83.3333333333333,4,2,1,40,0,0

[Colours]
Combo1 : 130,115,157
Combo2 : 209,209,209
Combo3 : 149,149,149
Combo4 : 255,176,98

[HitObjects]
356,141,38,6,0,P|386:133|428:130,2,60,2|0|2,0:0|0:0|0:0,0:0:0:0:
293,80,1115,6,0,P|263:72|221:69,1,60,2|0,0:0|0:0,0:0:0:0:
356,141,1475,2,0,P|386:133|428:130,2,60,2|0|2,0:0|0:0|0:0,0:0:0:0:
293,80,2521,5,2,0:0:0:0:
293,80,2695,1,0,0:0:0:0:
356,141,2870,2,0,P|386:133|428:130,2,60,2|0|2,0:0|0:0|0:0,0:0:0:0:
293,80,3935,5,2,0:0:0:0:
264,161,4112,1,0,0:0:0:0:
212,100,4290,1,2,0:0:0:0:
212,100,4642,1,2,0:0:0:0:
212,100,4995,2,0,P|178:95|147:85,1,60,2|2,0:0|0:0,0:0:0:0:
83,123,5348,2,0,P|49:127|18:138,1,60,2|2,0:0|0:0,0:0:0:0:
197,173,5690,6,0,P|207:134|212:99,1,75,0|0,3:2|0:2,0:0:0:0:
351,126,6042,2,0,P|336:74|322:-1,1,112.5,2|0,3:2|0:0,0:0:0:0:
325,16,6395,2,0,B|391:-1|410:80|474:62,1,150,2|0,3:2|3:2,0:0:0:0:
512,130,6925,1,0,0:0:0:0:
486,249,7101,5,0,3:2:0:0:
405,263,7278,1,0,0:2:0:0:
341,200,7454,2,0,P|348:155|351:103,1,75,0|0,3:2|0:0,0:0:0:0:
251,271,7807,5,2,3:2:0:0:
200,184,7984,1,2,0:2:0:0:
82,246,8160,1,2,3:2:0:0:
112,134,8337,1,2,0:2:0:0:
0,77,8513,2,0,P|6:117|12:159,1,75,2|0,3:2|0:0,0:0:0:0:
83,29,8866,2,0,P|146:9|249:11,2,150,0|0|0,3:0|3:0|3:0,0:0:0:0:
233,92,9748,5,0,0:0:0:0:
305,44,9925,1,2,3:2:0:0:
448,187,10278,1,2,3:2:0:0:
316,330,10631,1,2,3:2:0:0:
223,321,10807,1,2,0:2:0:0:
201,229,10984,1,2,3:2:0:0:
289,184,11160,1,2,0:2:0:0:
364,256,11337,2,0,P|361:303|356:361,1,75,2|0,3:2|0:0,0:0:0:0:
482,247,11690,6,0,P|466:171|458:106,1,112.5,2|0,3:2|0:0,0:0:0:0:
461,136,12042,2,0,B|390:149|394:82|297:92,1,150,2|0,3:2|3:0,0:0:0:0:
281,15,12572,1,0,0:0:0:0:
147,58,12748,5,0,3:0:0:0:
101,133,12925,1,0,0:0:0:0:
148,212,13101,2,0,P|182:200|240:189,1,75,0|0,3:0|0:0,0:0:0:0:
54,209,13454,5,2,3:2:0:0:
178,309,13631,1,2,0:2:0:0:
19,300,13807,1,2,3:2:0:0:
148,212,13984,1,2,0:2:0:0:
95,362,14160,2,0,P|101:322|98:272,1,75,2|0,3:2|0:0,0:0:0:0:
244,240,14513,2,0,P|236:197|241:150,1,75,0|0,3:0|0:0,0:0:0:0:
423,335,14866,5,2,3:2:0:0:
508,242,15042,1,2,0:2:0:0:
423,145,15219,1,2,3:2:0:0:
332,241,15395,1,2,3:2:0:0:
332,241,15484,1,0,3:0:0:0:
332,241,15572,1,2,3:2:0:0:
53,164,15925,1,4,3:2:0:0:
373,15,16284,2,0,P|368:55|363:97,1,75,2|2,0:0|3:2,0:0:0:0:
293,137,16632,5,8,0:0:0:0:
257,148,16720,1,8,0:0:0:0:
221,135,16807,1,8,0:0:0:0:
206,100,16894,1,8,0:0:0:0:
216,68,16981,1,4,0:2:0:0:
138,31,17156,1,0,0:0:0:0:
42,127,17330,6,0,P|38:206|33:277,1,134.999995880127,10|0,0:2|0:0,0:0:0:0:
34,261,17679,2,0,P|79:252|141:248,1,89.999997253418
294,345,18032,1,8,0:2:0:0:
210,323,18209,1,0,0:0:0:0:
297,251,18386,5,0,0:0:0:0:
419,212,18563,1,0,0:0:0:0:
410,351,18740,2,0,P|359:335|301:325,1,89.999997253418,8|0,0:2|0:0,0:0:0:0:
148,152,19094,5,2,0:2:0:0:
263,102,19271,1,2,0:2:0:0:
349,153,19448,5,10,0:2:0:0:
462,108,19625,1,2,0:2:0:0:
435,28,19802,6,0,P|428:74|422:135,1,89.999997253418,2|0,0:2|0:0,0:0:0:0:
263,250,20161,2,0,P|305:181|241:92,1,179.999994506836,8|0,0:2|0:0,0:0:0:0:
252,16,20700,1,0,0:0:0:0:
145,116,20879,5,8,0:2:0:0:
96,43,21059,1,0,0:0:0:0:
50,209,21218,5,2,0:2:0:0:
354,11,21571,1,10,0:2:0:0:
420,384,21925,1,2,0:2:0:0:
243,340,22102,1,2,0:2:0:0:
461,302,22279,5,10,0:2:0:0:
485,266,22368,1,8,0:2:0:0:
488,226,22456,1,8,0:2:0:0:
471,190,22545,1,8,0:2:0:0:
435,169,22633,1,4,0:2:0:0:
362,208,22810,1,0,0:0:0:0:
247,151,22987,6,0,P|250:73|252:5,1,134.999995880127,10|0,0:2|0:0,0:0:0:0:
251,16,23341,2,0,B|297:6|297:6|345:32,1,89.999997253418,2|0,0:2|0:0,0:0:0:0:
247,151,23695,2,0,B|201:140|201:140|153:166,1,89.999997253418,8|0,0:2|0:0,0:0:0:0:
1,49,24049,5,0,0:0:0:0:
121,85,24226,1,0,0:0:0:0:
22,181,24403,2,0,P|18:253|8:328,1,134.999995880127,8|0,0:2|0:0,0:0:0:0:
75,378,24757,5,2,0:2:0:0:
205,334,24934,1,2,0:2:0:0:
45,256,25111,1,10,0:2:0:0:
221,194,25288,1,2,0:2:0:0:
413,295,25465,6,0,P|407:347|403:403,1,89.999997253418,6|0,0:2|0:0,0:0:0:0:
484,227,25819,2,0,P|476:189|469:129,1,89.999997253418,8|0,0:2|0:0,0:0:0:0:
190,142,26173,5,2,0:2:0:0:
397,179,26350,1,2,0:2:0:0:
244,24,26527,1,10,0:2:0:0:
279,239,26704,1,2,0:2:0:0:
379,39,26881,1,2,0:2:0:0:
39,219,27235,1,10,0:2:0:0:
393,384,27589,5,2,0:2:0:0:
351,266,27766,1,2,0:2:0:0:
266,355,27943,5,10,0:2:0:0:
494,229,28120,1,10,0:2:0:0:
267,121,28297,1,6,0:2:0:0:
256,192,28474,12,2,31306,0:0:0:0:
