osu file format v14

[General]
AudioFilename: audio.mp3
AudioLeadIn: 0
PreviewTime: 38
Countdown: 0
SampleSet: Drum
StackLeniency: 0.7
Mode: 0
LetterboxInBreaks: 0
WidescreenStoryboard: 1

[Editor]
DistanceSpacing: 1
BeatDivisor: 4
GridSize: 8
TimelineZoom: 1

[Metadata]
Title:The Office Theme (TV Size)
TitleUnicode:The Office Theme (TV Size)
Artist:The Scrantones
ArtistUnicode:The Scrantones
Creator:IsomirDiAngelo
Version:Hard
Source:The Office
Tags:pop rock instrumental jay ferguson nbc thats tv show opening american usa comedy dunder mifflin paper jim halpert pam beesley michael scott dwight kurt schrute bears beets battlestar galactica
BeatmapID:2983683
BeatmapSetID:1451284

[Difficulty]
HPDrainRate:4
CircleSize:4
OverallDifficulty:6.5
ApproachRate:7.5
SliderMultiplier:1.3
SliderTickRate:1

[Events]
//Background and Video events
0,0,"wp4013883.jpg",0,0
Video,-381,"intro.mp4"
//Break Periods
//Storyboard Layer 0 (Background)
//Storyboard Layer 1 (Fail)
//Storyboard Layer 2 (Pass)
//Storyboard Layer 3 (Foreground)
//Storyboard Layer 4 (Overlay)
//Storyboard Sound Samples

[TimingPoints]
38,359.281437125748,4,2,1,40,1,0
38,-125,4,2,1,40,0,0
1475,348.837209302325,4,2,1,40,1,0
1475,-125,4,2,1,40,0,0
2870,355.029585798816,4,2,1,40,1,0
2870,-125,4,2,1,40,0,0
4290,352.941176470588,4,2,1,40,1,0
4290,-125,4,2,1,40,0,0
5690,352.941176470588,4,2,1,70,1,0
5690,-100,4,2,1,70,0,0
6308,-100,4,2,1,5,0,0
6396,-100,4,2,1,70,0,0
11958,-100,4,2,1,5,0,0
12046,-100,4,2,1,70,0,0
16284,348.837209302326,4,2,1,70,1,0
16981,-90.9090909090909,4,3,1,80,0,1
17679,353.982300884956,4,3,1,80,1,1
17679,-90.9090909090909,4,3,1,80,0,1
19802,359.281437125748,4,3,1,80,1,1
19802,-90.9090909090909,4,3,1,80,0,1
21218,353.982300884956,4,3,1,80,1,1
21218,-90.9090909090909,4,3,1,80,0,1
28297,-90.9090909090909,4,3,1,80,0,0
28474,-90.9090909090909,4,2,1,40,0,0

[Colours]
Combo1 : 130,115,157
Combo2 : 209,209,209
Combo3 : 149,149,149
Combo4 : 255,176,98

[HitObjects]
356,141,38,6,0,P|399:129|460:125,1,104,2|2,0:0|0:0,0:0:0:0:
250,74,1115,6,0,P|275:77|300:85,1,52,2|0,0:0|0:0,0:0:0:0:
356,141,1475,2,0,P|399:129|460:125,1,104,2|2,0:0|0:0,0:0:0:0:
298,86,2521,6,0,P|271:77|243:74,1,52,2|0,0:0|0:0,0:0:0:0:
356,141,2870,2,0,P|399:129|460:125,1,104,2|2,0:0|0:0,0:0:0:0:
298,86,3935,6,0,P|273:77|247:74,1,52,2|0,0:0|0:0,0:0:0:0:
356,141,4290,1,2,0:0:0:0:
271,272,4642,1,2,0:0:0:0:
149,173,4995,2,0,P|142:198|139:224,3,52,2|2|2|0,0:0|0:0|0:0|0:0,0:0:0:0:
62,163,5690,6,0,P|45:128|38:90,1,65,0|0,3:2|0:2,0:0:0:0:
100,25,6042,2,0,P|146:28|185:49,1,65,2|0,3:2|0:0,0:0:0:0:
223,112,6395,2,0,P|290:102|375:82,2,130,2|0|0,3:2|3:2|3:2,0:0:0:0:
136,159,7278,1,0,0:2:0:0:
136,159,7454,2,0,P|124:225|116:301,1,130,0|2,3:2|3:2,0:0:0:0:
186,356,7984,1,2,0:2:0:0:
278,326,8160,2,0,P|277:293|270:239,1,65,2|2,3:2|0:2,0:0:0:0:
360,216,8513,6,0,P|439:216|462:170,1,130,2|0,3:2|3:0,0:0:0:0:
268,143,9219,2,0,P|189:143|166:97,1,130,0|0,3:0|3:0,0:0:0:0:
82,55,9748,1,0,0:0:0:0:
82,55,9925,1,2,3:2:0:0:
32,243,10278,1,2,3:2:0:0:
196,348,10631,2,0,P|234:337|273:332,1,65,2|2,3:2|0:2,0:0:0:0:
324,260,10984,1,2,3:2:0:0:
407,309,11160,1,2,0:2:0:0:
407,309,11337,6,0,P|447:320|492:342,1,65,2|0,3:2|0:0,0:0:0:0:
500,236,11690,2,0,P|469:227|433:208,1,65,2|0,3:2|0:0,0:0:0:0:
419,117,12042,2,0,P|429:57|506:3,2,130,2|0|0,3:2|3:0|3:0,0:0:0:0:
336,170,12925,1,0,0:0:0:0:
336,170,13101,2,0,P|267:155|203:147,1,130,0|2,3:0|3:2,0:0:0:0:
127,90,13631,1,2,0:2:0:0:
49,148,13807,2,0,P|53:185|51:237,1,65,2|2,3:2|0:2,0:0:0:0:
114,289,14160,6,0,P|178:273|269:263,1,130,2|0,3:2|3:0,0:0:0:0:
425,331,14866,1,2,3:2:0:0:
425,331,15042,2,0,P|439:295|445:255,1,65,2|2,0:2|3:2,0:0:0:0:
367,208,15395,1,2,3:2:0:0:
412,121,15572,5,2,3:2:0:0:
229,51,15925,1,4,3:2:0:0:
61,150,16284,2,0,P|71:187|77:219,1,65,2|2,0:0|3:2,0:0:0:0:
42,305,16632,1,8,0:0:0:0:
42,305,16720,1,8,0:0:0:0:
42,305,16807,1,8,0:0:0:0:
130,366,16981,6,0,P|136:326|145:295,1,71.5000021820069,4|0,0:2|0:0,0:0:0:0:
233,235,17330,2,0,P|227:195|217:164,1,71.5000021820069,10|0,0:2|0:0,0:0:0:0:
118,124,17679,1,0,0:0:0:0:
184,40,17855,1,0,0:0:0:0:
281,83,18032,2,0,B|351:88|343:149|421:155,1,143.000004364014,8|0,0:2|0:0,0:0:0:0:
498,98,18563,1,0,0:0:0:0:
498,98,18740,1,8,0:2:0:0:
500,259,19094,5,2,0:2:0:0:
426,337,19271,1,2,0:2:0:0:
350,261,19448,2,0,P|303:251|262:233,1,71.5000021820069,10|2,0:2|0:2,0:0:0:0:
173,249,19802,2,0,P|217:188|189:112,2,143.000004364014,2|8|0,0:2|0:2|0:0,0:0:0:0:
65,258,20700,1,0,0:0:0:0:
27,358,20879,2,0,P|62:343|119:339,1,71.5000021820069,8|0,0:2|0:0,0:0:0:0:
195,358,21218,5,2,0:2:0:0:
108,161,21571,1,10,0:2:0:0:
302,71,21925,2,0,P|338:83|384:91,1,71.5000021820069,2|2,0:2|0:2,0:0:0:0:
462,33,22279,5,10,0:2:0:0:
462,33,22368,1,8,0:2:0:0:
462,33,22456,1,8,0:2:0:0:
462,33,22545,1,8,0:2:0:0:
462,33,22633,1,4,0:2:0:0:
490,245,22987,6,0,P|451:241|401:229,1,71.5000021820069,10|0,0:2|0:0,0:0:0:0:
366,327,23341,1,2,0:2:0:0:
263,358,23518,1,0,0:0:0:0:
191,277,23695,2,0,P|201:229|210:122,1,143.000004364014,8|0,0:2|0:0,0:0:0:0:
137,55,24226,1,0,0:0:0:0:
137,55,24403,1,8,0:2:0:0:
350,30,24757,5,2,0:2:0:0:
457,38,24934,1,2,0:2:0:0:
497,137,25111,2,0,P|485:183|478:231,1,71.5000021820069,10|2,0:2|0:2,0:0:0:0:
402,279,25465,2,0,P|317:282|264:311,2,143.000004364014,6|8|2,0:2|0:2|0:2,0:0:0:0:
380,172,26350,1,2,0:2:0:0:
273,161,26527,2,0,P|240:186|217:214,1,71.5000021820069,10|2,0:2|0:2,0:0:0:0:
117,179,26881,5,2,0:2:0:0:
294,57,27235,1,10,0:2:0:0:
469,179,27589,2,0,P|457:214|449:264,1,71.5000021820069,2|2,0:2|0:2,0:0:0:0:
386,334,27943,5,10,0:2:0:0:
275,276,28120,1,10,0:2:0:0:
367,195,28297,1,6,0:2:0:0:
256,192,28474,12,2,31306,0:0:0:0:
