osu file format v14

[General]
AudioFilename: audio.mp3
AudioLeadIn: 0
PreviewTime: 0
Countdown: 1
SampleSet: None
StackLeniency: 0.7
Mode: 0
LetterboxInBreaks: 0
WidescreenStoryboard: 1

[Editor]
DistanceSpacing: 1.4
BeatDivisor: 4
GridSize: 4
TimelineZoom: 1

[Metadata]
Title:The Office Theme
TitleUnicode:The Office Theme
Artist:The Scrantones
ArtistUnicode:The Scrantones
Creator:- Falkion -
Version:Normal
Source:The Office US
Tags:The Office
BeatmapID:1958725
BeatmapSetID:937673

[Difficulty]
HPDrainRate:3.5
CircleSize:3.6
OverallDifficulty:5
ApproachRate:6
SliderMultiplier:1
SliderTickRate:1

[Events]
//Background and Video events
0,0,"the-office-(us)-wallpapers-31722-1548708.jpg",0,0
//Break Periods
//Storyboard Layer 0 (Background)
//Storyboard Layer 1 (Fail)
//Storyboard Layer 2 (Pass)
//Storyboard Layer 3 (Foreground)
//Storyboard Sound Samples

[TimingPoints]
30,352.941176470588,4,2,0,25,1,0
5677,-90.9090909090909,4,3,0,40,0,0
15559,-90.9090909090909,4,2,0,44,0,0
15912,-90.9090909090909,4,1,0,60,0,0
16971,-90.9090909090909,4,2,0,60,0,0

[Colours]
Combo1 : 155,155,155
Combo2 : 72,72,72
Combo3 : 245,245,245

[HitObjects]
200,51,30,6,0,L|203:121,1,50,0|0,0:0|0:0,0:0:0:0:
205,170,382,2,0,L|210:287,1,100,0|0,0:0|0:0,0:0:0:0:
314,362,1088,2,0,L|311:312,1,50,0|0,0:0|0:0,0:0:0:0:
308,241,1441,2,0,L|305:191,1,50,0|0,0:0|0:0,0:0:0:0:
302,120,1794,2,0,L|297:20,1,100,0|0,0:0|0:0,0:0:0:0:
172,82,2500,6,0,L|245:90,1,50,0|0,0:0|0:0,0:0:0:0:
291,96,2853,2,0,L|364:104,1,50,0|0,0:0|0:0,0:0:0:0:
354,170,3206,2,0,L|239:185,1,100,0|0,0:0|0:0,0:0:0:0:
115,202,3912,2,0,L|110:135,1,50,0|0,0:0|0:0,0:0:0:0:
109,81,4265,5,2,0:0:0:0:
109,81,4618,1,2,0:0:0:0:
109,81,4971,2,0,L|112:151,1,50,2|0,0:0|0:0,0:0:0:0:
116,200,5324,2,0,L|119:267,1,50,0|0,0:0|0:0,0:0:0:0:
139,326,5677,6,0,P|213:328|267:313,1,110.000003356934,4|4,0:3|0:3,0:0:0:0:
275,247,6206,1,0,0:0:0:0:
275,247,6382,2,0,L|286:134,1,110.000003356934,4|4,0:3|0:3,0:0:0:0:
242,73,6912,1,0,0:0:0:0:
242,73,7088,2,0,B|197:103|197:103|189:173,1,110.000003356934,4|4,0:3|0:3,0:0:0:0:
194,312,7794,6,0,L|257:303,1,55.0000016784668,4|8,0:3|0:1,0:0:0:0:
296,243,8147,2,0,L|360:232,1,55.0000016784668,4|8,0:3|0:1,0:0:0:0:
404,179,8500,2,0,P|374:138|304:111,1,110.000003356934,4|4,0:3|0:3,0:0:0:0:
248,87,9029,1,0,0:0:0:0:
248,87,9206,2,0,L|243:158,1,55.0000016784668,4|0,0:3|0:0,0:0:0:0:
236,218,9559,2,0,L|231:297,1,55.0000016784668,4|0,0:3|0:0,0:0:0:0:
205,345,9912,6,0,L|321:350,2,110.000003356934,4|4|4,0:3|0:3|0:3,0:0:0:0:
128,331,10794,1,8,1:1:0:0:
128,331,10971,2,0,P|93:319|76:298,1,55.0000016784668,4|8,0:3|1:1,0:0:0:0:
66,230,11324,2,0,B|75:98,1,110.000003356934,4|4,0:3|0:3,0:0:0:0:
200,32,12029,2,0,B|332:41,1,110.000003356934,4|4,0:3|0:3,0:0:0:0:
415,151,12735,2,0,B|406:283,1,110.000003356934,4|4,0:3|0:3,0:0:0:0:
269,330,13441,6,0,L|257:255,1,55.0000016784668,4|8,0:3|0:1,0:0:0:0:
322,229,13794,2,0,L|334:154,1,55.0000016784668,4|8,0:3|0:1,0:0:0:0:
260,141,14147,2,0,P|229:85|176:62,1,110.000003356934,4|4,0:3|0:3,0:0:0:0:
178,141,14677,1,0,0:0:0:0:
178,141,14853,2,0,L|190:216,1,55.0000016784668,4|8,0:3|0:1,0:0:0:0:
125,242,15206,2,0,L|113:317,1,55.0000016784668,4|8,0:3|0:1,0:0:0:0:
180,338,15559,6,0,L|302:332,1,110.000003356934,2|8,0:0|0:0,0:0:0:0:
433,275,16265,2,0,L|437:219,1,55.0000016784668,0|4,0:0|0:3,0:0:0:0:
447,143,16618,2,0,L|450:98,4,27.5000008392334,8|8|8|8|4,0:0|0:0|0:0|0:0|3:2,0:0:0:0:
406,291,17324,6,0,L|337:303,1,55.0000016784668,8|0,1:0|0:0,0:0:0:0:
274,301,17677,2,0,L|205:289,1,55.0000016784668,4|4,0:3|0:3,0:0:0:0:
158,245,18029,2,0,L|161:178,1,55.0000016784668,8|0,1:0|0:0,0:0:0:0:
171,113,18382,2,0,P|225:115|292:99,1,110.000003356934,4|8,0:3|1:0,0:0:0:0:
350,73,18912,1,0,0:0:0:0:
350,73,19088,2,0,P|361:26|369:11,2,55.0000016784668,4|4|8,0:3|0:3|1:1,0:0:0:0:
439,197,19794,6,0,L|436:321,1,110.000003356934,4|8,0:3|1:0,0:0:0:0:
361,328,20324,1,0,0:0:0:0:
361,328,20500,2,0,L|359:273,1,55.0000016784668,4|4,0:3|0:3,0:0:0:0:
352,196,20853,2,0,L|350:141,1,55.0000016784668,8|0,1:1|0:0,0:0:0:0:
349,63,21206,5,4,0:3:0:0:
195,76,21559,1,8,1:0:0:0:
202,229,21912,2,0,L|203:298,1,55.0000016784668,4|4,0:3|0:3,0:0:0:0:
202,361,22265,2,0,L|156:362,4,27.5000008392334,8|8|8|8|4,1:0|1:0|1:0|1:0|3:2,0:0:0:0:
355,343,22971,6,0,P|405:307|430:241,1,110.000003356934,8|4,1:0|0:3,0:0:0:0:
349,253,23500,1,4,0:3:0:0:
349,253,23676,2,0,L|347:198,1,55.0000016784668,8|0,1:0|0:0,0:0:0:0:
336,121,24029,2,0,P|280:97|216:102,1,110.000003356934,4|8,0:3|1:0,0:0:0:0:
108,190,24735,2,0,L|113:270,1,55.0000016784668,4|4,0:3|0:3,0:0:0:0:
166,299,25088,1,8,1:0:0:0:
316,331,25441,6,0,P|378:307|411:259,1,110.000003356934,4|8,0:3|1:0,0:0:0:0:
393,120,26147,2,0,L|385:49,1,55.0000016784668,4|4,0:3|0:3,0:0:0:0:
309,67,26500,1,8,1:0:0:0:
298,220,26853,6,0,L|294:294,1,55.0000016784668,4|0,0:3|0:0,0:0:0:0:
217,274,27206,2,0,L|214:219,1,55.0000016784668,8|0,1:0|0:0,0:0:0:0:
230,143,27559,2,0,L|285:143,1,55.0000016784668,4|4,0:3|0:3,0:0:0:0:
362,142,27912,1,8,1:0:0:0:
362,142,28088,1,8,1:0:0:0:
439,143,28265,5,4,0:0:0:0:
256,192,28441,12,0,31265,0:0:0:0:
