osu file format v14

[General]
AudioFilename: audio.mp3
AudioLeadIn: 0
PreviewTime: -1
Countdown: 1
SampleSet: Normal
StackLeniency: 0.7
Mode: 0
LetterboxInBreaks: 0
WidescreenStoryboard: 1

[Editor]
Bookmarks: 17000
DistanceSpacing: 0.8
BeatDivisor: 1
GridSize: 32
TimelineZoom: 1

[Metadata]
Title:Revolution
TitleUnicode:Revolution
Artist:The Score
ArtistUnicode:The Score
Creator:Agustin_Fig
Version:Hard
Source:
Tags:
BeatmapID:1555300
BeatmapSetID:736958

[Difficulty]
HPDrainRate:7
CircleSize:6
OverallDifficulty:6
ApproachRate:8
SliderMultiplier:3.59999990463257
SliderTickRate:1

[Events]
//Background and Video events
0,0,"revolution.png",0,0
//Break Periods
//Storyboard Layer 0 (Background)
//Storyboard Layer 1 (Fail)
//Storyboard Layer 2 (Pass)
//Storyboard Layer 3 (Foreground)
//Storyboard Sound Samples

[TimingPoints]
0,500,4,1,0,100,1,0

[Colours]
Combo1 : 127,127,127
Combo2 : 0,0,0
Combo3 : 0,0,217
Combo4 : 255,0,0

[HitObjects]
192,224,1500,5,0,0:0:0:0:
224,128,2000,1,0,0:0:0:0:
288,96,2500,1,0,0:0:0:0:
160,160,3000,1,0,0:0:0:0:
224,224,3500,1,0,0:0:0:0:
288,224,4000,1,0,0:0:0:0:
320,128,4500,1,0,0:0:0:0:
96,96,5000,1,0,0:0:0:0:
192,96,5500,5,0,0:0:0:0:
128,192,6000,1,0,0:0:0:0:
384,224,6500,1,0,0:0:0:0:
288,288,7000,1,0,0:0:0:0:
160,224,7500,1,0,0:0:0:0:
384,96,8500,5,0,0:0:0:0:
160,96,9000,1,0,0:0:0:0:
352,224,10000,1,0,0:0:0:0:
288,256,10500,1,0,0:0:0:0:
160,224,11000,1,0,0:0:0:0:
352,224,12000,1,0,0:0:0:0:
128,288,12500,1,0,0:0:0:0:
96,96,13000,1,0,0:0:0:0:
288,96,13500,1,0,0:0:0:0:
384,128,14000,1,0,0:0:0:0:
128,96,14500,1,0,0:0:0:0:
192,256,15000,1,0,0:0:0:0:
96,160,15500,1,0,0:0:0:0:
288,256,16000,1,0,0:0:0:0:
256,256,16500,1,0,0:0:0:0:
224,288,17500,1,0,0:0:0:0:
192,192,18000,1,0,0:0:0:0:
160,288,19000,1,0,0:0:0:0:
96,224,19500,1,0,0:0:0:0:
96,128,20000,1,0,0:0:0:0:
320,96,21000,1,0,0:0:0:0:
320,224,21500,1,0,0:0:0:0:
224,256,22000,1,0,0:0:0:0:
192,192,22500,1,0,0:0:0:0:
384,160,23000,1,0,0:0:0:0:
96,96,23500,1,0,0:0:0:0:
64,128,24000,1,0,0:0:0:0:
192,288,24500,1,0,0:0:0:0:
160,288,25000,1,0,0:0:0:0:
128,192,26000,1,0,0:0:0:0:
416,192,26500,1,0,0:0:0:0:
288,128,27000,1,0,0:0:0:0:
224,224,27500,1,0,0:0:0:0:
384,224,28500,1,0,0:0:0:0:
128,288,29000,1,0,0:0:0:0:
224,224,30000,1,0,0:0:0:0:
128,224,30500,1,0,0:0:0:0:
320,224,32000,5,0,0:0:0:0:
192,256,32500,1,0,0:0:0:0:
96,96,33000,1,0,0:0:0:0:
320,160,34000,5,0,0:0:0:0:
192,288,35000,1,0,0:0:0:0:
320,224,35500,1,0,0:0:0:0:
160,96,36000,1,0,0:0:0:0:
288,96,36500,5,0,0:0:0:0:
128,224,37000,1,0,0:0:0:0:
448,256,37500,1,0,0:0:0:0:
128,384,38000,1,0,0:0:0:0:
96,352,38500,1,0,0:0:0:0:
448,256,39000,1,0,0:0:0:0:
128,256,40000,1,0,0:0:0:0:
320,128,40500,1,0,0:0:0:0:
64,96,41000,1,0,0:0:0:0:
352,96,41500,1,0,0:0:0:0:
416,128,42000,1,0,0:0:0:0:
288,256,42500,1,0,0:0:0:0:
160,288,43000,1,0,0:0:0:0:
160,96,43500,1,0,0:0:0:0:
416,96,44000,1,0,0:0:0:0:
384,96,44500,1,0,0:0:0:0:
256,224,45000,1,0,0:0:0:0:
256,256,45500,1,0,0:0:0:0:
160,224,46000,1,0,0:0:0:0:
384,256,49500,1,0,0:0:0:0:
96,288,50000,1,0,0:0:0:0:
96,224,50500,1,0,0:0:0:0:
224,128,51000,1,0,0:0:0:0:
384,32,52500,1,0,0:0:0:0:
448,128,53000,1,0,0:0:0:0:
288,352,53500,1,0,0:0:0:0:
384,288,54000,1,0,0:0:0:0:
192,256,54500,1,0,0:0:0:0:
96,224,55000,1,0,0:0:0:0:
320,128,55500,1,0,0:0:0:0:
384,256,56000,1,0,0:0:0:0:
256,288,56500,1,0,0:0:0:0:
256,288,57000,1,0,0:0:0:0:
256,128,57500,1,0,0:0:0:0:
128,96,58000,1,0,0:0:0:0:
320,160,58500,1,0,0:0:0:0:
256,224,59500,1,0,0:0:0:0:
384,256,60000,1,0,0:0:0:0:
288,288,60500,1,0,0:0:0:0:
192,288,61000,1,0,0:0:0:0:
416,224,61500,5,0,0:0:0:0:
288,224,62000,1,0,0:0:0:0:
256,320,62500,1,0,0:0:0:0:
64,224,63000,1,0,0:0:0:0:
64,160,63500,1,0,0:0:0:0:
352,96,64000,1,0,0:0:0:0:
160,96,65000,1,0,0:0:0:0:
320,224,65500,1,0,0:0:0:0:
192,192,66000,1,0,0:0:0:0:
384,96,66500,1,0,0:0:0:0:
160,64,67000,1,0,0:0:0:0:
288,224,67500,1,0,0:0:0:0:
352,96,68500,1,0,0:0:0:0:
32,192,70500,1,0,0:0:0:0:
192,192,71000,1,0,0:0:0:0:
256,256,71500,1,0,0:0:0:0:
352,224,72000,1,0,0:0:0:0:
160,224,72500,1,0,0:0:0:0:
256,96,73000,1,0,0:0:0:0:
288,288,73500,1,0,0:0:0:0:
128,160,74000,1,0,0:0:0:0:
384,192,74500,1,0,0:0:0:0:
192,256,75500,1,0,0:0:0:0:
128,160,76000,1,0,0:0:0:0:
320,128,77000,1,0,0:0:0:0:
416,160,77500,1,0,0:0:0:0:
416,256,78000,1,0,0:0:0:0:
128,288,78500,1,0,0:0:0:0:
128,288,79000,1,0,0:0:0:0:
288,256,79500,1,0,0:0:0:0:
320,192,80000,1,0,0:0:0:0:
192,192,80500,1,0,0:0:0:0:
288,96,81000,1,0,0:0:0:0:
96,96,81500,1,0,0:0:0:0:
320,224,82500,1,0,0:0:0:0:
288,128,83000,1,0,0:0:0:0:
224,160,83500,1,0,0:0:0:0:
352,256,84500,1,0,0:0:0:0:
256,256,85000,1,0,0:0:0:0:
128,288,86000,1,0,0:0:0:0:
384,288,86500,1,0,0:0:0:0:
128,224,87000,1,0,0:0:0:0:
416,224,88000,1,0,0:0:0:0:
352,224,88500,1,0,0:0:0:0:
160,256,89000,1,0,0:0:0:0:
448,224,89500,1,0,0:0:0:0:
288,288,90000,1,0,0:0:0:0:
64,96,90500,1,0,0:0:0:0:
352,96,91000,1,0,0:0:0:0:
128,160,91500,1,0,0:0:0:0:
160,224,92000,1,0,0:0:0:0:
416,224,93000,1,0,0:0:0:0:
256,256,93500,1,0,0:0:0:0:
320,224,94000,1,0,0:0:0:0:
224,288,94500,1,0,0:0:0:0:
96,224,95500,1,0,0:0:0:0:
128,288,96000,1,0,0:0:0:0:
288,256,96500,1,0,0:0:0:0:
256,288,97000,1,0,0:0:0:0:
320,256,97500,1,0,0:0:0:0:
192,256,98000,1,0,0:0:0:0:
416,192,99000,1,0,0:0:0:0:
288,256,100000,1,0,0:0:0:0:
96,256,100500,1,0,0:0:0:0:
224,256,101000,1,0,0:0:0:0:
448,256,101500,1,0,0:0:0:0:
288,160,102000,1,0,0:0:0:0:
128,160,102500,1,0,0:0:0:0:
224,128,103000,1,0,0:0:0:0:
256,192,103500,12,0,106500,0:0:0:0:
256,192,107000,12,0,110500,0:0:0:0:
256,192,111000,12,0,115000,0:0:0:0:
256,192,115500,12,0,116000,0:0:0:0:
320,256,116500,5,0,0:0:0:0:
320,256,117000,5,0,0:0:0:0:
192,320,117500,1,0,0:0:0:0:
160,256,118000,1,0,0:0:0:0:
224,320,118500,1,0,0:0:0:0:
224,288,119000,1,0,0:0:0:0:
256,256,119500,1,0,0:0:0:0:
192,224,120000,1,0,0:0:0:0:
448,192,120500,1,0,0:0:0:0:
32,64,121500,1,0,0:0:0:0:
192,64,122000,1,0,0:0:0:0:
416,64,122500,1,0,0:0:0:0:
128,224,123000,1,0,0:0:0:0:
416,288,123500,1,0,0:0:0:0:
128,352,124000,1,0,0:0:0:0:
64,256,124500,1,0,0:0:0:0:
256,64,125000,1,0,0:0:0:0:
384,128,125500,5,0,0:0:0:0:
288,160,126000,1,0,0:0:0:0:
224,288,126500,1,0,0:0:0:0:
352,256,127000,1,0,0:0:0:0:
384,224,127500,1,0,0:0:0:0:
160,224,128000,1,0,0:0:0:0:
320,96,128500,1,0,0:0:0:0:
288,192,129000,1,0,0:0:0:0:
192,256,129500,1,0,0:0:0:0:
192,320,130000,1,0,0:0:0:0:
128,256,130500,1,0,0:0:0:0:
416,224,131500,1,0,0:0:0:0:
160,128,132000,1,0,0:0:0:0:
384,96,132500,1,0,0:0:0:0:
320,96,133000,1,0,0:0:0:0:
288,224,133500,1,0,0:0:0:0:
448,160,134000,1,0,0:0:0:0:
160,256,134500,1,0,0:0:0:0:
128,128,135500,1,0,0:0:0:0:
320,128,136000,1,0,0:0:0:0:
416,192,136500,1,0,0:0:0:0:
352,288,137000,1,0,0:0:0:0:
96,256,137500,1,0,0:0:0:0:
224,224,138000,1,0,0:0:0:0:
352,256,138500,1,0,0:0:0:0:
416,192,139000,1,0,0:0:0:0:
320,96,139500,1,0,0:0:0:0:
128,224,140500,1,0,0:0:0:0:
256,288,141000,1,0,0:0:0:0:
384,256,141500,1,0,0:0:0:0:
384,128,142000,1,0,0:0:0:0:
224,96,142500,1,0,0:0:0:0:
96,128,143000,1,0,0:0:0:0:
288,224,144000,1,0,0:0:0:0:
160,256,144500,1,0,0:0:0:0:
160,128,145000,1,0,0:0:0:0:
288,96,145500,1,0,0:0:0:0:
352,192,146500,1,0,0:0:0:0:
384,160,147500,5,0,0:0:0:0:
224,224,148000,1,0,0:0:0:0:
160,288,151000,1,0,0:0:0:0:
320,256,151500,1,0,0:0:0:0:
96,224,152000,1,0,0:0:0:0:
320,64,152500,1,0,0:0:0:0:
128,96,153000,1,0,0:0:0:0:
96,256,153500,1,0,0:0:0:0:
352,256,154500,1,0,0:0:0:0:
224,256,155000,1,0,0:0:0:0:
96,352,155500,1,0,0:0:0:0:
160,256,156000,1,0,0:0:0:0:
384,224,156500,1,0,0:0:0:0:
224,224,157000,1,0,0:0:0:0:
384,96,157500,1,0,0:0:0:0:
224,96,158000,1,0,0:0:0:0:
224,256,158500,1,0,0:0:0:0:
128,192,159000,1,0,0:0:0:0:
288,160,160000,1,0,0:0:0:0:
352,256,160500,1,0,0:0:0:0:
320,288,161000,1,0,0:0:0:0:
128,320,161500,1,0,0:0:0:0:
352,256,162000,1,0,0:0:0:0:
96,256,162500,1,0,0:0:0:0:
160,160,163500,1,0,0:0:0:0:
160,160,164000,1,0,0:0:0:0:
352,256,164500,1,0,0:0:0:0:
64,288,165500,1,0,0:0:0:0:
448,128,166000,1,0,0:0:0:0:
192,160,167000,1,0,0:0:0:0:
160,256,167500,1,0,0:0:0:0:
416,192,168000,1,0,0:0:0:0:
320,64,169000,1,0,0:0:0:0:
96,224,169500,1,0,0:0:0:0:
288,224,170000,1,0,0:0:0:0:
320,160,170500,1,0,0:0:0:0:
128,160,171000,1,0,0:0:0:0:
352,288,171500,1,0,0:0:0:0:
384,192,172000,1,0,0:0:0:0:
256,192,172500,2,0,P|128:256|288:288,1,359.999990463257
192,256,176000,1,0,0:0:0:0:
288,128,176500,1,0,0:0:0:0:
128,128,177000,1,0,0:0:0:0:
256,224,177500,1,0,0:0:0:0:
352,224,178000,1,0,0:0:0:0:
128,192,179000,1,0,0:0:0:0:
256,128,179500,1,0,0:0:0:0:
288,192,180000,1,0,0:0:0:0:
224,256,180500,1,0,0:0:0:0:
224,288,181000,1,0,0:0:0:0:
416,224,181500,5,0,0:0:0:0:
192,256,182000,1,0,0:0:0:0:
160,96,183000,1,0,0:0:0:0:
256,96,183500,1,0,0:0:0:0:
160,256,184000,1,0,0:0:0:0:
416,256,185000,1,0,0:0:0:0:
64,128,185500,1,0,0:0:0:0:
128,160,186000,1,0,0:0:0:0:
320,224,186500,1,0,0:0:0:0:
416,160,187000,1,0,0:0:0:0:
128,256,188000,1,0,0:0:0:0:
224,256,188500,1,0,0:0:0:0:
384,224,189000,1,0,0:0:0:0:
256,160,190000,1,0,0:0:0:0:
128,224,190500,1,0,0:0:0:0:
320,288,191000,1,0,0:0:0:0:
352,224,191500,1,0,0:0:0:0:
32,224,192000,1,0,0:0:0:0:
384,256,192500,1,0,0:0:0:0:
128,320,193500,1,0,0:0:0:0:
192,256,194000,1,0,0:0:0:0:
320,224,194500,1,0,0:0:0:0:
224,224,195000,1,0,0:0:0:0:
352,128,195500,1,0,0:0:0:0:
128,128,196000,1,0,0:0:0:0:
416,160,196500,1,0,0:0:0:0:
320,288,197000,1,0,0:0:0:0:
128,256,197500,1,0,0:0:0:0:
192,128,198000,1,0,0:0:0:0:
384,64,199000,1,0,0:0:0:0:
288,224,199500,1,0,0:0:0:0:
416,192,200000,1,0,0:0:0:0:
384,128,200500,1,0,0:0:0:0:
416,192,201000,2,0,P|128:192|256:320,1,359.999990463257
288,224,204000,1,0,0:0:0:0:
128,256,204500,1,0,0:0:0:0:
384,224,206500,5,0,0:0:0:0:
384,224,207000,1,0,0:0:0:0:
416,224,207500,2,0,P|128:288|160:320,2,359.999990463257
224,256,210000,1,0,0:0:0:0:
416,224,210500,2,0,P|288:64|160:192,1,359.999990463257
256,192,212000,12,0,215000,0:0:0:0:
448,224,216000,6,0,P|320:96|256:224,2,359.999990463257
416,192,219000,2,0,P|288:64|32:224,2,359.999990463257
320,224,222500,1,0,0:0:0:0:
160,256,223500,1,0,0:0:0:0:
384,288,224000,1,0,0:0:0:0:
288,320,224500,5,0,0:0:0:0:
416,224,225000,1,0,0:0:0:0:
192,224,225500,1,0,0:0:0:0:
288,64,226000,1,0,0:0:0:0:
288,192,226500,1,0,0:0:0:0:
96,256,227000,1,0,0:0:0:0:
160,288,227500,1,0,0:0:0:0:
160,288,228000,1,0,0:0:0:0:
