osu file format v14

[General]
AudioFilename: friendsu.mp3
AudioLeadIn: 0
PreviewTime: 27184
Countdown: 0
SampleSet: Soft
StackLeniency: 0.7
Mode: 0
LetterboxInBreaks: 0
WidescreenStoryboard: 1

[Editor]
DistanceSpacing: 1.4
BeatDivisor: 4
GridSize: 4
TimelineZoom: 2.4

[Metadata]
Title:I'll Be There For You (TV Version)
TitleUnicode:I'll Be There For You (TV Version)
Artist:The Rembrandts
ArtistUnicode:The Rembrandts
Creator:Sotarks
Version:Hard
Source:Friends
Tags:Warner Channel Rachel Monica Phoebe Joey Chandler Ross opening op akitoshi corinn
BeatmapID:1264208
BeatmapSetID:597840

[Difficulty]
HPDrainRate:5
CircleSize:3.5
OverallDifficulty:6
ApproachRate:7.5
SliderMultiplier:1.52
SliderTickRate:1

[Events]
//Background and Video events
0,0,"BG.jpg",0,0
Video,0,"Video.avi"
//Break Periods
//Storyboard Layer 0 (Background)
//Storyboard Layer 1 (Fail)
//Storyboard Layer 2 (Pass)
//Storyboard Layer 3 (Foreground)
//Storyboard Sound Samples

[TimingPoints]
2000,315.789473684211,4,2,22,52,1,0
2000,-121.951219512195,4,2,22,52,0,0
7052,-108.695652173913,4,2,22,62,0,0
17157,-161.290322580645,4,2,22,62,0,0
26000,-161.290322580645,4,2,22,32,0,0
26315,-161.290322580645,4,2,22,42,0,0
26631,-161.290322580645,4,2,22,52,0,0
26947,-121.951219512195,4,2,22,62,0,0
27263,-98.0392156862745,4,2,22,72,0,1
42421,-121.951219512195,4,2,22,52,0,0
48263,-121.951219512195,4,2,22,5,0,0

[Colours]
Combo1 : 71,71,69
Combo2 : 141,61,61
Combo3 : 189,176,176
Combo4 : 55,91,45

[HitObjects]
211,141,2000,5,4,0:0:0:0:
211,141,2315,2,0,L|359:128,1,124.640001901855,2|0,0:0|0:0,0:0:0:0:
412,184,2789,2,0,L|405:270,1,62.3200009509277,2|2,0:0|0:0,0:0:0:0:
342,314,3105,2,0,P|287:328|206:335,2,124.640001901855,2|2|0,0:0|0:0|0:0,0:0:0:0:
282,241,3894,2,0,P|236:248|202:247,1,62.3200009509277,2|0,0:0|0:0,0:0:0:0:
155,180,4210,2,0,P|123:181|93:187,1,62.3200009509277,2|0,0:0|3:0,0:0:0:0:
36,262,4526,6,0,P|11:229|18:131,2,124.640001901855,4|0|2,1:0|3:0|0:0,0:0:0:0:
107,322,5315,2,0,L|180:310,1,62.3200009509277,2|2,0:0|0:0,0:0:0:0:
239,249,5631,2,0,P|262:296|233:383,2,124.640001901855,2|2|0,0:0|0:0|0:0,0:0:0:0:
217,163,6421,1,2,0:0:0:0:
290,117,6578,1,0,1:0:0:0:
326,196,6736,1,8,0:0:0:0:
400,149,6894,1,0,3:0:0:0:
483,201,7052,6,0,P|493:146|471:63,1,139.839995305664,4|10,1:0|0:2,0:0:0:0:
367,59,7526,2,0,B|255:79|255:79|209:50,1,139.839995305664,2|2,1:2|1:2,0:0:0:0:
134,26,8000,2,0,P|132:105|136:118,1,69.9199976528321,8|2,0:0|3:2,0:0:0:0:
191,179,8315,6,0,P|205:240|155:318,1,139.839995305664,0|10,1:0|0:2,0:0:0:0:
86,369,8789,2,0,L|240:359,1,139.839995305664,2|2,1:2|1:2,0:0:0:0:
330,372,9263,2,0,P|320:327|318:284,1,69.9199976528321,8|0,0:0|3:0,0:0:0:0:
367,211,9578,1,2,1:2:0:0:
367,211,9736,2,0,P|377:166|379:123,1,69.9199976528321,2|10,0:0|0:0,0:0:0:0:
303,68,10052,2,0,P|233:96|169:68,1,139.839995305664,2|2,1:2|1:2,0:0:0:0:
92,9,10526,2,0,P|73:60|73:92,1,69.9199976528321,8|2,0:0|3:2,0:0:0:0:
132,152,10842,6,0,L|144:252,1,69.9199976528321,2|0,1:2|0:0,0:0:0:0:
44,196,11157,2,0,L|32:296,1,69.9199976528321,8|0,0:0|1:0,0:0:0:0:
71,357,11473,1,8,2:0:0:0:
150,300,11631,1,8,2:0:0:0:
229,243,11789,1,8,2:0:0:0:
216,352,11947,5,8,2:0:0:0:
216,352,12026,1,0,3:0:0:0:
216,352,12105,2,0,B|314:362|314:362|378:335,1,139.839995305664,4|10,1:0|0:2,0:0:0:0:
428,278,12578,2,0,P|389:299|312:239,1,139.839995305664,2|0,1:2|1:0,0:0:0:0:
279,153,13052,2,0,P|231:141|181:154,1,69.9199976528321,10|2,0:2|3:2,0:0:0:0:
124,204,13368,2,0,P|131:152|63:62,1,139.839995305664,0|10,1:0|0:2,0:0:0:0:
188,39,13842,2,0,L|286:35,1,69.9199976528321,2|0,1:2|3:0,0:0:0:0:
354,77,14157,1,0,1:0:0:0:
279,153,14315,2,0,L|292:246,1,69.9199976528321,8|0,0:0|3:0,0:0:0:0:
358,301,14631,6,0,P|313:327|221:301,1,139.839995305664,2|10,1:2|0:2,0:0:0:0:
127,339,15105,2,0,B|119:291|119:291|134:249|134:249|117:175,1,139.839995305664,0|2,1:0|1:2,0:0:0:0:
64,117,15578,2,0,L|151:94,1,69.9199976528321,8|2,0:0|3:2,0:0:0:0:
217,161,15894,2,0,B|253:172|253:172|357:115,1,139.839995305664,2|8,1:2|0:0,0:0:0:0:
384,25,16368,2,0,P|436:74|444:101,1,69.9199976528321,0|0,1:0|0:0,0:0:0:0:
419,176,16684,1,0,1:0:0:0:
334,238,16842,2,0,P|310:289|309:335,1,69.9199976528321,8|0,0:0|3:0,0:0:0:0:
347,366,17157,6,0,L|241:351,1,94.2399962612306,4|2,3:0|1:2,0:0:0:0:
209,291,17631,2,0,L|115:304,1,94.2399962612306,10|2,3:2|0:2,0:0:0:0:
61,356,18105,2,0,P|39:309|41:293,1,47.1199981306153,8|0,0:0|3:0,0:0:0:0:
60,241,18421,2,0,L|60:131,1,94.2399962612306,6|2,3:2|1:2,0:0:0:0:
9,90,18894,2,0,P|59:99|111:80,1,94.2399962612306,10|2,3:2|0:2,0:0:0:0:
155,34,19368,2,0,P|195:25|211:28,1,47.1199981306153,8|0,0:0|3:0,0:0:0:0:
255,77,19684,6,0,P|305:86|357:67,1,94.2399962612306,6|0,3:2|1:0,0:0:0:0:
394,16,20157,2,0,L|412:118,1,94.2399962612306,10|0,3:2|0:0,0:0:0:0:
422,183,20631,1,8,0:0:0:0:
384,248,20789,1,0,3:0:0:0:
317,213,20947,2,0,L|215:205,1,94.2399962612306,4|0,3:0|0:0,0:0:0:0:
229,281,21421,2,0,L|135:288,1,94.2399962612306,8|0,3:0|0:0,0:0:0:0:
61,324,21894,2,0,L|52:258,1,47.1199981306153,10|2,0:2|3:2,0:0:0:0:
45,199,22210,5,6,3:2:0:0:
122,213,22368,2,0,L|179:196,1,47.1199981306153,2|0,0:2|1:0,0:0:0:0:
187,126,22684,2,0,P|232:106|294:119,1,94.2399962612306,10|2,3:2|0:2,0:0:0:0:
324,167,23157,2,0,P|361:171|379:162,1,47.1199981306153,8|0,0:0|3:0,0:0:0:0:
414,106,23473,2,0,L|435:213,1,94.2399962612306,6|0,3:2|1:0,0:0:0:0:
507,210,23947,2,0,L|486:317,1,94.2399962612306,14|0,3:2|0:0,0:0:0:0:
427,346,24421,2,0,L|363:344,1,47.1199981306153,10|0,0:2|3:0,0:0:0:0:
317,302,24736,6,0,P|277:292|209:308,1,94.2399962612306,6|0,3:2|1:0,0:0:0:0:
165,346,25210,2,0,P|119:358|111:359,2,47.1199981306153,8|0|2,3:0|0:0|0:2,0:0:0:0:
151,271,25684,2,0,L|144:224,1,47.1199981306153,10|0,0:2|0:0,0:0:0:0:
73,157,26000,6,0,P|113:139|131:137,1,47.1199981306153,2|0,1:2|1:0,0:0:0:0:
199,67,26315,2,0,P|221:73|241:85,1,47.1199981306153,0|0,1:0|1:0,0:0:0:0:
357,55,26631,2,0,P|381:90|389:111,1,47.1199981306153,0|2,1:0|1:2,0:0:0:0:
302,214,26947,1,10,0:2:0:0:
379,194,27105,1,0,1:0:0:0:
462,173,27263,6,0,P|457:245|474:332,1,155.040000946289,4|10,1:0|0:2,0:0:0:0:
365,295,27736,2,0,L|188:282,1,155.040000946289,0|2,1:0|1:2,0:0:0:0:
119,343,28210,2,0,L|28:352,1,77.5200004731445,8|0,0:0|3:0,0:0:0:0:
78,247,28526,2,0,B|95:133|95:133|48:84,1,155.040000946289,6|8,1:2|0:0,0:0:0:0:
167,66,29000,2,0,P|226:57|333:85,1,155.040000946289,2|0,1:2|1:0,0:0:0:0:
290,177,29473,2,0,P|231:168|185:170,1,77.5200004731445,10|0,0:2|3:0,0:0:0:0:
246,271,29789,6,0,P|330:276|382:216,1,155.040000946289,4|8,1:0|0:0,0:0:0:0:
454,152,30263,2,0,L|466:319,1,155.040000946289,0|0,1:0|1:0,0:0:0:0:
367,354,30736,1,10,0:2:0:0:
367,354,30894,1,2,0:2:0:0:
258,362,31052,2,0,L|155:343,1,77.5200004731445,2|0,1:2|3:0,0:0:0:0:
107,268,31368,1,8,0:0:0:0:
29,344,31526,2,0,P|-2:285|43:181,1,155.040000946289,2|2,3:2|3:2,0:0:0:0:
122,167,32000,2,0,P|168:185|191:218,1,77.5200004731445,8|10,0:0|0:2,0:0:0:0:
277,264,32315,6,0,B|329:266|329:266|428:179,1,155.040000946289,4|10,1:0|0:2,0:0:0:0:
482,119,32789,2,0,P|400:94|322:84,1,155.040000946289,0|2,1:0|1:2,0:0:0:0:
227,118,33263,2,0,P|170:122|123:122,1,77.5200004731445,8|0,0:0|3:0,0:0:0:0:
61,58,33578,2,0,P|69:130|76:236,1,155.040000946289,6|8,1:2|0:0,0:0:0:0:
43,311,34052,2,0,P|108:308|198:278,1,155.040000946289,2|0,1:2|1:0,0:0:0:0:
286,304,34526,2,0,P|323:311|362:310,1,77.5200004731445,10|0,0:2|3:0,0:0:0:0:
462,265,34842,6,0,P|391:271|335:186,1,155.040000946289,4|8,1:0|0:0,0:0:0:0:
385,115,35315,2,0,B|338:106|338:106|288:117|288:117|220:97,1,155.040000946289,0|0,1:0|1:0,0:0:0:0:
141,42,35789,1,10,0:2:0:0:
141,42,35947,1,2,0:2:0:0:
63,117,36105,2,0,L|82:223,1,77.5200004731445,2|0,1:2|3:0,0:0:0:0:
145,277,36421,1,8,0:0:0:0:
82,364,36578,2,0,P|155:362|260:339,1,155.040000946289,2|2,1:2|1:2,0:0:0:0:
319,276,37052,2,0,P|396:282|422:287,1,77.5200004731445,8|10,0:0|0:2,0:0:0:0:
483,347,37368,6,0,P|476:299|477:179,1,155.040000946289,4|10,1:0|0:2,0:0:0:0:
505,87,37842,2,0,P|462:114|344:75,1,155.040000946289,0|2,1:0|1:2,0:0:0:0:
278,28,38315,2,0,P|223:34|186:52,1,77.5200004731445,8|0,0:0|3:0,0:0:0:0:
154,140,38631,2,0,B|47:121|47:121|80:187,1,155.040000946289,6|8,1:2|0:0,0:0:0:0:
144,236,39105,2,0,L|300:203,1,155.040000946289,2|0,1:2|1:0,0:0:0:0:
387,204,39578,2,0,L|376:305,1,77.5200004731445,10|0,0:2|3:0,0:0:0:0:
469,341,39894,6,0,L|491:159,1,155.040000946289,4|8,1:0|0:0,0:0:0:0:
425,97,40368,2,0,B|379:116|379:116|252:56,1,155.040000946289,0|0,1:0|1:0,0:0:0:0:
189,16,40842,1,10,0:2:0:0:
189,16,41000,1,2,0:2:0:0:
113,93,41157,6,0,P|148:151|130:243,1,155.040000946289,14|0,0:2|1:0,0:0:0:0:
243,215,41631,2,0,P|219:272|138:320,1,155.040000946289,14|0,0:2|1:0,0:0:0:0:
53,281,42105,1,10,0:2:0:0:
269,346,42421,6,0,L|407:331,2,124.640001901855,6|2|0,1:2|0:0|0:0,0:0:0:0:
289,261,43210,1,2,0:0:0:0:
289,261,43368,1,2,0:0:0:0:
236,191,43526,2,0,P|280:172|361:212,2,124.640001901855,2|2|2,0:0|0:0|0:0,0:0:0:0:
107,309,44473,1,2,0:0:0:0:
50,242,44631,2,0,L|58:159,1,62.3200009509277,2|0,3:0|0:0,0:0:0:0:
114,114,44947,5,4,1:0:0:0:
256,192,45026,12,0,48263,0:0:0:0:
