osu file format v14

[General]
AudioFilename: friendsu.mp3
AudioLeadIn: 0
PreviewTime: 27184
Countdown: 0
SampleSet: Soft
StackLeniency: 0.7
Mode: 0
LetterboxInBreaks: 0
WidescreenStoryboard: 1

[Editor]
DistanceSpacing: 1.5
BeatDivisor: 4
GridSize: 4
TimelineZoom: 2.4

[Metadata]
Title:I'll Be There For You (TV Version)
TitleUnicode:I'll Be There For You (TV Version)
Artist:The Rembrandts
ArtistUnicode:The Rembrandts
Creator:Sotarks
Version:Expert
Source:Friends
Tags:Warner Channel Rachel Monica Phoebe Joey Chandler Ross opening op akitoshi corinn
BeatmapID:1263789
BeatmapSetID:597840

[Difficulty]
HPDrainRate:6.2
CircleSize:4
OverallDifficulty:8.8
ApproachRate:9
SliderMultiplier:1.92
SliderTickRate:1

[Events]
//Background and Video events
0,0,"BG.jpg",0,0
Video,0,"Video.avi"
//Break Periods
//Storyboard Layer 0 (Background)
//Storyboard Layer 1 (Fail)
//Storyboard Layer 2 (Pass)
//Storyboard Layer 3 (Foreground)
//Storyboard Sound Samples

[TimingPoints]
2000,315.789473684211,4,2,22,52,1,0
2000,-121.951219512195,4,2,22,52,0,0
7052,-108.695652173913,4,2,22,62,0,0
17157,-161.290322580645,4,2,22,62,0,0
26000,-161.290322580645,4,2,22,32,0,0
26315,-161.290322580645,4,2,22,42,0,0
26631,-161.290322580645,4,2,22,52,0,0
26947,-161.290322580645,4,2,22,62,0,0
27263,-98.0392156862745,4,2,22,72,0,1
42421,-121.951219512195,4,2,22,52,0,0
48263,-121.951219512195,4,2,22,5,0,0

[Colours]
Combo1 : 71,71,69
Combo2 : 141,61,61
Combo3 : 189,176,176
Combo4 : 55,91,45

[HitObjects]
164,181,2000,6,0,P|210:162|255:165,1,78.7200012011719,4|0,0:0|0:0,0:0:0:0:
377,241,2315,2,0,B|298:212|310:281|217:241,1,157.440002402344,2|0,0:0|0:0,0:0:0:0:
345,326,2789,1,2,0:0:0:0:
264,168,2947,1,2,0:0:0:0:
193,319,3105,2,0,L|111:326,1,78.7200012011719,2|0,0:0|0:0,0:0:0:0:
88,108,3421,2,0,B|132:136|154:180|154:180|150:240,1,157.440002402344,2|0,0:0|0:0,0:0:0:0:
215,90,3894,2,0,P|266:77|314:91,1,78.7200012011719,2|0,0:0|0:0,0:0:0:0:
338,211,4210,1,2,0:0:0:0:
374,42,4368,2,0,P|382:93|380:99,1,39.3600006005859,0|0,3:0|3:0,3:0:0:0:
264,168,4526,6,0,L|457:154,2,157.440002402344,4|0|2,1:0|3:0|0:0,0:0:0:0:
108,245,5315,1,2,0:0:0:0:
269,285,5473,1,2,0:0:0:0:
151,163,5631,2,0,P|181:210|191:243,1,78.7200012011719,2|0,0:0|0:0,0:0:0:0:
192,78,5947,2,0,P|206:152|173:256,1,157.440002402344,2|0,0:0|0:0,0:0:0:0:
269,285,6421,1,2,0:0:0:0:
151,163,6578,1,0,1:0:0:0:
331,104,6736,1,8,0:0:0:0:
331,343,6894,1,0,3:0:0:0:
295,191,7052,6,0,L|389:178,1,88.3199970351563,4|0,1:0|0:0,0:0:0:0:
477,311,7368,1,10,0:2:0:0:
443,113,7526,2,0,P|466:179|469:231,1,88.3199970351563,2|0,1:2|0:0,0:0:0:0:
403,326,7842,1,2,1:2:0:0:
333,108,8000,1,8,0:0:0:0:
393,226,8157,1,2,3:2:0:0:
248,111,8315,2,0,B|148:76|179:163|47:119,1,176.639994070313,0|10,1:0|0:2,0:0:0:0:
210,188,8789,2,0,P|226:273|231:315,1,88.3199970351563,2|0,1:2|0:0,0:0:0:0:
110,48,9105,1,2,1:2:0:0:
138,240,9263,1,8,0:0:0:0:
110,48,9421,1,0,3:0:0:0:
51,247,9578,6,0,P|94:251|138:239,1,88.3199970351563,2|2,1:2|0:0,0:0:0:0:
196,96,9894,1,10,0:0:0:0:
284,234,10052,2,0,P|220:278|126:215,1,176.639994070313,2|2,1:2|1:2,0:0:0:0:
310,147,10526,2,0,P|360:186|370:220,1,88.3199970351563,8|2,0:0|3:2,0:0:0:0:
212,118,10842,2,0,L|407:90,1,176.639994070313,2|8,1:2|0:0,0:0:0:0:
202,208,11315,1,0,1:0:0:0:
512,272,11473,1,8,2:0:0:0:
195,303,11631,1,8,2:0:0:0:
512,187,11789,1,8,2:0:0:0:
212,118,11947,2,0,P|268:129|289:146,1,44.1599985175782,8|0,2:0|3:0,0:0:0:0:
285,326,12105,6,0,P|289:263|173:215,1,176.639994070313,4|10,1:0|0:2,0:0:0:0:
408,308,12578,2,0,B|427:250|427:250|401:198|401:198|419:109,1,176.639994070313,2|0,1:2|1:0,0:0:0:0:
487,12,13052,1,10,0:2:0:0:
488,181,13210,1,2,3:2:0:0:
328,85,13368,2,0,B|289:72|255:88|255:88|210:140|139:105,1,176.639994070313,0|10,1:0|0:2,0:0:0:0:
280,244,13842,1,2,1:2:0:0:
189,35,14000,1,0,3:0:0:0:
302,165,14157,1,0,1:0:0:0:
106,44,14315,1,8,0:0:0:0:
328,85,14473,1,0,3:0:0:0:
24,28,14631,6,0,P|24:88|27:170,1,132.479995552735,2|0,1:2|0:0,0:0:0:0:
41,188,14947,1,10,0:2:0:0:
226,138,15105,2,0,P|299:125|334:127,1,88.3199970351563,0|2,1:0|0:2,0:0:0:0:
449,210,15421,1,2,1:2:0:0:
331,37,15578,2,0,P|397:92|406:104,1,88.3199970351563,8|2,0:0|3:2,0:0:0:0:
321,347,15894,2,0,B|280:255|359:270|306:162,1,176.639994070313,2|8,1:2|0:0,0:0:0:0:
84,209,16368,2,0,P|126:246|238:229,1,176.639994070313,0|0,1:0|1:0,0:0:0:0:
245,63,16842,1,8,0:0:0:0:
405,198,17000,5,0,3:0:0:0:
410,227,17078,1,0,3:0:0:0:
406,253,17157,2,0,P|340:241|273:241,1,119.039995277344,4|2,3:0|1:2,0:0:0:0:
210,327,17631,2,0,P|276:315|343:315,1,119.039995277344,10|2,3:2|0:2,0:0:0:0:
208,246,18105,2,0,P|157:262|146:275,1,59.519997638672,8|0,0:0|3:0,0:0:0:0:
110,337,18342,1,0,3:0:0:0:
110,337,18421,2,0,L|97:207,1,119.039995277344,6|2,3:2|1:2,0:0:0:0:
24,86,18894,2,0,L|12:204,1,119.039995277344,10|2,3:2|0:2,0:0:0:0:
103,130,19368,2,0,L|172:122,1,59.519997638672,8|0,0:0|3:0,0:0:0:0:
245,171,19605,5,0,3:0:0:0:
245,171,19684,2,0,P|289:181|356:134,1,119.039995277344,6|0,3:2|1:0,0:0:0:0:
425,31,20157,2,0,B|397:105|460:87|432:169,1,119.039995277344,10|0,3:2|0:0,0:0:0:0:
500,56,20631,1,8,0:0:0:0:
483,211,20789,2,0,P|444:226|434:229,1,29.759998819336,0|0,3:0|3:0,3:0:0:0:
301,105,20947,2,0,P|328:145|273:250,2,178.559992916016,4|8|10,3:0|3:0|0:2,0:0:0:0:
129,68,22052,2,0,P|107:96|105:101,1,29.759998819336,2|0,3:2|3:0,3:0:0:0:
95,239,22210,5,6,3:2:0:0:
33,66,22368,2,0,P|36:131|45:146,1,59.519997638672,2|0,0:2|1:0,0:0:0:0:
172,281,22684,2,0,P|174:216|143:160,1,119.039995277344,10|2,3:2|0:2,0:0:0:0:
100,320,23157,2,0,P|126:354|152:365,1,59.519997638672,8|0,0:0|3:0,0:0:0:0:
246,325,23394,1,0,3:0:0:0:
246,325,23473,2,0,L|374:314,1,119.039995277344,6|0,3:2|1:0,0:0:0:0:
481,225,23947,2,0,P|433:249|367:207,1,119.039995277344,14|0,3:2|0:0,0:0:0:0:
378,59,24421,2,0,P|404:92|413:116,1,59.519997638672,10|0,0:2|3:0,0:0:0:0:
311,128,24657,1,0,3:0:0:0:
311,128,24736,6,0,B|262:111|262:111|188:134,1,119.039995277344,6|0,3:2|1:0,0:0:0:0:
211,32,25210,2,0,P|159:50|92:103,1,119.039995277344,8|2,3:0|0:2,0:0:0:0:
71,5,25684,2,0,P|40:44|30:65,1,59.519997638672,10|0,0:2|0:0,0:0:0:0:
81,250,26000,5,2,1:2:0:0:
107,86,26157,1,0,1:0:0:0:
190,290,26315,1,0,1:0:0:0:
349,128,26473,1,0,1:0:0:0:
96,168,26631,1,0,1:0:0:0:
316,333,26789,1,2,1:2:0:0:
205,101,26947,1,10,0:2:0:0:
0,302,27105,1,0,1:0:0:0:
198,198,27263,6,0,B|295:159|289:250|404:190,1,195.840001195313,4|10,1:0|0:2,0:0:0:0:
430,76,27736,2,0,P|364:104|331:134,1,97.9200005976563,0|0,1:0|0:0,0:0:0:0:
242,271,28052,1,2,1:2:0:0:
237,46,28210,2,0,P|208:101|197:161,1,97.9200005976563,8|0,0:0|3:0,0:0:0:0:
287,348,28526,2,0,P|322:299|275:179,1,195.840001195313,6|8,1:2|0:0,0:0:0:0:
148,263,29000,2,0,P|165:326|207:359,1,97.9200005976563,2|0,1:2|0:0,0:0:0:0:
242,271,29315,1,0,1:0:0:0:
111,178,29473,2,0,P|64:227|60:273,1,97.9200005976563,10|0,0:2|3:0,0:0:0:0:
244,131,29789,6,0,B|354:87|335:181|464:127,1,195.840001195313,4|8,1:0|0:0,0:0:0:0:
246,41,30263,2,0,P|181:68|157:109,1,97.9200005976563,0|0,1:0|0:0,0:0:0:0:
304,200,30578,1,0,1:0:0:0:
391,60,30736,1,10,0:2:0:0:
364,269,30894,1,2,0:2:0:0:
315,94,31052,1,2,1:2:0:0:
282,304,31210,1,0,3:0:0:0:
384,160,31368,1,8,0:0:0:0:
426,331,31526,1,2,3:2:0:0:
464,111,31684,1,0,0:0:0:0:
448,231,31842,1,2,3:2:0:0:
391,60,32000,1,8,0:0:0:0:
364,269,32157,5,10,0:2:0:0:
364,269,32236,1,8,0:0:0:0:
364,269,32315,2,0,B|316:243|273:273|273:273|220:314|151:263,1,195.840001195313,4|10,1:0|0:2,0:0:0:0:
141,142,32789,2,0,P|212:188|232:230,1,97.9200005976563,0|0,1:0|0:0,0:0:0:0:
99,228,33105,1,2,1:2:0:0:
80,68,33263,2,0,P|137:54|192:65,1,97.9200005976563,8|0,0:0|3:0,0:0:0:0:
298,170,33578,2,0,P|230:204|136:111,1,195.840001195313,6|8,1:2|0:0,0:0:0:0:
328,88,34052,2,0,P|375:125|383:172,1,97.9200005976563,2|0,1:2|0:0,0:0:0:0:
351,301,34368,1,0,1:0:0:0:
437,68,34526,1,10,0:2:0:0:
471,201,34684,1,0,3:0:0:0:
328,88,34842,6,0,L|107:72,1,195.840001195313,4|8,1:0|0:0,0:0:0:0:
11,193,35315,2,0,L|118:182,1,97.9200005976563,0|0,1:0|0:0,0:0:0:0:
316,189,35631,1,0,1:0:0:0:
204,335,35789,1,10,0:2:0:0:
246,123,35947,1,2,0:2:0:0:
299,295,36105,1,2,1:2:0:0:
328,88,36263,1,0,3:0:0:0:
226,232,36421,1,8,0:0:0:0:
184,61,36579,1,2,1:2:0:0:
133,270,36737,1,0,3:0:0:0:
162,161,36895,1,2,1:2:0:0:
204,335,37053,1,8,0:0:0:0:
316,189,37210,5,10,0:2:0:0:
316,189,37289,1,8,0:0:0:0:
316,189,37368,2,0,B|467:184|467:184|394:232,1,195.840001195313,4|10,1:0|0:2,0:0:0:0:
276,105,37842,2,0,L|387:101,1,97.9200005976563,0|0,1:0|0:0,0:0:0:0:
475,297,38157,1,2,1:2:0:0:
456,72,38315,1,8,0:0:0:0:
432,206,38473,1,0,3:0:0:0:
316,21,38631,2,0,P|248:15|187:133,1,195.840001195313,6|8,1:2|0:0,0:0:0:0:
212,279,39105,2,0,P|237:217|237:182,2,97.9200005976563,2|0|0,1:2|0:0|1:0,0:0:0:0:
268,94,39578,1,10,0:2:0:0:
145,214,39736,1,0,3:0:0:0:
330,156,39894,6,0,B|456:141|456:141|425:222,1,195.840001195313,4|8,1:0|0:0,0:0:0:0:
168,135,40368,2,0,B|42:120|42:120|73:201,1,195.840001195313,0|0,1:0|1:0,0:0:0:0:
344,242,40842,1,10,0:2:0:0:
256,100,41000,1,2,0:2:0:0:
307,327,41157,6,0,P|371:334|427:221,1,195.840001195313,14|0,0:2|1:0,0:0:0:0:
175,44,41631,2,0,B|128:163|227:123|170:271,1,195.840001195313,14|0,0:2|1:0,0:0:0:0:
341,42,42105,1,10,0:2:0:0:
341,42,42421,6,0,P|359:94|365:132,1,78.7200012011719,6|0,1:2|0:0,0:0:0:0:
440,58,42736,2,0,P|451:129|435:218,1,157.440002402344,2|0,0:0|0:0,0:0:0:0:
316,314,43210,1,2,0:0:0:0:
419,294,43368,1,2,0:0:0:0:
293,237,43526,2,0,L|122:224,2,157.440002402344,2|2|2,0:0|0:0|0:0,0:0:0:0:
293,237,44473,1,2,0:0:0:0:
377,48,44631,2,0,P|387:111|382:148,1,78.7200012011719,2|0,3:0|0:0,0:0:0:0:
378,156,44868,1,0,3:0:0:0:
378,156,44947,5,4,1:0:0:0:
256,192,45026,12,0,48263,0:0:0:0:
