osu file format v14

[General]
AudioFilename: friendsu.mp3
AudioLeadIn: 0
PreviewTime: 27184
Countdown: 0
SampleSet: Soft
StackLeniency: 0.7
Mode: 0
LetterboxInBreaks: 0
WidescreenStoryboard: 1

[Editor]
DistanceSpacing: 1
BeatDivisor: 4
GridSize: 4
TimelineZoom: 2.4

[Metadata]
Title:I'll Be There For You (TV Version)
TitleUnicode:I'll Be There For You (TV Version)
Artist:The Rembrandts
ArtistUnicode:The Rembrandts
Creator:Sotarks
Version:Akitoshi's Normal
Source:Friends
Tags:Warner Channel Rachel Monica Phoebe Joey Chandler Ross opening op akitoshi corinn
BeatmapID:1265962
BeatmapSetID:597840

[Difficulty]
HPDrainRate:3
CircleSize:3
OverallDifficulty:4
ApproachRate:4.5
SliderMultiplier:1
SliderTickRate:1

[Events]
//Background and Video events
0,0,"BG.jpg",0,0
Video,0,"Video.avi"
//Break Periods
//Storyboard Layer 0 (Background)
//Storyboard Layer 1 (Fail)
//Storyboard Layer 2 (Pass)
//Storyboard Layer 3 (Foreground)
//Storyboard Sound Samples

[TimingPoints]
2000,315.789473684211,4,2,22,52,1,0
7052,-100,4,2,22,62,0,0
26000,-100,4,2,22,32,0,0
26315,-100,4,2,22,42,0,0
26631,-100,4,2,22,52,0,0
26947,-100,4,2,22,62,0,0
27263,-100,4,2,22,72,0,1
42421,-100,4,2,22,52,0,0
48263,-100,4,2,22,5,0,0

[Colours]
Combo1 : 71,71,69
Combo2 : 141,61,61
Combo3 : 189,176,176
Combo4 : 55,91,45

[HitObjects]
246,58,2000,5,4,0:0:0:0:
326,117,2315,2,0,P|398:126|504:50,2,200,2|2|0,0:0|0:0|0:0,0:0:0:0:
246,58,3894,2,0,P|193:30|136:35,1,100,2|2,0:0|0:0,0:0:0:0:
58,61,4526,5,4,1:0:0:0:
25,155,4842,2,0,B|12:294|12:294|28:358,2,200,0|2|0,3:0|0:0|0:0,0:0:0:0:
58,61,6421,2,0,P|103:51|166:65,1,100,2|8,0:0|0:0,0:0:0:0:
231,125,7052,6,0,L|393:106,2,150,4|2|8,1:0|1:2|0:0,0:0:0:0:
163,198,8315,2,0,L|1:179,2,150,0|2|8,1:0|1:2|0:0,0:0:0:0:
260,221,9578,6,0,P|271:285|233:367,2,150,2|2|8,1:2|1:2|0:0,0:0:0:0:
231,125,10842,2,0,P|270:95|334:90,1,100,2|8,1:2|0:0,0:0:0:0:
417,104,11473,1,8,2:0:0:0:
481,180,11789,1,8,2:0:0:0:
454,276,12105,6,0,P|391:305|309:272,2,150,4|2|10,1:0|1:2|0:2,0:0:0:0:
383,205,13368,2,0,B|360:155|360:155|376:50,2,150,0|2|8,1:0|1:2|0:0,0:0:0:0:
454,276,14631,6,0,P|413:301|341:297,1,100,2|10,1:2|0:2,0:0:0:0:
267,269,15263,2,0,L|155:282,1,100,2|8,0:2|0:0,0:0:0:0:
117,279,15736,2,0,B|93:221|93:221|106:125,1,150,2|8,3:2|0:0,0:0:0:0:
136,95,16368,2,0,P|167:107|276:65,1,150,0|8,1:0|0:0,0:0:0:0:
360,23,17157,6,0,P|416:31|471:111,2,150,4|10|8,3:0|3:2|0:0,0:0:0:0:
374,122,18421,2,0,L|385:292,2,150,6|10|8,3:2|3:2|0:0,0:0:0:0:
281,83,19684,6,0,P|233:97|167:88,1,100,6|0,3:2|1:0,0:0:0:0:
145,61,20157,2,0,L|136:223,1,150,10|8,3:2|0:0,0:0:0:0:
182,300,20947,2,0,P|230:286|296:295,1,100,4|0,3:0|0:0,0:0:0:0:
315,324,21421,2,0,L|469:304,1,150,8|10,3:0|0:2,0:0:0:0:
496,210,22210,6,0,P|502:139|442:72,2,150,6|10|8,3:2|3:2|0:0,0:0:0:0:
405,167,23473,2,0,B|358:149|358:149|254:164,2,150,6|14|10,3:2|3:2|0:2,0:0:0:0:
496,210,24736,6,0,L|484:325,1,100,6|0,3:2|1:0,0:0:0:0:
443,336,25210,1,8,3:0:0:0:
400,363,25368,2,0,L|285:351,1,100,0|10,0:0|0:2,0:0:0:0:
200,342,26000,1,2,1:2:0:0:
115,288,26315,1,0,1:0:0:0:
104,189,26631,1,0,1:0:0:0:
174,118,26947,1,10,0:2:0:0:
273,130,27263,6,0,P|349:136|424:87,2,150,4|0|8,1:0|1:0|0:0,0:0:0:0:
211,50,28526,2,0,L|50:41,2,150,6|2|10,1:2|1:2|0:2,0:0:0:0:
273,130,29789,6,0,B|283:179|283:179|271:238,1,100,4|8,1:0|0:0,0:0:0:0:
260,276,30263,2,0,P|301:258|366:268,1,100,0|0,1:0|1:0,0:0:0:0:
402,277,30736,1,10,0:2:0:0:
495,312,31052,2,0,P|499:257|476:210,1,100,2|8,1:2|0:0,0:0:0:0:
442,185,31526,2,0,L|431:86,1,100,2|2,3:2|3:2,0:0:0:0:
428,35,32000,1,8,0:0:0:0:
330,23,32315,6,0,P|267:43|228:116,2,150,4|0|8,1:0|1:0|0:0,0:0:0:0:
324,122,33578,2,0,B|319:213|319:213|331:284,2,150,6|2|10,1:2|1:2|0:2,0:0:0:0:
330,23,34842,6,0,L|208:30,1,100,4|8,1:0|0:0,0:0:0:0:
200,68,35315,2,0,L|91:61,1,100,0|0,1:0|1:0,0:0:0:0:
49,60,35789,1,10,0:2:0:0:
15,154,36105,2,0,P|10:205|28:253,1,100,2|8,1:2|0:0,0:0:0:0:
58,288,36578,2,0,B|105:272|105:272|160:278,1,100,2|2,1:2|1:2,0:0:0:0:
204,284,37052,1,8,0:0:0:0:
304,282,37368,6,0,L|291:126,2,150,4|0|8,1:0|1:0|0:0,0:0:0:0:
362,363,38631,2,0,P|418:359|487:282,2,150,6|2|10,1:2|1:2|0:2,0:0:0:0:
304,282,39894,6,0,L|199:294,1,100,4|8,1:0|0:0,0:0:0:0:
156,308,40368,2,0,P|129:265|127:203,1,100,0|0,1:0|1:0,0:0:0:0:
133,167,40842,1,10,0:2:0:0:
182,80,41157,2,0,L|292:75,1,100,14|0,0:2|1:0,0:0:0:0:
318,41,41631,2,0,L|428:46,1,100,14|0,0:2|1:0,0:0:0:0:
453,80,42105,1,10,0:2:0:0:
464,179,42421,6,0,P|441:237|308:272,1,200,6|0,1:2|0:0,0:0:0:0:
239,214,43368,1,2,0:0:0:0:
202,179,43526,2,0,L|96:173,2,100,2|2|2,0:0|0:0|0:0,0:0:0:0:
268,103,44473,2,0,L|374:97,1,100,2|0,0:0|0:0,0:0:0:0:
418,94,44947,5,4,1:0:0:0:
256,192,45105,12,0,48263,0:0:0:0:
