osu file format v14

[General]
AudioFilename: frens.mp3
AudioLeadIn: 0
PreviewTime:25467
Countdown: 0
SampleSet: Normal
StackLeniency: 0.7
Mode: 1
LetterboxInBreaks: 0
WidescreenStoryboard: 1

[Editor]
Bookmarks: 297,5335,10398,15437,20489,23021,25546,30585,35627,40702,43400,45781
DistanceSpacing: 1.5
BeatDivisor: 4
GridSize: 32
TimelineZoom: 1.7

[Metadata]
Title:I'll Be There For You (TV Size)
TitleUnicode:I'll Be There For You (TV Size)
Artist:The Rembrandts
ArtistUnicode:The Rembrandts
Creator:Hivie
Version:Muzukashii
Source:Friends
Tags:Warner Bros Brian Kauffman Crane Channel Rachel Monica Phoebe Joey Chandler Ross Opening op Pop English
BeatmapID:2304203
BeatmapSetID:1102998

[Difficulty]
HPDrainRate:7
CircleSize:3
OverallDifficulty:5
ApproachRate:9
SliderMultiplier:1.4
SliderTickRate:1

[Events]
//Background and Video events
0,0,"bg.jpg",0,70
//Break Periods
//Storyboard Layer 0 (Background)
//Storyboard Layer 1 (Fail)
//Storyboard Layer 2 (Pass)
//Storyboard Layer 3 (Foreground)
//Storyboard Layer 4 (Overlay)
//Storyboard Sound Samples

[TimingPoints]
297,315.789473684211,4,1,0,70,1,0
297,-133.333333333333,4,1,0,70,0,0
1560,312.5,4,1,0,70,1,0
1560,-135.208220659816,4,1,0,70,0,0
2653,372.670807453416,4,1,0,70,1,8
2653,-107.515320933233,4,1,0,70,0,8
2839,314.96062992126,4,1,0,70,1,0
2839,-133.797163500134,4,1,0,70,0,0
4557,315.789473684211,4,1,0,70,1,8
4557,-133.333333333333,4,1,0,70,0,8
5346,315.789473684211,4,1,0,70,1,0
5346,-133.333333333333,4,1,0,70,0,0
5661,-125,4,1,0,70,0,0
7872,314.13612565445,4,1,0,80,1,0
7872,-125.817815802718,4,1,0,80,0,0
10385,312.5,4,1,0,80,1,0
10385,-126.646403242148,4,1,0,80,0,0
12885,320.855614973262,4,1,0,80,1,0
12885,-122.549019607843,4,1,0,80,0,0
14168,315.789473684211,4,1,0,80,1,0
14168,-125,4,1,0,80,0,0
16694,319.148936170213,4,1,0,80,1,0
16694,-123.365408339502,4,1,0,80,0,0
17970,317.460317460317,4,1,0,80,1,0
17970,-124.177325220415,4,1,0,80,0,0
19239,312.5,4,1,0,80,1,0
19239,-126.646403242148,4,1,0,80,0,0
20489,315.789473684211,4,1,0,80,1,0
20489,-125,4,1,0,80,0,0
21752,317.460317460318,4,1,0,80,1,0
21752,-124.177325220415,4,1,0,80,0,0
23021,314.136125654451,4,1,0,80,1,0
23021,-125.817815802718,4,1,0,80,0,0
24277,317.460317460318,4,1,0,80,1,0
24277,-124.177325220415,4,1,0,80,0,0
25546,314.136125654451,4,1,0,90,1,1
25546,-125.817815802718,4,1,0,90,0,1
25860,-125.817815802718,4,1,0,90,0,1
26802,315.78947368421,4,1,0,90,1,1
26802,-111.111111111111,4,1,0,90,0,1
27749,336.134453781513,4,1,0,90,1,9
27749,-103.691414350892,4,1,0,90,0,9
28085,304.568527918782,4,1,0,90,1,1
28085,-115.673799884326,4,1,0,90,0,1
28694,320.855614973262,4,1,0,90,1,9
28694,-109.170305676856,4,1,0,90,0,9
29335,312.5,4,1,0,90,1,1
29335,-112.410071942446,4,1,0,90,0,1
30585,310.880829015544,4,1,0,90,1,1
30585,-113.058224985868,4,1,0,90,0,1
31828,316.622691292876,4,1,0,90,1,1
31828,-110.791048083315,4,1,0,90,0,1
35627,313.31592689295,4,1,0,90,1,1
35627,-112.082492714638,4,1,0,90,0,1
36880,315.78947368421,4,1,0,90,1,1
36880,-111.111111111111,4,1,0,90,0,1
38143,320.855614973262,4,1,0,90,1,1
38143,-109.170305676856,4,1,0,90,0,1
39426,319.148936170212,4,1,0,90,1,1
39426,-109.817702613661,4,1,0,90,0,1
40702,317.460317460317,4,1,0,80,1,0
40702,-124.177325220415,4,1,0,80,0,0

[Colours]
Combo1 : 182,182,182
Combo2 : 133,171,191

[HitObjects]
256,192,297,5,4,0:0:0:0:
256,192,612,1,8,0:0:0:0:
256,192,928,1,8,0:0:0:0:
256,192,1402,1,0,0:0:0:0:
256,192,1716,1,0,0:0:0:0:
256,192,2028,1,0,0:0:0:0:
256,192,2185,1,8,0:0:0:0:
256,192,2497,1,0,0:0:0:0:
256,192,2839,1,0,0:0:0:0:
256,192,3153,1,8,0:0:0:0:
256,192,3468,1,8,0:0:0:0:
256,192,3941,1,0,0:0:0:0:
256,192,4256,1,0,0:0:0:0:
256,192,4557,1,0,0:0:0:0:
256,192,4714,1,8,0:0:0:0:
256,192,5030,1,8,0:0:0:0:
256,192,5188,1,8,0:0:0:0:
256,192,5346,1,4,0:0:0:0:
256,192,5661,1,0,0:0:0:0:
256,192,5819,1,8,0:0:0:0:
256,192,5977,1,0,0:0:0:0:
256,192,6135,1,8,0:0:0:0:
256,192,6451,1,8,0:0:0:0:
256,192,6924,1,8,0:0:0:0:
256,192,7082,1,0,0:0:0:0:
256,192,7398,1,0,0:0:0:0:
256,192,7872,1,8,0:0:0:0:
256,192,8029,1,0,0:0:0:0:
256,192,8186,1,0,0:0:0:0:
256,192,8343,1,8,0:0:0:0:
256,192,8657,1,8,0:0:0:0:
256,192,8971,1,8,0:0:0:0:
256,192,9128,1,0,0:0:0:0:
256,192,9442,1,8,0:0:0:0:
256,192,9756,1,8,0:0:0:0:
256,192,9913,1,8,0:0:0:0:
256,192,10070,1,8,0:0:0:0:
256,192,10228,1,8,0:0:0:0:
256,192,10385,1,0,0:0:0:0:
256,192,10697,1,0,0:0:0:0:
256,192,10853,1,8,0:0:0:0:
256,192,11322,1,0,0:0:0:0:
256,192,11478,1,8,0:0:0:0:
256,192,11635,1,0,0:0:0:0:
256,192,11947,1,0,0:0:0:0:
256,192,12103,1,8,0:0:0:0:
256,192,12416,1,0,0:0:0:0:
256,192,12572,1,0,0:0:0:0:
256,192,12885,1,8,0:0:0:0:
256,192,13205,1,8,0:0:0:0:
256,192,13526,1,8,0:0:0:0:
256,192,13687,1,0,0:0:0:0:
256,192,14007,1,0,0:0:0:0:
256,192,14168,1,8,0:0:0:0:
256,192,14483,1,8,0:0:0:0:
256,192,14641,1,8,0:0:0:0:
256,192,14957,1,8,0:0:0:0:
256,192,15115,1,8,0:0:0:0:
256,192,15273,1,8,0:0:0:0:
256,192,15431,1,0,0:0:0:0:
256,192,15746,1,0,0:0:0:0:
256,192,15904,1,8,0:0:0:0:
256,192,16220,1,0,0:0:0:0:
256,192,16536,1,8,0:0:0:0:
256,192,16694,1,0,0:0:0:0:
256,192,17172,1,8,0:0:0:0:
256,192,17491,1,8,0:0:0:0:
256,192,17651,1,0,0:0:0:0:
256,192,17970,1,0,0:0:0:0:
256,192,18128,1,0,0:0:0:0:
256,192,18446,1,8,0:0:0:0:
256,192,18763,1,0,0:0:0:0:
256,192,18922,1,0,0:0:0:0:
256,192,19081,1,8,0:0:0:0:
256,192,19239,1,8,0:0:0:0:
256,192,19551,1,0,0:0:0:0:
256,192,19707,1,8,0:0:0:0:
256,192,19864,1,0,0:0:0:0:
256,192,20176,1,8,0:0:0:0:
256,192,20332,1,0,0:0:0:0:
256,192,20489,1,8,0:0:0:0:
256,192,20962,1,8,0:0:0:0:
256,192,21278,1,0,0:0:0:0:
256,192,21594,1,8,0:0:0:0:
256,192,21752,1,8,0:0:0:0:
256,192,22228,1,0,0:0:0:0:
256,192,22545,1,8,0:0:0:0:
256,192,22704,1,0,0:0:0:0:
256,192,22863,1,0,0:0:0:0:
256,192,23021,1,8,0:0:0:0:
256,192,23335,1,0,0:0:0:0:
256,192,23492,1,8,0:0:0:0:
256,192,23963,1,8,0:0:0:0:
256,192,24120,1,0,0:0:0:0:
256,192,24277,1,8,0:0:0:0:
256,192,24594,1,8,0:0:0:0:
256,192,24753,1,0,0:0:0:0:
256,192,24911,1,8,0:0:0:0:
256,192,25229,1,8,0:0:0:0:
256,192,25388,1,8,0:0:0:0:
256,192,25546,1,4,0:0:0:0:
256,192,25860,1,8,0:0:0:0:
256,192,26331,1,8,0:0:0:0:
256,192,26488,1,0,0:0:0:0:
256,192,26802,1,8,0:0:0:0:
256,192,27275,1,8,0:0:0:0:
256,192,27749,1,8,0:0:0:0:
256,192,27917,1,8,0:0:0:0:
256,192,28085,1,0,0:0:0:0:
256,192,28389,1,8,0:0:0:0:
256,192,28694,1,0,0:0:0:0:
256,192,29014,1,8,0:0:0:0:
256,192,29175,1,0,0:0:0:0:
256,192,29335,1,8,0:0:0:0:
256,192,29647,1,0,0:0:0:0:
256,192,29803,1,8,0:0:0:0:
256,192,30116,1,8,0:0:0:0:
256,192,30272,1,0,0:0:0:0:
256,192,30428,1,8,0:0:0:0:
256,192,30585,1,0,0:0:0:0:
256,192,30895,1,8,0:0:0:0:
256,192,31362,1,0,0:0:0:0:
256,192,31517,1,8,0:0:0:0:
256,192,31828,1,8,0:0:0:0:
256,192,32302,1,8,0:0:0:0:
256,192,32777,1,8,0:0:0:0:
256,192,32936,1,0,0:0:0:0:
256,192,33094,1,8,0:0:0:0:
256,192,33411,1,8,0:0:0:0:
256,192,33727,1,8,0:0:0:0:
256,192,34044,1,0,0:0:0:0:
256,192,34202,1,8,0:0:0:0:
256,192,34360,1,8,0:0:0:0:
256,192,34677,1,0,0:0:0:0:
256,192,34835,1,8,0:0:0:0:
256,192,35152,1,8,0:0:0:0:
256,192,35310,1,0,0:0:0:0:
256,192,35469,1,8,0:0:0:0:
256,192,35627,1,0,0:0:0:0:
256,192,35940,1,8,0:0:0:0:
256,192,36410,1,8,0:0:0:0:
256,192,36566,1,0,0:0:0:0:
256,192,36880,1,8,0:0:0:0:
256,192,37353,1,8,0:0:0:0:
256,192,37827,1,8,0:0:0:0:
256,192,37985,1,0,0:0:0:0:
256,192,38143,1,8,0:0:0:0:
256,192,38463,1,8,0:0:0:0:
256,192,38784,1,0,0:0:0:0:
256,192,39105,1,8,0:0:0:0:
256,192,39265,1,0,0:0:0:0:
256,192,39426,1,8,0:0:0:0:
256,192,39745,1,0,0:0:0:0:
256,192,39904,1,8,0:0:0:0:
256,192,40223,1,0,0:0:0:0:
256,192,40383,1,0,0:0:0:0:
256,192,40702,1,4,0:0:0:0:
256,192,41019,1,8,0:0:0:0:
256,192,41336,1,8,0:0:0:0:
256,192,41813,1,8,0:0:0:0:
256,192,42130,1,8,0:0:0:0:
256,192,42448,1,8,0:0:0:0:
256,192,42765,1,8,0:0:0:0:
256,192,42924,1,0,0:0:0:0:
256,192,43241,1,8,0:0:0:0:
256,192,43400,12,0,45781,0:0:0:0:
