osu file format v14

[General]
AudioFilename: audio.mp3
AudioLeadIn: 0
PreviewTime: 32038
Countdown: 0
SampleSet: Soft
StackLeniency: 0.5
Mode: 0
LetterboxInBreaks: 0
WidescreenStoryboard: 1

[Editor]
DistanceSpacing: 1.1
BeatDivisor: 8
GridSize: 16
TimelineZoom: 1.600001

[Metadata]
Title:National Anthem Of The USSR
TitleUnicode:National Anthem Of The USSR
Artist:The Red Army Choir
ArtistUnicode:The Red Army Choir
Creator:Arf
Version:Recruit
Source:
Tags:rfandomization state russian union soviet socialist republics cccp Государственный гимн Советского Союза Gosudarstvenny gimn Sovetskogo Soyuza alexandrov ensemble communism communist Славься Отечество наше свободное slav'sya slavsya otechestvo nashe svobodnoye
BeatmapID:1814875
BeatmapSetID:866493

[Difficulty]
HPDrainRate:3
CircleSize:3
OverallDifficulty:3
ApproachRate:4
SliderMultiplier:1.6
SliderTickRate:1

[Events]
//Background and Video events
0,0,"reichstag.jpg",0,0
//Break Periods
//Storyboard Layer 0 (Background)
//Storyboard Layer 1 (Fail)
//Storyboard Layer 2 (Pass)
//Storyboard Layer 3 (Foreground)
//Storyboard Sound Samples

[TimingPoints]
1393,813.559322033898,4,2,1,45,1,0
5460,808.080808080808,4,2,1,45,1,0
10308,833.333333333333,4,2,1,45,1,0
11133,-100,4,2,1,45,0,0
11141,909.090909090909,4,2,1,45,1,0
11595,759.493670886076,4,2,1,45,1,0
11974,797.34219269103,4,2,1,45,1,0
12771,828.15734989648,4,2,1,45,1,0
13599,824.742268041237,4,2,1,45,1,0
15248,827.586206896552,4,2,1,45,1,0
16075,824.742268041237,4,2,1,45,1,0
16487,866.425992779783,4,2,1,45,1,0
16920,821.917808219178,4,2,1,45,1,0
17741,1111.11111111111,4,2,1,30,1,0
18296,865.176640230714,4,2,1,45,1,0
18728,816.326530612245,4,2,1,45,1,0
20360,827.586206896552,4,2,1,45,1,0
21187,-100,4,2,1,45,0,0
22015,821.917808219178,4,2,1,45,1,0
22836,833.333333333333,4,2,1,45,1,0
24502,923.076923076923,4,2,1,45,1,0
24963,720.720720720721,4,2,1,45,1,0
25323,821.917808219178,4,2,1,45,1,0
27788,952.380952380952,4,2,1,45,1,0
28264,691.64265129683,4,2,1,45,1,0
28609,863.309352517986,4,2,1,45,1,0
30335,-71.4285714285714,4,2,1,45,0,0
31198,960,4,2,1,50,1,0
32158,895.522388059701,4,2,1,65,1,0
32161,-100,4,2,1,65,0,0
33053,779.220779220779,4,2,1,65,1,0
33832,839.160839160839,4,2,1,65,1,0
35510,836.236933797909,4,2,1,65,1,0
37182,857.142857142857,4,2,1,65,1,0
37610,-100,4,2,1,45,0,0
38893,-100,4,2,1,65,0,0
38896,863.309352517986,4,2,1,65,1,0
40622,800,4,2,1,65,1,0
41422,842.105263157895,4,2,1,65,1,0
43948,857.142857142857,4,2,1,65,1,0
43948,-100,4,2,1,45,0,0
45233,923.076923076923,4,2,1,45,1,0
45694,882.352941176471,4,2,1,45,1,0
45694,-83.3333333333333,4,2,1,45,0,0
47458,895.522388059701,4,2,1,45,1,0
49249,882.352941176471,4,2,1,45,1,0
51013,967.741935483871,4,2,1,45,1,0
52948,916.030534351145,4,2,1,70,1,0
54780,863.309352517986,4,2,1,70,1,1
56506,952.380952380952,4,2,1,70,1,1
57458,882.352941176471,4,2,1,70,1,1
57458,-100,4,2,1,65,0,1
58340,895.522388059701,4,2,1,70,1,1
60131,923.076923076923,4,2,1,65,1,1
61054,839.160839160839,4,2,1,70,1,1
61893,895.522388059701,4,2,1,70,1,1
63684,902.255639097744,4,2,1,70,1,1
65488,956.175298804781,4,2,1,70,1,1
66444,933.852140077821,4,2,1,70,1,1
66444,-100,4,2,1,65,0,0
67377,937.5,4,2,1,70,1,1
67377,-100,4,2,1,65,0,1
69252,1021.27659574468,4,2,1,70,1,1
71294,1054.48154657294,4,2,1,70,1,1
71296,-100,4,2,1,65,0,1
73271,-100,4,2,1,65,0,0
73402,1403.50877192982,4,2,1,70,1,1
73402,-83.3333333333333,4,2,1,65,0,1
74630,-100,4,2,1,65,0,0
74805,1500,4,2,1,70,1,1
74805,-83.3333333333333,4,2,1,70,0,1
76117,-100,4,2,1,65,0,0
76305,1481.48148148148,4,2,1,70,1,1
76305,-100,4,2,1,65,0,1
80193,-100,4,2,1,45,0,0

[Colours]
Combo1 : 162,0,0
Combo2 : 255,0,0

[HitObjects]
256,89,1393,5,4,0:0:0:0:
256,192,1799,12,0,3630,0:0:0:0:
73,72,5054,5,2,0:0:0:0:
145,115,5460,2,0,P|154:151|144:205,1,80,8|0,0:0|0:0,0:0:0:0:
119,274,6268,2,0,L|241:282,1,120,2|0,0:0|0:0,0:0:0:0:
277,309,7076,2,0,P|272:227|318:153,1,160,8|2,0:0|0:0,0:0:0:0:
385,119,8288,1,0,0:0:0:0:
307,77,8692,6,0,B|267:68|267:68|212:76,1,80,8|0,0:0|0:0,0:0:0:0:
154,130,9500,2,0,P|171:185|156:256,1,120,2|2,0:0|0:0,0:0:0:0:
133,281,10308,2,0,P|154:346|216:309,1,160,8|0,0:0|0:0,0:0:0:0:
241,226,11595,1,2,0:0:0:0:
304,165,11974,6,0,L|397:158,1,80,8|0,0:0|0:0,0:0:0:0:
455,104,12771,1,2,0:0:0:0:
374,71,13185,1,2,0:0:0:0:
287,81,13599,2,0,P|208:91|145:36,1,160,8|0,0:0|0:0,0:0:0:0:
59,34,14836,1,2,0:0:0:0:
93,118,15248,6,0,P|104:151|106:206,1,80,8|0,0:0|0:0,0:0:0:0:
57,269,16075,1,2,0:0:0:0:
88,354,16487,1,2,0:0:0:0:
179,366,16920,2,0,B|224:380|255:353|255:353|293:376|342:346,1,160,10|8,0:0|0:0,0:0:0:0:
278,235,18296,1,2,0:0:0:0:
338,170,18728,6,0,P|420:146|492:172,1,160,4|2,0:0|0:0,0:0:0:0:
511,254,19952,1,0,0:0:0:0:
487,337,20360,2,0,P|411:360|326:330,1,160,6|0,0:0|0:0,0:0:0:0:
282,267,21601,1,2,0:0:0:0:
202,228,22015,6,0,L|109:234,1,80,12|0,0:0|0:0,0:0:0:0:
49,186,22836,2,0,P|34:129|54:72,1,120,4|0,0:0|0:0,0:0:0:0:
78,36,23669,2,0,B|154:64|154:64|244:45,1,160,12|0,0:0|0:0,0:0:0:0:
343,50,24963,1,2,0:0:0:0:
305,130,25323,6,0,P|295:190|367:262,1,160,8|2,0:0|0:0,0:0:0:0:
440,280,26555,1,2,0:0:0:0:
488,211,26966,2,0,P|498:151|431:78,1,160,8|2,0:0|0:0,0:0:0:0:
324,43,28264,1,2,0:0:0:0:
296,123,28609,6,0,B|250:125|250:125|220:139|220:139|161:141,1,120,8|0,0:0|0:0,0:0:0:0:
147,170,29472,2,0,P|167:205|156:290,1,120,8|0,0:0|0:0,0:0:0:0:
129,326,30335,2,0,B|249:321,1,111.999996582031,8|2,0:0|0:0,0:0:0:0:
318,291,31198,1,2,0:0:0:0:
395,316,31678,1,10,0:0:0:0:
455,257,32158,6,0,L|448:163,1,80,6|0,0:0|0:0,0:0:0:0:
390,108,33053,2,0,P|330:108|265:25,1,160,6|4,0:0|0:0,0:0:0:0:
184,9,34251,1,0,0:0:0:0:
122,69,34671,2,0,L|128:157,1,80,4|0,0:0|0:0,0:0:0:0:
158,230,35510,6,0,B|232:212|232:212|328:224,1,160,4|6,0:0|0:0,0:0:0:0:
359,298,36764,1,0,0:0:0:0:
277,323,37182,2,0,B|236:316|236:316|187:330,2,80,4|2|2,0:0|0:0|0:0,0:0:0:0:
355,367,38467,1,2,0:0:0:0:
433,324,38896,6,0,L|426:242,1,80,6|0,0:0|0:0,0:0:0:0:
339,212,39759,2,0,L|349:51,1,160,6|4,0:0|0:0,0:0:0:0:
433,29,41022,1,0,0:0:0:0:
494,93,41422,1,4,0:0:0:0:
438,161,41843,1,0,0:0:0:0:
352,136,42264,6,0,P|285:145|210:200,1,160,4|6,0:0|0:0,0:0:0:0:
175,274,43527,1,0,0:0:0:0:
125,206,43948,2,0,B|115:166|115:166|127:124,1,80,8|2,0:0|0:0,0:0:0:0:
150,45,44805,1,2,0:0:0:0:
65,62,45233,1,2,0:0:0:0:
21,136,45694,6,0,P|34:171|24:242,1,95.9999970703126,8|0,0:0|0:0,0:0:0:0:
91,295,46576,2,0,P|132:296|185:327,1,95.9999970703126,8|0,0:0|0:0,0:0:0:0:
226,347,47238,1,0,0:0:0:0:
264,324,47458,2,0,L|255:219,1,80,8|0,0:0|0:0,0:0:0:0:
185,189,48353,1,8,0:0:0:0:
266,70,49025,5,0,0:0:0:0:
301,45,49249,2,0,L|388:49,1,80,8|0,0:0|0:0,0:0:0:0:
449,106,50131,1,8,0:0:0:0:
391,167,50572,1,8,0:0:0:0:
458,222,51013,2,0,P|448:333|339:332,1,240,4|0,0:0|0:0,0:0:0:0:
285,266,52948,6,2,B|229:237|177:257|177:257|115:211|140:146,1,240,6|0,0:0|0:0,0:0:0:0:
175,69,54780,2,0,L|264:74,2,80,4|2|6,0:0|0:0|0:0,0:0:0:0:
90,80,56074,1,2,0:0:0:0:
141,151,56506,6,2,P|150:195|70:280,1,160,6|2,0:0|0:0,0:0:0:0:
29,342,57899,1,2,0:0:0:0:
114,354,58340,2,0,B|152:349|152:349|192:360,1,80,4|0,0:0|0:0,0:0:0:0:
257,301,59235,2,0,B|252:262|252:262|263:222,1,80,4|0,0:0|0:0,0:0:0:0:
306,152,60131,6,2,P|387:144|434:71,1,160,6|4,0:0|0:0,0:0:0:0:
216,32,61893,2,0,B|176:26|176:26|137:35,1,80,4|2,0:0|0:0,0:0:0:0:
94,54,62564,1,2,0:0:0:0:
74,92,62788,1,6,0:0:0:0:
127,155,63236,1,2,0:0:0:0:
70,216,63684,6,2,L|85:385,1,160,6|0,0:0|0:0,0:0:0:0:
172,351,65037,1,2,0:0:0:0:
212,323,65262,1,2,0:0:0:0:
259,334,65488,2,0,P|329:343|404:272,1,160,4|0,0:0|0:0,0:0:0:0:
447,115,67377,6,0,L|348:111,1,80,4|0,0:0|0:0,0:0:0:0:
284,141,68314,1,6,0:0:0:0:
204,103,68783,1,2,0:0:0:0:
126,138,69252,2,0,L|27:134,1,80,4|0,0:0|0:0,0:0:0:0:
13,214,70273,2,0,B|-1:271|-1:271|16:333,1,120,4|2,0:0|0:0,0:0:0:0:
60,354,71294,6,2,B|187:269|187:269|215:223|215:223|247:265|247:265|271:301,1,280,6|0,0:0|0:0,0:0:0:0:
337,328,73402,2,2,B|351:266|351:266|402:266|438:223,1,143.999995605469,6|0,0:0|0:0,0:0:0:0:
464,151,74805,2,2,P|465:104|391:24,1,143.999995605469,6|0,0:0|0:0,0:0:0:0:
304,17,76305,5,6,0:0:0:0:
256,192,76860,12,6,80193,0:0:0:0:
