osu file format v14

[General]
AudioFilename: audio.mp3
AudioLeadIn: 0
PreviewTime: 32038
Countdown: 0
SampleSet: Soft
StackLeniency: 0.4
Mode: 0
LetterboxInBreaks: 0
WidescreenStoryboard: 1

[Editor]
DistanceSpacing: 1.6
BeatDivisor: 8
GridSize: 16
TimelineZoom: 1.100001

[Metadata]
Title:National Anthem Of The USSR
TitleUnicode:National Anthem Of The USSR
Artist:The Red Army Choir
ArtistUnicode:The Red Army Choir
Creator:Arf
Version:Hardened
Source:
Tags:rfandomization state russian union soviet socialist republics cccp Государственный гимн Советского Союза Gosudarstvenny gimn Sovetskogo Soyuza alexandrov ensemble communism communist Славься Отечество наше свободное slav'sya slavsya otechestvo nashe svobodnoye
BeatmapID:1941630
BeatmapSetID:866493

[Difficulty]
HPDrainRate:4.5
CircleSize:3.5
OverallDifficulty:7
ApproachRate:8
SliderMultiplier:3.2
SliderTickRate:1

[Events]
//Background and Video events
0,0,"reichstag.jpg",0,0
//Break Periods
//Storyboard Layer 0 (Background)
//Storyboard Layer 1 (Fail)
//Storyboard Layer 2 (Pass)
//Storyboard Layer 3 (Foreground)
//Storyboard Sound Samples

[TimingPoints]
1393,813.559322033898,4,2,1,45,1,0
5460,808.080808080808,4,2,1,45,1,0
10308,833.333333333333,4,2,1,45,1,0
11141,909.090909090909,4,2,1,45,1,0
11141,-100,4,2,1,45,0,0
11595,759.493670886076,4,2,1,45,1,0
11974,797.34219269103,4,2,1,45,1,0
12771,828.15734989648,4,2,1,45,1,0
13599,824.742268041237,4,2,1,45,1,0
15248,827.586206896552,4,2,1,45,1,0
16075,824.742268041237,4,2,1,45,1,0
16075,-66.6666666666667,4,2,1,45,0,0
16384,-66.6666666666667,4,2,1,5,0,0
16487,866.425992779783,4,2,1,45,1,0
16487,-62.5,4,2,1,45,0,0
16811,-62.5,4,2,1,5,0,0
16920,821.917808219178,4,2,1,45,1,0
16920,-58.8235294117647,4,2,1,45,0,0
17741,1111.11111111111,4,2,1,30,1,0
18296,865.176640230714,4,2,1,45,1,0
18728,816.326530612245,4,2,1,45,1,0
18728,-52.6315789473684,4,2,1,45,0,0
19544,-58.8235294117647,4,2,1,45,0,0
20360,827.586206896552,4,2,1,45,1,0
20360,-52.6315789473684,4,2,1,45,0,0
21187,-58.8235294117647,4,2,1,45,0,0
22015,821.917808219178,4,2,1,45,1,0
22015,-58.8235294117647,4,2,1,45,0,0
22836,833.333333333333,4,2,1,45,1,0
22836,-58.8235294117647,4,2,1,45,0,0
24502,923.076923076923,4,2,1,45,1,0
24963,720.720720720721,4,2,1,45,1,0
25323,821.917808219178,4,2,1,45,1,0
25323,-71.4285714285714,4,2,1,45,0,0
27788,952.380952380952,4,2,1,45,1,0
27788,-66.6666666666667,4,2,1,45,0,0
28264,691.64265129683,4,2,1,45,1,0
28264,-76.9230769230769,4,2,1,45,0,0
28609,863.309352517986,4,2,1,45,1,0
28609,-55.5555555555556,4,2,1,45,0,0
31198,960,4,2,1,50,1,0
31198,-47.6190476190476,4,2,1,50,0,0
31678,-43.4782608695652,4,2,1,50,0,0
32158,895.522388059701,4,2,1,65,1,0
32158,-47.6190476190476,4,2,1,65,0,0
33053,779.220779220779,4,2,1,65,1,0
33053,-66.6666666666667,4,2,1,65,0,0
33832,839.160839160839,4,2,1,65,1,0
33832,-66.6666666666667,4,2,1,65,0,0
34146,-66.6666666666667,4,2,1,5,0,0
34251,-66.6666666666667,4,2,1,65,0,0
34566,-66.6666666666667,4,2,1,5,0,0
34671,-66.6666666666667,4,2,1,65,0,0
34985,-66.6666666666667,4,2,1,5,0,0
35090,-66.6666666666667,4,2,1,65,0,0
35405,-66.6666666666667,4,2,1,5,0,0
35510,836.236933797909,4,2,1,65,1,0
35510,-62.5,4,2,1,65,0,0
37182,857.142857142857,4,2,1,65,1,0
37182,-66.6666666666667,4,2,1,65,0,0
37610,-66.6666666666667,4,2,1,45,0,0
38039,-62.5,4,2,1,45,0,0
38467,-58.8235294117647,4,2,1,45,0,0
38893,-100,4,2,1,65,0,0
38896,863.309352517986,4,2,1,65,1,0
38896,-52.6315789473684,4,2,1,65,0,0
40622,800,4,2,1,65,1,0
40622,-66.6666666666667,4,2,1,65,0,0
40922,-66.6666666666667,4,2,1,5,0,0
41022,-66.6666666666667,4,2,1,65,0,0
41322,-66.6666666666667,4,2,1,5,0,0
41422,842.105263157895,4,2,1,65,1,0
41422,-66.6666666666667,4,2,1,65,0,0
41737,-66.6666666666667,4,2,1,5,0,0
41843,-66.6666666666667,4,2,1,65,0,0
42158,-66.6666666666667,4,2,1,5,0,0
42264,-66.6666666666667,4,2,1,65,0,0
43948,857.142857142857,4,2,1,65,1,0
43948,-100,4,2,1,45,0,0
44376,-66.6666666666667,4,2,1,45,0,0
44805,-62.5,4,2,1,45,0,0
45233,923.076923076923,4,2,1,45,1,0
45233,-58.8235294117647,4,2,1,45,0,0
45694,882.352941176471,4,2,1,45,1,0
45694,-66.6666666666667,4,2,1,45,0,0
47458,895.522388059701,4,2,1,45,1,0
47458,-66.6666666666667,4,2,1,45,0,0
49249,882.352941176471,4,2,1,45,1,0
49249,-66.6666666666667,4,2,1,45,0,0
51013,967.741935483871,4,2,1,45,1,0
51013,-62.5,4,2,1,65,0,0
52948,916.030534351145,4,2,1,70,1,0
52948,-47.6190476190476,4,2,1,70,0,0
54780,863.309352517986,4,2,1,70,1,1
54780,-58.8235294117647,4,2,1,70,0,1
55211,-66.6666666666667,4,2,1,70,0,1
56506,952.380952380952,4,2,1,70,1,1
56506,-45.4545454545455,4,2,1,70,0,1
57458,882.352941176471,4,2,1,70,1,1
57458,-52.6315789473684,4,2,1,70,0,1
58340,895.522388059701,4,2,1,70,1,1
58340,-52.6315789473684,4,2,1,70,0,1
60131,923.076923076923,4,2,1,65,1,1
60131,-47.6190476190476,4,2,1,65,0,1
61054,839.160839160839,4,2,1,70,1,1
61054,-58.8235294117647,4,2,1,70,0,1
61893,895.522388059701,4,2,1,70,1,1
63684,902.255639097744,4,2,1,70,1,1
63684,-50,4,2,1,70,0,1
65488,956.175298804781,4,2,1,70,1,1
65488,-47.6190476190476,4,2,1,70,0,1
66444,933.852140077821,4,2,1,70,1,1
66444,-100,4,2,1,65,0,0
67377,937.5,4,2,1,70,1,1
67377,-55.5555555555556,4,2,1,65,0,1
69252,1021.27659574468,4,2,1,70,1,1
69252,-52.6315789473684,4,2,1,70,0,1
71294,1054.48154657294,4,2,1,70,1,1
71294,-80.6451612903226,4,2,1,65,0,1
73271,-100,4,2,1,65,0,0
73402,1403.50877192982,4,2,1,70,1,1
73402,-66.6666666666667,4,2,1,65,0,1
74630,-100,4,2,1,65,0,0
74805,1500,4,2,1,70,1,1
74805,-55.5555555555556,4,2,1,65,0,1
76117,-100,4,2,1,65,0,0
76305,1481.48148148148,4,2,1,70,1,1
76305,-120.481927710843,4,2,1,65,0,1
80193,-100,4,2,1,45,0,0

[Colours]
Combo1 : 162,0,0
Combo2 : 255,0,0

[HitObjects]
256,60,1393,5,4,0:0:0:0:
256,192,1596,12,0,3630,0:0:0:0:
85,92,5054,5,2,0:0:0:0:
85,92,5460,2,0,P|68:138|212:215,1,240,8|0,0:0|0:0,0:0:0:0:
352,205,6268,2,0,P|306:221|320:318,1,160,2|0,0:0|0:0,0:0:0:0:
421,365,6874,1,0,0:0:0:0:
445,178,7076,2,0,P|388:121|307:120,1,160,8|0,0:0|0:0,0:0:0:0:
153,207,7884,1,2,0:0:0:0:
210,11,8288,1,0,0:0:0:0:
346,64,8490,1,0,0:0:0:0:
346,64,8591,1,0,0:0:0:0:
346,64,8692,6,0,P|364:118|208:193,1,240,8|0,0:0|0:0,0:0:0:0:
111,193,9500,2,0,P|166:246|152:321,1,160,2|0,0:0|0:0,0:0:0:0:
254,359,10106,1,2,0:0:0:0:
324,218,10308,2,0,P|333:106|289:209,1,320,8|0,0:0|0:0,0:0:0:0:
289,209,11595,1,2,0:0:0:0:
403,315,11784,1,2,0:0:0:0:
429,309,11879,1,0,0:0:0:0:
455,303,11974,6,0,B|467:202|467:202|430:152|430:152|443:45,1,240,8|0,0:0|0:0,0:0:0:0:
325,29,12771,2,0,L|184:46,1,120,2|0,0:0|0:0,0:0:0:0:
119,91,13185,2,0,L|238:76,1,120,2|0,0:0|0:0,0:0:0:0:
335,148,13599,2,0,P|220:183|336:171,1,320,8|0,0:0|0:0,0:0:0:0:
491,348,14836,1,2,0:0:0:0:
337,304,15042,1,2,0:0:0:0:
337,304,15145,1,0,0:0:0:0:
337,304,15248,6,0,P|262:290|174:329,1,160,8|0,0:0|0:0,0:0:0:0:
68,370,15868,1,0,0:0:0:0:
108,222,16075,2,0,P|150:168|73:109,1,180.000006866455,2|0,0:0|0:0,0:0:0:0:
131,224,16487,2,0,P|167:143|94:92,1,192,2|0,0:0|0:0,0:0:0:0:
166,220,16920,2,0,P|198:138|108:82,1,204.000003890991,10|0,0:0|0:0,0:0:0:0:
51,30,17330,2,0,P|21:119|102:169,1,204.000003890991,8|0,0:0|0:0,0:0:0:0:
250,238,17741,2,0,L|242:274,6,20,8|0|0|0|0|0|0,0:0|0:0|0:0|0:0|0:0|0:0|0:0,0:0:0:0:
273,202,18296,2,0,P|321:173|393:176,1,120,2|0,0:0|0:0,0:0:0:0:
512,115,18728,6,0,B|537:179|461:272|461:272|366:104|457:-8,1,455.999987823487,4|0,0:0|0:0,0:0:0:0:
309,65,19544,2,0,P|227:64|169:27,1,136.000002593994,2|0,0:0|0:0,0:0:0:0:
180,204,19952,2,0,P|240:174|307:177,1,136.000002593994
391,321,20360,2,0,B|316:264|253:349|135:406|106:328,1,303.999991882324,6|0,0:0|0:0,0:0:0:0:
34,262,20980,1,0,0:0:0:0:
34,262,21187,2,0,P|91:235|168:245,1,136.000002593994,0|0,0:0|0:0,0:0:0:0:
290,222,21601,2,0,P|233:249|156:239,1,136.000002593994,2|0,0:0|0:0,0:0:0:0:
72,36,22015,6,0,B|143:12|235:62|235:62|324:207|453:115,1,408.000007781983,12|0,0:0|0:0,0:0:0:0:
352,49,22836,2,0,P|319:145|477:230,1,272.000005187988,4|0,0:0|0:0,0:0:0:0:
433,128,23461,1,0,0:0:0:0:
241,133,23669,2,0,B|172:144|124:193|124:193|202:221|210:296|193:347|157:380|116:390|71:383|36:378|12:343|-5:303|12:248,1,544.000010375977,12|0,0:0|0:0,0:0:0:0:
7,274,24963,1,2,0:0:0:0:
134,200,25143,1,0,0:0:0:0:
134,200,25233,1,0,0:0:0:0:
134,200,25323,6,0,B|192:177|234:205|234:205|301:252|372:206,1,223.999993164063,8|0,0:0|0:0,0:0:0:0:
449,148,25939,1,0,0:0:0:0:
347,219,26144,2,0,P|328:292|347:349,1,111.999996582031,2|0,0:0|0:0,0:0:0:0:
460,255,26555,2,0,P|467:199|448:147,1,111.999996582031,2|0,0:0|0:0,0:0:0:0:
272,65,26966,2,0,P|372:96|429:8,1,223.999993164063,8|0,0:0|0:0,0:0:0:0:
343,11,27583,1,0,0:0:0:0:
336,183,27788,2,0,B|367:262|293:296|293:296|303:355,1,180.000006866455,2|0,0:0|0:0,0:0:0:0:
374,374,28264,2,0,P|300:353|225:371,1,155.999992858887,2|0,0:0|0:0,0:0:0:0:
126,311,28609,6,0,P|263:235|106:242,1,431.999986816407,8|0,0:0|0:0,0:0:0:0:
161,103,29472,2,0,P|293:144|338:289,1,287.999991210938,8|0,0:0|0:0,0:0:0:0:
274,371,30119,1,0,0:0:0:0:
414,227,30335,2,0,P|376:126|294:54,1,215.999993408203,8|0,0:0|0:0,0:0:0:0:
213,174,30767,2,0,P|303:168|259:255,1,215.999993408203,2|0,0:0|0:0,0:0:0:0:
202,159,31198,2,0,P|322:179|263:275,1,251.999992309571,2|0,0:0|0:0,0:0:0:0:
194,142,31678,2,0,P|331:171|279:291,1,276.000005264282,10|0,0:0|0:0,0:0:0:0:
452,365,32158,6,0,B|353:346|319:256|347:189|394:142|394:142|493:103|466:3|466:3|417:28,1,503.999984619141,6|0,0:0|0:0,0:0:0:0:
336,60,33053,2,0,P|164:145|117:24,1,360.000013732911,6|0,0:0|0:0,0:0:0:0:
44,118,33832,2,0,P|84:201|74:306,1,180.000006866455,4|0,0:0|0:0,0:0:0:0:
106,152,34251,2,0,P|121:242|83:340,1,180.000006866455,0|0,0:0|0:0,0:0:0:0:
167,190,34671,2,0,P|156:281|92:365,1,180.000006866455,4|0,0:0|0:0,0:0:0:0:
221,243,35090,2,0,P|185:327|100:390,1,180.000006866455,0|0,0:0|0:0,0:0:0:0:
286,358,35510,6,0,P|318:279|384:227,1,170.666666666667,4|0,0:0|0:0,0:0:0:0:
472,149,35928,2,0,L|445:57,3,85.3333333333333,2|2|2|6,0:0|0:0|0:0|0:0,0:0:0:0:
107,45,36764,1,0,0:0:0:0:
198,96,36973,1,0,0:0:0:0:
198,96,37077,1,0,0:0:0:0:
198,96,37182,2,0,P|162:166|173:272,1,180.000006866455,4|0,0:0|0:0,0:0:0:0:
263,322,37610,2,0,P|332:278|291:205,1,180.000006866455,2|0,0:0|0:0,0:0:0:0:
278,338,38039,2,0,P|350:287|281:194,1,192,2|0,0:0|0:0,0:0:0:0:
300,348,38467,2,0,P|380:298|323:197,1,204.000003890991,2|0,0:0|0:0,0:0:0:0:
248,131,38896,6,0,B|281:20|406:-18|406:-18|512:76|482:216,1,455.999987823487,6|0,0:0|0:0,0:0:0:0:
456,298,39759,2,0,B|359:194|248:307|142:409|26:269,1,455.999987823487,6|0,0:0|0:0,0:0:0:0:
27,186,40622,2,0,P|110:146|215:156,1,180.000006866455,4|0,0:0|0:0,0:0:0:0:
61,124,41022,2,0,P|151:109|249:147,1,180.000006866455,0|0,0:0|0:0,0:0:0:0:
99,63,41422,2,0,P|190:74|274:138,1,180.000006866455,4|0,0:0|0:0,0:0:0:0:
152,9,41843,2,0,P|236:45|299:130,1,180.000006866455,0|0,0:0|0:0,0:0:0:0:
453,108,42264,6,0,P|369:72|315:-5,1,160.000006103516,4|0,0:0|0:0,0:0:0:0:
358,168,42685,2,0,L|350:253,3,80.0000030517579,2|2|2|6,0:0|0:0|0:0|0:0,0:0:0:0:
123,329,43527,1,0,0:0:0:0:
389,329,43948,1,8,0:0:0:0:
221,148,44376,2,0,P|179:202|256:261,1,180.000006866455,2|0,0:0|0:0,0:0:0:0:
198,146,44805,2,0,P|162:227|235:278,1,192,2|0,0:0|0:0,0:0:0:0:
166,144,45233,2,0,P|134:226|224:282,1,204.000003890991,2|0,0:0|0:0,0:0:0:0:
328,315,45694,6,0,B|385:249|474:275|474:275|552:174|461:89,1,360.000013732911,8|0,0:0|0:0,0:0:0:0:
331,65,46576,2,0,P|264:100|363:116,1,240.000009155274,8|0,0:0|0:0,0:0:0:0:
429,48,47238,1,0,0:0:0:0:
368,224,47458,2,0,P|208:181|230:18,1,360.000013732911,8|0,0:0|0:0,0:0:0:0:
311,113,48353,1,8,0:0:0:0:
311,113,49025,1,0,0:0:0:0:
230,18,49249,6,0,P|208:181|368:224,1,360.000013732911,8|2,0:0|0:0,0:0:0:0:
474,295,50131,2,0,P|404:292|350:315,1,120.000004577637,8|0,0:0|0:0,0:0:0:0:
356,116,50572,2,0,P|412:135|471:130,1,120.000004577637,8|0,0:0|0:0,0:0:0:0:
312,14,51013,2,0,B|245:28|206:86|208:142|231:197|266:226|325:227|325:227|309:358|309:358|271:336|271:336|238:352|238:352|204:336|204:336|181:349|181:349|148:335|148:335|117:350|117:350|86:337|86:337|51:352|51:352|15:339,1,768,4|0,0:0|0:0,0:0:0:0:
2,12,52948,6,0,B|74:-17|164:4|219:74|229:142|219:208|210:259|210:259|276:176|371:158|371:158|451:232|426:396,1,839.999974365235,6|0,0:0|0:0,0:0:0:0:
512,229,54322,2,0,P|461:127|492:-3,1,251.999992309571,2|0,0:0|0:0,0:0:0:0:
399,13,54780,2,0,B|184:2,1,181.333336791992,4|0,0:0|0:0,0:0:0:0:
115,34,55211,2,0,B|126:72|126:72|117:111,2,80.0000030517579,2|2|2,0:0|0:0|0:0,0:0:0:0:
85,186,55643,2,0,P|79:257|129:376,1,180.000006866455,6|0,0:0|0:0,0:0:0:0:
198,344,56074,2,0,P|204:273|154:154,1,180.000006866455,2|0,0:0|0:0,0:0:0:0:
79,91,56506,6,0,B|100:54|171:32|171:32|235:48|304:112|304:112|360:48|421:35|421:35|476:55|525:102,1,528.000016113282,6|0,0:0|0:0,0:0:0:0:
442,212,57458,2,0,P|366:237|451:237,1,227.999993911743,2|0,0:0|0:0,0:0:0:0:
366,242,57899,2,0,B|295:191|196:344|129:230,1,227.999993911743,2|0,0:0|0:0,0:0:0:0:
197,188,58340,2,0,P|235:265|75:280,1,303.999991882324,4|0,0:0|0:0,0:0:0:0:
78,36,59123,1,0,0:0:0:0:
112,20,59235,2,0,B|192:32|192:32|253:82|253:82|320:87|320:87|291:143|295:207|336:265|471:252,1,455.999987823487,4|0,0:0|0:0,0:0:0:0:
414,147,60131,6,0,P|321:194|339:333,1,251.999992309571,6|0,0:0|0:0,0:0:0:0:
400,369,60592,2,0,B|453:384|453:384|521:367,2,111.999996582031,2|2|2,0:0|0:0|0:0,0:0:0:0:
247,331,61054,2,0,B|177:312|177:312|106:330,1,136.000002593994,6|0,0:0|0:0,0:0:0:0:
74,368,61368,2,0,L|65:287,1,68.0000012969971,2|0,0:0|0:0,0:0:0:0:
11,249,61578,2,0,L|18:316,1,68.0000012969971,2|0,0:0|0:0,0:0:0:0:
88,162,61893,1,4,0:0:0:0:
88,162,62340,1,2,0:0:0:0:
235,180,62564,1,2,0:0:0:0:
382,198,62788,1,6,0:0:0:0:
88,162,63236,1,2,0:0:0:0:
293,72,63684,6,0,B|359:13|437:26|437:26|455:129|357:164|357:164|282:251|314:309|314:309|389:329|458:260,1,640,6|0,0:0|0:0,0:0:0:0:
447,270,65037,1,2,0:0:0:0:
300,288,65262,1,2,0:0:0:0:
153,306,65488,2,0,B|77:169|183:20|183:20|279:136|228:260,1,503.999984619141,4|0,0:0|0:0,0:0:0:0:
300,288,66444,2,0,L|331:295,12,20,0|0|0|0|0|0|0|0|0|0|0|0|0,0:0|0:0|0:0|0:0|0:0|0:0|0:0|0:0|0:0|0:0|0:0|0:0|0:0,0:0:0:0:
365,322,67377,6,0,B|470:245|447:45|447:45|438:97|386:165,1,431.999986816407,4|0,0:0|0:0,0:0:0:0:
309,178,68197,1,0,0:0:0:0:
309,178,68314,2,0,B|217:178|181:123|181:123|230:73|266:93,1,215.999993408203,6|0,0:0|0:0,0:0:0:0:
322,100,68783,2,0,B|343:95|381:64|381:64|345:9|225:8,1,215.999993408203,2|0,0:0|0:0,0:0:0:0:
172,21,69252,2,0,B|119:95|45:89|45:89|-39:185|74:274,1,303.999991882324,4|0,0:0|0:0,0:0:0:0:
417,334,70273,2,0,B|502:242|456:120|456:120|330:128|276:269,1,455.999987823487,4|2,0:0|0:0,0:0:0:0:
216,186,71294,6,2,B|191:131|191:131|237:82|237:82|174:67|174:67|128:15|128:15|95:70|95:70|30:97|30:97|80:140|80:140|79:217|79:217|140:171|140:171|210:209,1,694.399972451173,6|2,0:0|0:0,0:0:0:0:
328,101,73402,2,0,B|386:65|482:72|482:72|381:172|503:277,1,360.000013732911,6|0,0:0|0:0,0:0:0:0:
408,321,74805,6,2,B|202:134|202:134|244:91|244:91|213:97|213:97|142:168|142:168|155:180|155:180|176:160,1,503.999984619141,6|0,0:0|0:0,0:0:0:0:
74,349,76305,2,2,B|141:262|141:262|192:306|279:348|356:334|413:277|444:214|433:134|414:80|370:37|286:7,1,697.200010106507,6|4,0:0|0:0,0:0:0:0:
