osu file format v14

[General]
AudioFilename: Killer - The Ready Set (lyrics) (1).mp3
AudioLeadIn: 0
PreviewTime: 34752
Countdown: 1
SampleSet: Soft
StackLeniency: 0.7
Mode: 0
LetterboxInBreaks: 0
WidescreenStoryboard: 1

[Editor]
DistanceSpacing: 1
BeatDivisor: 4
GridSize: 4
TimelineZoom: 1

[Metadata]
Title:Killer
TitleUnicode:Killer
Artist:The Ready Set
ArtistUnicode:The Ready Set
Creator:Uchihas Madara
Version:Extra
Source:
Tags:
BeatmapID:835417
BeatmapSetID:380432

[Difficulty]
HPDrainRate:7
CircleSize:4
OverallDifficulty:8
ApproachRate:9
SliderMultiplier:3.29999990463257
SliderTickRate:1

[Events]
//Background and Video events
0,0,"BG.jpg",0,0
//Break Periods
2,54151,64752
//Storyboard Layer 0 (Background)
//Storyboard Layer 1 (Fail)
//Storyboard Layer 2 (Pass)
//Storyboard Layer 3 (Foreground)
//Storyboard Sound Samples

[TimingPoints]
1152.42857142857,600,4,2,0,20,1,0
34752,-90.9090909090909,4,2,0,20,0,1
44052,-100,4,2,0,20,0,0
44352,-90.9090909090909,4,2,0,20,0,1
53952,-100,4,2,0,20,0,0
89952,-90.9090909090909,4,2,0,20,0,1
99252,-100,4,2,0,20,0,0
99552,-90.9090909090909,4,2,0,20,0,1
109152,-100,4,2,0,20,0,0
118752,-125,4,2,0,20,0,0
142752,-100,4,2,0,20,0,0
152352,-90.9090909090909,4,2,0,20,0,1
161952,-100,4,2,0,20,0,0

[Colours]
Combo1 : 128,128,128
Combo2 : 0,118,236
Combo3 : 255,79,79
Combo4 : 0,95,140
Combo5 : 147,255,255
Combo6 : 255,6,131
Combo7 : 192,192,192

[HitObjects]
120,104,1152,5,0,0:0:0:0:
188,152,1302,1,0,0:0:0:0:
264,120,1452,1,0,0:0:0:0:
332,164,1602,1,0,0:0:0:0:
384,228,1752,2,0,L|316:288,2,82.4999976158143
268,112,2352,5,0,0:0:0:0:
196,148,2502,1,0,0:0:0:0:
168,228,2652,1,0,0:0:0:0:
332,228,2952,5,0,0:0:0:0:
332,228,3252,1,0,0:0:0:0:
224,100,3552,5,0,0:0:0:0:
148,132,3702,1,0,0:0:0:0:
68,120,3852,1,0,0:0:0:0:
20,188,4002,1,0,0:0:0:0:
64,260,4152,1,0,0:0:0:0:
132,308,4302,2,0,P|244:316|264:308,2,82.4999976158143
120,168,4752,5,0,0:0:0:0:
188,124,4902,1,0,0:0:0:0:
252,176,5052,1,0,0:0:0:0:
76,56,5352,37,0,0:0:0:0:
76,56,5652,1,0,0:0:0:0:
276,92,5952,5,0,0:0:0:0:
244,168,6102,1,0,0:0:0:0:
280,244,6252,1,0,0:0:0:0:
264,324,6402,1,0,0:0:0:0:
184,340,6552,2,0,P|264:324|292:284,2,82.4999976158143
292,216,7152,5,0,0:0:0:0:
284,300,7302,1,0,0:0:0:0:
216,244,7452,1,0,0:0:0:0:
436,324,7752,5,0,0:0:0:0:
436,324,8052,1,0,0:0:0:0:
256,192,8352,12,0,9852,0:0:0:0:
256,200,10152,5,0,0:0:0:0:
80,88,10452,1,0,0:0:0:0:
256,200,10752,1,0,0:0:0:0:
424,76,11052,1,0,0:0:0:0:
428,160,11202,1,0,0:0:0:0:
408,240,11352,2,0,P|356:308|260:348,1,164.999995231629
84,192,11952,38,0,L|208:192,2,82.4999976158143
232,44,12552,2,0,L|400:44,1,164.999995231629
80,164,13152,1,0,0:0:0:0:
144,216,13302,1,0,0:0:0:0:
212,264,13452,2,0,P|292:280|328:268,1,82.4999976158143
216,144,13752,6,0,P|300:168|352:164,1,82.4999976158143
312,60,14052,2,0,P|392:96|416:116,1,82.4999976158143
452,144,14352,1,0,0:0:0:0:
104,324,14802,1,0,0:0:0:0:
104,324,14952,1,0,0:0:0:0:
372,136,15252,1,0,0:0:0:0:
104,324,15552,1,0,0:0:0:0:
284,88,16002,5,0,0:0:0:0:
364,100,16152,2,0,P|428:152|404:232,1,164.999995231629
344,272,16602,1,0,0:0:0:0:
264,284,16752,2,0,P|208:228|233:153,1,164.999995231629
85,79,17202,2,0,L|269:171,1,164.999995231629
108,320,17652,2,0,P|240:328|308:308,1,164.999995231629
268,140,18102,5,0,0:0:0:0:
336,188,18252,1,0,0:0:0:0:
404,232,18402,1,0,0:0:0:0:
472,276,18552,2,0,P|496:356|432:380,2,164.999995231629
400,80,19452,5,0,0:0:0:0:
332,124,19602,1,0,0:0:0:0:
256,156,19752,1,0,0:0:0:0:
360,296,19902,1,0,0:0:0:0:
192,192,20052,1,0,0:0:0:0:
412,248,20202,1,0,0:0:0:0:
144,244,20352,1,0,0:0:0:0:
144,244,20802,37,0,0:0:0:0:
244,336,20952,6,0,L|456:336,1,164.999995231629
244,336,21402,1,0,0:0:0:0:
79,336,21552,2,0,L|267:336,1,164.999995231629
79,336,22002,1,0,0:0:0:0:
244,336,22152,2,0,L|243:152,1,164.999995231629
96,56,22752,5,0,0:0:0:0:
224,172,22902,1,0,0:0:0:0:
32,208,23052,1,0,0:0:0:0:
112,36,23202,1,0,0:0:0:0:
244,184,23352,1,0,0:0:0:0:
460,56,23652,5,0,0:0:0:0:
416,124,23802,1,0,0:0:0:0:
352,180,23952,2,0,P|291:228|206:249,1,164.999995231629
128,276,24402,1,0,0:0:0:0:
328,300,24552,1,0,0:0:0:0:
112,344,24702,1,0,0:0:0:0:
360,236,24852,1,0,0:0:0:0:
203,245,25152,1,0,0:0:0:0:
88,72,25752,6,0,L|268:124,1,164.999995231629
88,72,26202,1,0,0:0:0:0:
88,72,26352,2,0,L|256:168,1,164.999995231629
88,72,26802,2,0,L|240:208,1,164.999995231629
84,264,27252,38,0,P|192:288|216:280,1,82.4999976158143
232,124,27552,2,0,P|320:132|372:156,1,82.4999976158143
480,212,27852,2,0,P|468:296|456:312,1,82.4999976158143
200,224,28152,2,0,P|208:316|216:328,1,82.4999976158143
272,348,28452,1,0,0:0:0:0:
356,352,28602,1,0,0:0:0:0:
256,176,28752,6,0,L|256:352,2,164.999995231629
20,188,29652,5,0,0:0:0:0:
256,176,29952,6,0,L|256:8,2,164.999995231629
256,192,31152,12,0,33852,0:0:0:0:
256,192,34002,5,0,0:0:0:0:
256,12,34152,1,0,0:0:0:0:
256,288,34302,1,0,0:0:0:0:
260,16,34452,1,0,0:0:0:0:
88,312,34752,37,0,0:0:0:0:
444,244,35352,1,0,0:0:0:0:
88,176,35952,1,0,0:0:0:0:
268,152,36252,1,0,0:0:0:0:
424,56,36552,1,0,0:0:0:0:
64,104,37152,5,0,0:0:0:0:
96,312,37452,6,0,P|292:300|312:288,2,181.500000293732
408,192,38352,2,0,P|296:212|216:256,1,181.500000293732
60,44,38952,2,0,P|100:148|116:252,1,181.500000293732
252,336,39552,1,0,0:0:0:0:
108,128,39852,5,0,0:0:0:0:
212,184,40002,1,0,0:0:0:0:
328,172,40152,1,0,0:0:0:0:
300,288,40302,1,0,0:0:0:0:
44,52,40752,5,0,0:0:0:0:
152,96,40902,1,0,0:0:0:0:
112,208,41052,1,0,0:0:0:0:
204,280,41202,1,0,0:0:0:0:
256,80,41352,38,0,L|256:284,1,181.500000293732
72,80,41802,37,0,0:0:0:0:
140,140,41952,2,0,P|296:224|320:232,1,181.500000293732
52,156,42552,6,0,P|168:224|176:228,1,90.7500001468659
64,32,42852,2,0,L|172:88,1,90.7500001468659
384,180,43152,2,0,L|280:236,1,90.7500001468659
400,52,43452,2,0,L|272:128,1,90.7500001468659
172,212,43752,37,0,0:0:0:0:
432,280,44052,1,0,0:0:0:0:
96,316,44352,5,0,0:0:0:0:
388,104,44952,1,0,0:0:0:0:
64,272,45552,1,0,0:0:0:0:
220,180,45852,1,0,0:0:0:0:
384,260,46152,1,0,0:0:0:0:
80,64,46752,5,0,0:0:0:0:
360,128,47052,6,0,P|360:220|320:312,1,181.500000293732
148,316,47652,1,0,0:0:0:0:
72,144,47952,1,0,0:0:0:0:
428,96,48252,1,0,0:0:0:0:
96,232,48552,1,0,0:0:0:0:
364,32,48852,1,0,0:0:0:0:
168,300,49152,1,0,0:0:0:0:
84,136,49452,5,0,0:0:0:0:
312,64,49602,1,0,0:0:0:0:
316,276,49752,1,0,0:0:0:0:
24,40,50352,37,0,0:0:0:0:
84,272,50502,1,0,0:0:0:0:
288,96,50652,1,0,0:0:0:0:
456,44,51402,5,0,0:0:0:0:
404,120,51552,2,0,P|280:224|204:264,1,181.500000293732
56,48,52152,2,0,P|128:164|184:200,1,181.500000293732
464,332,52752,2,0,P|344:304|280:252,1,181.500000293732
256,36,53352,6,0,L|256:256,2,181.500000293732
120,276,65352,5,0,0:0:0:0:
352,80,65652,1,0,0:0:0:0:
184,324,65952,2,0,P|312:340|340:324,1,164.999995231629
216,232,66552,2,0,L|340:244,1,82.4999976158143
72,92,66852,2,0,L|164:100,1,82.4999976158143
432,64,67152,6,0,L|384:184,1,82.4999976158143
480,276,67452,2,0,L|440:376,1,82.4999976158143
432,64,67752,2,0,L|412:200,1,82.4999976158143
380,316,68052,38,0,P|300:340|276:336,1,82.4999976158143
220,328,68352,1,0,0:0:0:0:
148,288,68502,1,0,0:0:0:0:
88,232,68652,1,0,0:0:0:0:
56,156,68802,1,0,0:0:0:0:
88,232,68952,2,0,P|176:252|248:228,1,164.999995231629
432,76,69552,5,0,0:0:0:0:
264,264,69852,1,0,0:0:0:0:
372,56,70002,1,0,0:0:0:0:
324,284,70152,1,0,0:0:0:0:
308,48,70302,1,0,0:0:0:0:
388,288,70452,1,0,0:0:0:0:
244,56,70602,1,0,0:0:0:0:
452,276,70752,5,0,0:0:0:0:
128,152,71202,5,0,0:0:0:0:
44,152,71352,2,0,P|76:292|92:308,1,164.999995231629
308,208,71952,2,0,P|316:248|313:289,1,82.4999976158143
136,348,72252,2,0,P|140:307|156:264,1,82.4999976158143
392,184,72552,2,0,P|348:276|312:304,1,82.4999976158143
256,52,72852,6,0,L|256:148,2,82.4999976158143
88,192,73302,37,0,0:0:0:0:
156,236,73452,2,0,P|316:256|320:256,1,164.999995231629
319,255,74052,1,0,0:0:0:0:
440,64,74352,1,0,0:0:0:0:
164,56,74652,1,0,0:0:0:0:
128,328,74952,1,0,0:0:0:0:
432,340,75252,1,0,0:0:0:0:
444,60,75552,1,0,0:0:0:0:
88,68,76152,5,0,0:0:0:0:
448,300,76752,1,0,0:0:0:0:
36,176,77352,1,0,0:0:0:0:
248,216,77652,1,0,0:0:0:0:
392,56,77952,5,0,0:0:0:0:
416,160,78102,1,0,0:0:0:0:
372,256,78252,1,0,0:0:0:0:
276,304,78402,1,0,0:0:0:0:
168,292,78552,1,0,0:0:0:0:
52,48,78852,5,0,0:0:0:0:
156,80,79002,1,0,0:0:0:0:
256,116,79152,2,0,P|344:188|384:248,1,164.999995231629
264,244,79602,5,0,0:0:0:0:
68,136,79752,1,0,0:0:0:0:
212,292,79902,1,0,0:0:0:0:
132,104,80052,1,0,0:0:0:0:
148,320,80202,1,0,0:0:0:0:
204,96,80352,37,0,0:0:0:0:
472,60,80952,2,0,P|488:139|464:217,1,164.999995231629
364,136,81402,1,0,0:0:0:0:
256,60,81552,2,0,P|256:204|288:248,1,164.999995231629
364,136,82002,1,0,0:0:0:0:
472,60,82152,2,0,P|488:139|464:217,1,164.999995231629
372,276,82602,5,0,0:0:0:0:
264,280,82752,1,0,0:0:0:0:
160,260,82902,1,0,0:0:0:0:
72,196,83052,1,0,0:0:0:0:
176,172,83202,1,0,0:0:0:0:
72,148,83352,1,0,0:0:0:0:
176,116,83502,1,0,0:0:0:0:
208,40,83652,6,0,P|240:160|232:232,2,164.999995231629
96,164,84552,1,0,0:0:0:0:
236,248,84852,1,0,0:0:0:0:
372,152,85152,1,0,0:0:0:0:
88,320,85752,5,0,0:0:0:0:
256,192,86352,12,0,89052,0:0:0:0:
256,184,89202,5,0,0:0:0:0:
128,328,89352,1,0,0:0:0:0:
340,240,89502,1,0,0:0:0:0:
116,216,89652,1,0,0:0:0:0:
280,336,89802,1,0,0:0:0:0:
408,232,89952,37,0,0:0:0:0:
84,72,90552,1,0,0:0:0:0:
372,292,91152,1,0,0:0:0:0:
200,240,91452,1,0,0:0:0:0:
80,104,91752,1,0,0:0:0:0:
440,68,92352,5,0,0:0:0:0:
