osu file format v14

[General]
AudioFilename: One Piece OP 13.mp3
AudioLeadIn: 0
PreviewTime: 114285
Countdown: 0
SampleSet: Normal
StackLeniency: 0.7
Mode: 0
LetterboxInBreaks: 0
WidescreenStoryboard: 1

[Editor]
DistanceSpacing: 0.8
BeatDivisor: 8
GridSize: 8
TimelineZoom: 1

[Metadata]
Title:One Day
TitleUnicode:One Day
Artist:The ROOTLESS
ArtistUnicode:The ROOTLESS
Creator:KoveGames
Version:Easy
Source:One Piece
Tags:One Piece One Day Opening 13 TV Size KoveGames
BeatmapID:901752
BeatmapSetID:416277

[Difficulty]
HPDrainRate:4
CircleSize:3
OverallDifficulty:4
ApproachRate:4
SliderMultiplier:1.5
SliderTickRate:1

[Events]
//Background and Video events
0,0,"Whitebeard.png",0,0
Video,-410,"One Day.avi"
//Break Periods
//Storyboard Layer 0 (Background)
//Storyboard Layer 1 (Fail)
//Storyboard Layer 2 (Pass)
//Storyboard Layer 3 (Foreground)
//Storyboard Sound Samples

[TimingPoints]
1111.52781111552,674.157303370787,4,1,0,0,1,0
68548,-100,4,1,0,0,0,1
90121,-100,4,1,0,0,0,0
114390,-100,4,1,0,0,0,1
140008,-100,4,1,0,0,0,0

[HitObjects]
136,88,25381,5,0,0:0:0:0:
136,208,26055,1,0,0:0:0:0:
256,208,26729,1,0,0:0:0:0:
256,88,27403,1,0,0:0:0:0:
376,88,28077,1,0,0:0:0:0:
376,208,28751,1,0,0:0:0:0:
256,208,29426,2,0,L|104:208,1,150
224,184,30774,5,0,0:0:0:0:
104,184,31448,1,0,0:0:0:0:
104,304,32122,2,0,P|144:304|192:296,2,75
184,216,33471,1,0,0:0:0:0:
64,216,34145,1,0,0:0:0:0:
72,96,34819,2,0,L|224:96,1,150
336,64,36167,5,0,0:0:0:0:
264,160,36841,1,0,0:0:0:0:
176,80,37516,1,0,0:0:0:0:
264,160,38190,1,0,0:0:0:0:
184,256,38864,2,0,L|288:144,1,150
408,152,40212,1,0,0:0:0:0:
360,264,40886,2,0,P|304:208|208:160,2,150
256,208,42909,5,0,0:0:0:0:
256,88,43583,1,0,0:0:0:0:
168,168,44257,2,0,L|328:168,1,150
256,264,45605,2,0,L|256:112,1,150
144,160,46954,5,0,0:0:0:0:
144,280,47628,1,0,0:0:0:0:
248,216,48302,1,0,0:0:0:0:
368,216,48976,1,0,0:0:0:0:
248,216,49650,2,0,L|64:216,2,150
248,96,51673,2,0,L|248:192,2,75
368,96,53021,5,0,0:0:0:0:
368,216,53695,1,0,0:0:0:0:
248,216,54369,1,0,0:0:0:0:
248,96,55044,2,0,L|248:248,1,150
256,168,56392,2,0,L|160:168,2,75
376,152,57740,5,0,0:0:0:0:
280,80,58414,1,0,0:0:0:0:
184,152,59089,1,0,0:0:0:0:
280,224,59763,1,0,0:0:0:0:
168,192,60437,2,0,L|344:192,2,150
288,200,62459,6,0,L|288:112,2,75
176,248,63808,2,0,L|176:152,1,93.75
176,64,64819,2,0,L|256:64,3,75
344,136,66504,2,0,L|216:240,1,150
136,152,67853,1,0,0:0:0:0:
248,112,68527,5,0,0:0:0:0:
248,232,69201,2,0,L|328:232,2,75
176,136,70549,2,0,P|144:216|160:288,1,150
272,280,71898,2,0,L|352:280,1,75
352,192,72572,1,0,0:0:0:0:
272,168,73077,2,0,L|272:120,1,37.5
160,184,73920,6,0,L|160:32,1,150
256,104,75268,2,0,L|256:200,4,75
168,152,77291,1,0,0:0:0:0:
168,272,77965,1,0,0:0:0:0:
272,208,78639,2,0,L|320:208,1,37.5
280,120,79313,5,0,0:0:0:0:
280,240,79987,1,0,0:0:0:0:
240,128,80662,2,0,P|328:128|320:168,1,150
280,240,82010,1,0,0:0:0:0:
280,120,82684,1,0,0:0:0:0:
176,184,83358,2,0,L|176:32,1,150
296,80,84707,5,0,0:0:0:0:
296,200,85381,1,0,0:0:0:0:
416,200,86055,1,0,0:0:0:0:
304,248,86729,2,0,L|304:96,1,150
184,152,88077,1,0,0:0:0:0:
184,272,88751,1,0,0:0:0:0:
304,272,89426,2,0,L|384:272,2,75
216,192,90774,5,0,0:0:0:0:
336,192,91448,1,0,0:0:0:0:
224,144,92122,2,0,L|224:64,2,75
344,144,93471,1,0,0:0:0:0:
304,256,94145,2,0,L|224:256,3,75
232,200,95493,1,0,0:0:0:0:
320,120,96167,1,0,0:0:0:0:
200,120,96841,2,0,P|104:104|80:64,1,150
184,120,98190,2,0,L|336:120,1,150
336,240,99538,2,0,L|184:240,1,150
208,144,100886,5,0,0:0:0:0:
208,264,101560,1,0,0:0:0:0:
328,264,102235,1,0,0:0:0:0:
208,264,102909,1,0,0:0:0:0:
328,264,103583,2,0,P|384:216|424:144,1,150
312,200,104931,2,0,L|312:48,1,150
168,208,106280,6,0,L|80:208,3,75
216,136,107965,1,0,0:0:0:0:
336,136,108639,2,0,L|336:288,1,150
256,192,111336,12,0,113021,0:0:0:0:
176,72,114369,5,0,0:0:0:0:
136,184,115044,2,0,P|104:264|104:272,2,75
240,240,116392,2,0,P|304:224|312:208,2,75
360,240,117740,2,0,L|360:144,1,75
312,128,118414,1,0,0:0:0:0:
240,184,118920,2,0,L|184:184,1,37.5
240,72,119763,5,0,0:0:0:0:
352,104,120437,1,0,0:0:0:0:
352,224,121111,2,0,L|248:224,2,75
192,224,122459,2,0,L|192:72,1,150
312,72,123808,1,0,0:0:0:0:
312,192,124482,2,0,L|360:192,1,25
248,144,125156,6,0,P|240:240|272:232,1,150
360,240,126504,2,0,L|360:152,2,75
248,208,127853,1,0,0:0:0:0:
320,112,128527,1,0,0:0:0:0:
200,112,129201,2,0,L|96:112,2,75
200,232,130549,5,0,0:0:0:0:
320,232,131223,1,0,0:0:0:0:
200,232,131898,2,0,L|200:80,1,150
360,136,133246,2,0,L|360:288,1,150
248,248,134594,1,0,0:0:0:0:
128,248,135268,2,0,L|128:168,2,75
128,128,136617,5,0,0:0:0:0:
248,128,137291,1,0,0:0:0:0:
368,128,137965,1,0,0:0:0:0:
368,248,138639,2,0,L|264:248,2,75
256,192,140072,12,0,149089,0:0:0:0:
