osu file format v14

[General]
AudioFilename: audio.mp3
AudioLeadIn: 0
PreviewTime: -1
Countdown: 1
SampleSet: None
StackLeniency: 0.7
Mode: 3
LetterboxInBreaks: 0
SpecialStyle: 0
WidescreenStoryboard: 0

[Editor]
DistanceSpacing: 0.8
BeatDivisor: 4
GridSize: 4
TimelineZoom: 1

[Metadata]
Title:The Big Black
TitleUnicode:The Big Black
Artist:The Quick Brown Fox
ArtistUnicode:The Quick Brown Fox
Creator:katiekebu
Version:Hard
Source:The Quick Brown Fox
Tags:osu mania
BeatmapID:1452398
BeatmapSetID:686214

[Difficulty]
HPDrainRate:5
CircleSize:4
OverallDifficulty:5
ApproachRate:5
SliderMultiplier:1.4
SliderTickRate:1

[Events]
//Background and Video events
//Break Periods
2,40534,49767
2,84490,93723
//Storyboard Layer 0 (Background)
//Storyboard Layer 1 (Fail)
//Storyboard Layer 2 (Pass)
//Storyboard Layer 3 (Foreground)
//Storyboard Sound Samples

[TimingPoints]
6917.20754716981,379.746835443038,4,2,0,100,1,0

[HitObjects]
64,192,7012,5,0,0:0:0:0:
192,192,7108,1,0,0:0:0:0:
64,192,7203,1,0,0:0:0:0:
192,192,7299,1,0,0:0:0:0:
64,192,7395,1,0,0:0:0:0:
192,192,7490,1,0,0:0:0:0:
320,192,7586,1,0,0:0:0:0:
192,192,7681,1,0,0:0:0:0:
320,192,7777,1,0,0:0:0:0:
448,192,7873,1,0,0:0:0:0:
320,192,7968,1,0,0:0:0:0:
448,192,8064,1,0,0:0:0:0:
320,192,8159,1,0,0:0:0:0:
192,192,8255,1,0,0:0:0:0:
320,192,8351,1,0,0:0:0:0:
64,192,8446,128,0,9578:0:0:0:0:
192,192,8542,1,0,0:0:0:0:
320,192,8733,1,0,0:0:0:0:
448,192,8733,1,0,0:0:0:0:
448,192,8924,1,0,0:0:0:0:
192,192,9115,1,0,0:0:0:0:
320,192,9306,1,0,0:0:0:0:
448,192,9498,1,0,0:0:0:0:
192,192,9593,1,0,0:0:0:0:
64,192,9784,1,0,0:0:0:0:
192,192,9880,1,0,0:0:0:0:
320,192,9976,1,0,0:0:0:0:
64,192,10167,1,0,0:0:0:0:
192,192,10262,1,0,0:0:0:0:
320,192,10358,1,0,0:0:0:0:
448,192,10549,1,0,0:0:0:0:
320,192,10645,1,0,0:0:0:0:
192,192,10740,1,0,0:0:0:0:
448,192,10836,1,0,0:0:0:0:
320,192,10931,1,0,0:0:0:0:
192,192,11027,1,0,0:0:0:0:
64,192,11218,1,0,0:0:0:0:
192,192,11314,1,0,0:0:0:0:
64,192,11409,1,0,0:0:0:0:
192,192,11505,1,0,0:0:0:0:
320,192,11601,1,0,0:0:0:0:
192,192,11696,1,0,0:0:0:0:
320,192,11792,1,0,0:0:0:0:
192,192,11887,1,0,0:0:0:0:
192,192,11983,128,0,12266:0:0:0:0:
64,192,11983,128,0,12266:0:0:0:0:
320,192,11983,128,0,12266:0:0:0:0:
448,192,11983,128,0,12266:0:0:0:0:
64,192,12461,1,0,0:0:0:0:
192,192,12461,1,0,0:0:0:0:
320,192,12461,1,0,0:0:0:0:
448,192,12461,1,0,0:0:0:0:
64,192,12652,1,0,0:0:0:0:
192,192,12748,1,0,0:0:0:0:
64,192,12843,1,0,0:0:0:0:
192,192,12939,1,0,0:0:0:0:
320,192,13034,1,0,0:0:0:0:
192,192,13130,1,0,0:0:0:0:
320,192,13226,1,0,0:0:0:0:
320,192,13321,128,0,13608:0:0:0:0:
64,192,13321,128,0,13608:0:0:0:0:
192,192,13704,1,0,0:0:0:0:
320,192,13799,1,0,0:0:0:0:
192,192,13895,1,0,0:0:0:0:
320,192,13990,1,0,0:0:0:0:
192,192,14086,1,0,0:0:0:0:
64,192,14182,1,0,0:0:0:0:
192,192,14277,1,0,0:0:0:0:
64,192,14373,1,0,0:0:0:0:
64,192,14564,1,0,0:0:0:0:
192,192,14564,1,0,0:0:0:0:
320,192,14755,1,0,0:0:0:0:
448,192,14755,1,0,0:0:0:0:
448,192,14851,1,0,0:0:0:0:
320,192,14946,1,0,0:0:0:0:
64,192,15137,1,0,0:0:0:0:
192,192,15137,1,0,0:0:0:0:
320,192,15137,1,0,0:0:0:0:
448,192,15137,1,0,0:0:0:0:
64,192,15233,1,0,0:0:0:0:
192,192,15329,1,0,0:0:0:0:
320,192,15424,1,0,0:0:0:0:
64,192,15520,1,0,0:0:0:0:
192,192,15615,1,0,0:0:0:0:
320,192,15711,1,0,0:0:0:0:
448,192,15902,1,0,0:0:0:0:
64,192,15998,1,0,0:0:0:0:
192,192,15998,1,0,0:0:0:0:
320,192,15998,1,0,0:0:0:0:
448,192,15998,1,0,0:0:0:0:
64,192,16189,128,0,16954:0:0:0:0:
320,192,16189,128,0,16954:0:0:0:0:
192,192,16284,1,0,0:0:0:0:
448,192,16284,1,0,0:0:0:0:
192,192,16571,1,0,0:0:0:0:
448,192,16571,1,0,0:0:0:0:
192,192,16858,1,0,0:0:0:0:
448,192,16858,1,0,0:0:0:0:
192,192,16954,128,0,17623:0:0:0:0:
448,192,16954,128,0,17623:0:0:0:0:
64,192,17145,1,0,0:0:0:0:
320,192,17145,1,0,0:0:0:0:
64,192,17623,1,0,0:0:0:0:
320,192,17623,1,0,0:0:0:0:
64,192,18292,1,0,0:0:0:0:
192,192,18292,1,0,0:0:0:0:
320,192,18292,1,0,0:0:0:0:
448,192,18292,1,0,0:0:0:0:
192,192,18579,1,0,0:0:0:0:
320,192,18579,1,0,0:0:0:0:
192,192,18770,1,0,0:0:0:0:
320,192,18865,1,0,0:0:0:0:
192,192,18961,1,0,0:0:0:0:
320,192,19057,1,0,0:0:0:0:
192,192,19152,1,0,0:0:0:0:
64,192,19248,1,0,0:0:0:0:
192,192,19343,1,0,0:0:0:0:
64,192,19439,1,0,0:0:0:0:
192,192,19535,1,0,0:0:0:0:
64,192,19630,1,0,0:0:0:0:
192,192,19726,1,0,0:0:0:0:
64,192,19821,1,0,0:0:0:0:
192,192,19917,1,0,0:0:0:0:
64,192,20012,1,0,0:0:0:0:
192,192,20108,1,0,0:0:0:0:
64,192,20204,1,0,0:0:0:0:
192,192,20299,1,0,0:0:0:0:
64,192,20395,1,0,0:0:0:0:
192,192,20490,1,0,0:0:0:0:
320,192,20586,1,0,0:0:0:0:
192,192,20682,1,0,0:0:0:0:
320,192,20777,1,0,0:0:0:0:
192,192,20873,1,0,0:0:0:0:
320,192,20968,1,0,0:0:0:0:
192,192,21064,1,0,0:0:0:0:
320,192,21160,1,0,0:0:0:0:
192,192,21255,1,0,0:0:0:0:
64,192,21446,1,0,0:0:0:0:
448,192,21446,1,0,0:0:0:0:
192,192,21446,1,0,0:0:0:0:
64,192,21542,1,0,0:0:0:0:
448,192,21542,1,0,0:0:0:0:
320,192,21542,1,0,0:0:0:0:
192,192,21733,1,0,0:0:0:0:
64,192,21733,128,0,24505:0:0:0:0:
320,192,21924,1,0,0:0:0:0:
448,192,22115,1,0,0:0:0:0:
320,192,22307,1,0,0:0:0:0:
192,192,22498,1,0,0:0:0:0:
320,192,22689,1,0,0:0:0:0:
448,192,22880,1,0,0:0:0:0:
320,192,23071,1,0,0:0:0:0:
192,192,23263,1,0,0:0:0:0:
320,192,23454,1,0,0:0:0:0:
448,192,23645,1,0,0:0:0:0:
320,192,23836,1,0,0:0:0:0:
192,192,24027,1,0,0:0:0:0:
320,192,24218,1,0,0:0:0:0:
448,192,24410,1,0,0:0:0:0:
320,192,24601,1,0,0:0:0:0:
192,192,24696,1,0,0:0:0:0:
320,192,24792,1,0,0:0:0:0:
192,192,24888,1,0,0:0:0:0:
320,192,25174,1,0,0:0:0:0:
192,192,25270,1,0,0:0:0:0:
320,192,25366,1,0,0:0:0:0:
192,192,25461,1,0,0:0:0:0:
64,192,25748,1,0,0:0:0:0:
448,192,25748,1,0,0:0:0:0:
192,192,25843,1,0,0:0:0:0:
320,192,25843,1,0,0:0:0:0:
64,192,25939,1,0,0:0:0:0:
448,192,25939,1,0,0:0:0:0:
320,192,26035,1,0,0:0:0:0:
192,192,26035,1,0,0:0:0:0:
192,192,26226,1,0,0:0:0:0:
64,192,26321,1,0,0:0:0:0:
192,192,26417,1,0,0:0:0:0:
64,192,26474,1,0,0:0:0:0:
192,192,26569,1,0,0:0:0:0:
64,192,26758,128,0,26853:0:0:0:0:
192,192,26853,128,0,26948:0:0:0:0:
320,192,26948,128,0,27043:0:0:0:0:
64,192,27138,1,0,0:0:0:0:
192,192,27233,1,0,0:0:0:0:
320,192,27328,1,0,0:0:0:0:
448,192,27423,1,0,0:0:0:0:
64,192,27518,1,0,0:0:0:0:
192,192,27613,1,0,0:0:0:0:
320,192,27708,1,0,0:0:0:0:
448,192,27803,1,0,0:0:0:0:
64,192,27803,1,0,0:0:0:0:
192,192,27898,1,0,0:0:0:0:
320,192,27993,1,0,0:0:0:0:
448,192,28088,1,0,0:0:0:0:
320,192,28183,1,0,0:0:0:0:
192,192,28277,1,0,0:0:0:0:
320,192,28372,1,0,0:0:0:0:
192,192,28467,1,0,0:0:0:0:
320,192,28562,1,0,0:0:0:0:
192,192,28657,1,0,0:0:0:0:
64,192,28752,1,0,0:0:0:0:
192,192,28847,1,0,0:0:0:0:
320,192,28942,1,0,0:0:0:0:
448,192,29037,1,0,0:0:0:0:
64,192,29037,1,0,0:0:0:0:
192,192,29132,1,0,0:0:0:0:
320,192,29227,1,0,0:0:0:0:
448,192,29322,1,0,0:0:0:0:
448,192,29417,128,0,29607:0:0:0:0:
192,192,29417,128,0,29607:0:0:0:0:
64,192,29796,1,0,0:0:0:0:
192,192,29891,1,0,0:0:0:0:
320,192,29986,1,0,0:0:0:0:
192,192,30081,1,0,0:0:0:0:
64,192,30176,1,0,0:0:0:0:
192,192,30271,1,0,0:0:0:0:
320,192,30366,1,0,0:0:0:0:
448,192,30461,1,0,0:0:0:0:
320,192,30556,1,0,0:0:0:0:
192,192,30651,1,0,0:0:0:0:
320,192,30746,1,0,0:0:0:0:
192,192,30841,1,0,0:0:0:0:
64,192,30936,1,0,0:0:0:0:
192,192,31031,1,0,0:0:0:0:
320,192,31126,1,0,0:0:0:0:
192,192,31221,1,0,0:0:0:0:
320,192,31315,1,0,0:0:0:0:
192,192,31410,1,0,0:0:0:0:
64,192,31505,1,0,0:0:0:0:
448,192,31505,1,0,0:0:0:0:
320,192,31600,1,0,0:0:0:0:
192,192,31695,1,0,0:0:0:0:
64,192,31790,1,0,0:0:0:0:
64,192,31980,128,0,32170:0:0:0:0:
320,192,31980,128,0,32170:0:0:0:0:
64,192,32360,1,0,0:0:0:0:
192,192,32455,1,0,0:0:0:0:
64,192,32550,1,0,0:0:0:0:
192,192,32645,1,0,0:0:0:0:
64,192,32739,1,0,0:0:0:0:
192,192,32834,1,0,0:0:0:0:
64,192,32929,1,0,0:0:0:0:
192,192,33024,1,0,0:0:0:0:
320,192,33119,1,0,0:0:0:0:
192,192,33214,1,0,0:0:0:0:
320,192,33309,1,0,0:0:0:0:
192,192,33404,1,0,0:0:0:0:
320,192,33499,1,0,0:0:0:0:
448,192,33594,1,0,0:0:0:0:
320,192,33689,1,0,0:0:0:0:
448,192,33784,1,0,0:0:0:0:
320,192,33879,1,0,0:0:0:0:
192,192,33974,1,0,0:0:0:0:
64,192,34069,1,0,0:0:0:0:
448,192,34164,1,0,0:0:0:0:
320,192,34258,1,0,0:0:0:0:
192,192,34353,1,0,0:0:0:0:
64,192,34448,1,0,0:0:0:0:
448,192,34638,1,0,0:0:0:0:
320,192,34733,1,0,0:0:0:0:
192,192,34828,1,0,0:0:0:0:
64,192,34923,1,0,0:0:0:0:
192,192,35113,1,0,0:0:0:0:
320,192,35208,1,0,0:0:0:0:
192,192,35303,1,0,0:0:0:0:
320,192,35398,1,0,0:0:0:0:
192,192,35493,1,0,0:0:0:0:
320,192,35588,1,0,0:0:0:0:
192,192,35683,1,0,0:0:0:0:
64,192,35777,1,0,0:0:0:0:
192,192,35872,1,0,0:0:0:0:
64,192,35967,1,0,0:0:0:0:
192,192,36062,1,0,0:0:0:0:
64,192,36252,1,0,0:0:0:0:
192,192,36252,1,0,0:0:0:0:
320,192,36252,1,0,0:0:0:0:
320,192,36442,1,0,0:0:0:0:
448,192,36442,1,0,0:0:0:0:
64,192,36537,1,0,0:0:0:0:
192,192,36537,1,0,0:0:0:0:
320,192,36632,1,0,0:0:0:0:
448,192,36632,1,0,0:0:0:0:
64,192,36727,1,0,0:0:0:0:
192,192,36727,1,0,0:0:0:0:
192,192,36917,1,0,0:0:0:0:
320,192,36917,1,0,0:0:0:0:
64,192,37012,1,0,0:0:0:0:
448,192,37012,1,0,0:0:0:0:
320,192,37107,1,0,0:0:0:0:
192,192,37107,1,0,0:0:0:0:
64,192,37202,1,0,0:0:0:0:
448,192,37202,1,0,0:0:0:0:
320,192,37296,1,0,0:0:0:0:
192,192,37296,1,0,0:0:0:0:
64,192,37391,1,0,0:0:0:0:
448,192,37391,1,0,0:0:0:0:
192,192,37391,128,0,37676:0:0:0:0:
320,192,37391,128,0,37676:0:0:0:0:
64,192,37771,1,0,0:0:0:0:
320,192,37771,1,0,0:0:0:0:
192,192,37866,1,0,0:0:0:0:
448,192,37866,1,0,0:0:0:0:
64,192,37961,1,0,0:0:0:0:
320,192,37961,1,0,0:0:0:0:
64,192,38056,1,0,0:0:0:0:
320,192,38056,1,0,0:0:0:0:
64,192,38246,1,0,0:0:0:0:
192,192,38246,1,0,0:0:0:0:
64,192,38341,1,0,0:0:0:0:
192,192,38341,1,0,0:0:0:0:
448,192,38626,1,0,0:0:0:0:
320,192,38626,1,0,0:0:0:0:
320,192,38721,1,0,0:0:0:0:
448,192,38721,1,0,0:0:0:0:
64,192,38815,1,0,0:0:0:0:
64,192,38910,1,0,0:0:0:0:
192,192,38910,1,0,0:0:0:0:
320,192,38910,1,0,0:0:0:0:
448,192,39005,1,0,0:0:0:0:
448,192,39100,1,0,0:0:0:0:
320,192,39100,1,0,0:0:0:0:
192,192,39100,1,0,0:0:0:0:
64,192,39195,1,0,0:0:0:0:
192,192,39290,1,0,0:0:0:0:
320,192,39385,1,0,0:0:0:0:
192,192,39480,1,0,0:0:0:0:
320,192,39575,1,0,0:0:0:0:
448,192,39670,1,0,0:0:0:0:
320,192,39765,1,0,0:0:0:0:
192,192,39860,1,0,0:0:0:0:
64,192,39955,1,0,0:0:0:0:
192,192,40050,1,0,0:0:0:0:
448,192,40145,128,0,40334:0:0:0:0:
64,192,40334,1,0,0:0:0:0:
192,192,40334,1,0,0:0:0:0:
320,192,40334,1,0,0:0:0:0:
64,192,50967,5,0,0:0:0:0:
192,192,50967,1,0,0:0:0:0:
320,192,50967,1,0,0:0:0:0:
448,192,50967,1,0,0:0:0:0:
64,192,51252,128,0,56474:0:0:0:0:
320,192,51252,128,0,56474:0:0:0:0:
192,192,56474,128,0,57708:0:0:0:0:
448,192,56474,128,0,57708:0:0:0:0:
320,192,57708,128,0,59037:0:0:0:0:
64,192,57708,128,0,59037:0:0:0:0:
192,192,59037,128,0,61505:0:0:0:0:
448,192,59037,128,0,61505:0:0:0:0:
64,192,61600,1,0,0:0:0:0:
192,192,61600,1,0,0:0:0:0:
320,192,61600,1,0,0:0:0:0:
448,192,61600,1,0,0:0:0:0:
64,192,62265,1,0,0:0:0:0:
192,192,62265,1,0,0:0:0:0:
320,192,62265,1,0,0:0:0:0:
448,192,62265,1,0,0:0:0:0:
320,192,62550,1,0,0:0:0:0:
192,192,62645,1,0,0:0:0:0:
320,192,62739,1,0,0:0:0:0:
192,192,62834,1,0,0:0:0:0:
64,192,63024,128,0,64164:0:0:0:0:
192,192,63024,1,0,0:0:0:0:
192,192,63119,1,0,0:0:0:0:
320,192,63119,1,0,0:0:0:0:
448,192,63214,1,0,0:0:0:0:
320,192,63214,1,0,0:0:0:0:
192,192,63309,1,0,0:0:0:0:
320,192,63404,1,0,0:0:0:0:
448,192,63404,1,0,0:0:0:0:
192,192,63499,1,0,0:0:0:0:
192,192,63594,1,0,0:0:0:0:
320,192,63594,1,0,0:0:0:0:
448,192,63689,1,0,0:0:0:0:
320,192,63784,1,0,0:0:0:0:
192,192,63784,1,0,0:0:0:0:
320,192,63879,1,0,0:0:0:0:
448,192,63974,1,0,0:0:0:0:
192,192,63974,1,0,0:0:0:0:
320,192,63974,1,0,0:0:0:0:
192,192,64069,1,0,0:0:0:0:
192,192,64164,128,0,64353:0:0:0:0:
448,192,64164,128,0,64353:0:0:0:0:
64,192,64353,128,0,65398:0:0:0:0:
192,192,64448,1,0,0:0:0:0:
320,192,64543,1,0,0:0:0:0:
448,192,64638,1,0,0:0:0:0:
192,192,64638,1,0,0:0:0:0:
320,192,64733,1,0,0:0:0:0:
192,192,64828,1,0,0:0:0:0:
320,192,64828,1,0,0:0:0:0:
448,192,64923,1,0,0:0:0:0:
192,192,64923,1,0,0:0:0:0:
320,192,65018,1,0,0:0:0:0:
192,192,65113,1,0,0:0:0:0:
448,192,65208,1,0,0:0:0:0:
320,192,65208,1,0,0:0:0:0:
320,192,65303,1,0,0:0:0:0:
192,192,65303,1,0,0:0:0:0:
320,192,65398,128,0,65493:0:0:0:0:
448,192,65398,128,0,65588:0:0:0:0:
64,192,65683,128,0,66442:0:0:0:0:
192,192,65683,1,0,0:0:0:0:
192,192,65777,1,0,0:0:0:0:
320,192,65777,1,0,0:0:0:0:
192,192,65872,1,0,0:0:0:0:
320,192,65872,1,0,0:0:0:0:
192,192,66062,1,0,0:0:0:0:
320,192,66062,1,0,0:0:0:0:
448,192,66062,1,0,0:0:0:0:
448,192,66157,1,0,0:0:0:0:
448,192,66252,1,0,0:0:0:0:
320,192,66252,1,0,0:0:0:0:
192,192,66347,1,0,0:0:0:0:
448,192,66347,1,0,0:0:0:0:
320,192,66442,1,0,0:0:0:0:
64,192,66632,1,0,0:0:0:0:
448,192,66632,1,0,0:0:0:0:
192,192,66727,1,0,0:0:0:0:
320,192,66727,1,0,0:0:0:0:
64,192,66822,1,0,0:0:0:0:
448,192,66822,1,0,0:0:0:0:
192,192,66917,1,0,0:0:0:0:
320,192,66917,1,0,0:0:0:0:
64,192,67012,128,0,67107:0:0:0:0:
320,192,67107,128,0,67202:0:0:0:0:
192,192,67202,128,0,67296:0:0:0:0:
64,192,67296,128,0,67391:0:0:0:0:
192,192,67391,128,0,67486:0:0:0:0:
320,192,67486,128,0,67581:0:0:0:0:
64,192,67486,128,0,67581:0:0:0:0:
192,192,67581,128,0,67676:0:0:0:0:
64,192,67676,1,0,0:0:0:0:
448,192,67676,1,0,0:0:0:0:
64,192,67771,1,0,0:0:0:0:
448,192,67771,1,0,0:0:0:0:
64,192,67866,128,0,69195:0:0:0:0:
192,192,67866,1,0,0:0:0:0:
320,192,67961,1,0,0:0:0:0:
192,192,68056,1,0,0:0:0:0:
320,192,68056,1,0,0:0:0:0:
192,192,68151,1,0,0:0:0:0:
320,192,68246,1,0,0:0:0:0:
192,192,68246,1,0,0:0:0:0:
320,192,68341,1,0,0:0:0:0:
192,192,68436,1,0,0:0:0:0:
320,192,68531,1,0,0:0:0:0:
448,192,68531,1,0,0:0:0:0:
448,192,68626,1,0,0:0:0:0:
320,192,68721,1,0,0:0:0:0:
192,192,68815,1,0,0:0:0:0:
448,192,68815,1,0,0:0:0:0:
320,192,68910,1,0,0:0:0:0:
192,192,69005,1,0,0:0:0:0:
320,192,69005,1,0,0:0:0:0:
192,192,69100,1,0,0:0:0:0:
448,192,69100,1,0,0:0:0:0:
192,192,69195,1,0,0:0:0:0:
320,192,69195,1,0,0:0:0:0:
192,192,69290,128,0,69385:0:0:0:0:
320,192,69290,128,0,69480:0:0:0:0:
64,192,69575,128,0,70524:0:0:0:0:
192,192,69670,1,0,0:0:0:0:
320,192,69765,1,0,0:0:0:0:
448,192,69860,1,0,0:0:0:0:
320,192,69860,1,0,0:0:0:0:
192,192,69955,1,0,0:0:0:0:
320,192,70050,1,0,0:0:0:0:
448,192,70145,1,0,0:0:0:0:
320,192,70145,1,0,0:0:0:0:
192,192,70239,1,0,0:0:0:0:
320,192,70334,1,0,0:0:0:0:
448,192,70334,1,0,0:0:0:0:
192,192,70429,1,0,0:0:0:0:
320,192,70524,1,0,0:0:0:0:
448,192,70524,1,0,0:0:0:0:
192,192,70619,128,0,70809:0:0:0:0:
64,192,70904,128,0,72138:0:0:0:0:
192,192,70999,1,0,0:0:0:0:
320,192,71094,1,0,0:0:0:0:
192,192,71189,1,0,0:0:0:0:
320,192,71284,1,0,0:0:0:0:
192,192,71379,1,0,0:0:0:0:
320,192,71474,1,0,0:0:0:0:
448,192,71569,1,0,0:0:0:0:
320,192,71664,1,0,0:0:0:0:
448,192,71758,1,0,0:0:0:0:
320,192,71853,1,0,0:0:0:0:
448,192,71948,1,0,0:0:0:0:
320,192,72043,1,0,0:0:0:0:
192,192,72043,1,0,0:0:0:0:
320,192,72138,1,0,0:0:0:0:
448,192,72138,1,0,0:0:0:0:
192,192,72233,128,0,72328:0:0:0:0:
320,192,72328,128,0,72423:0:0:0:0:
64,192,72328,128,0,72423:0:0:0:0:
64,192,72518,128,0,72613:0:0:0:0:
192,192,72518,128,0,72613:0:0:0:0:
448,192,72518,128,0,72613:0:0:0:0:
320,192,72613,128,0,72708:0:0:0:0:
448,192,72708,128,0,72803:0:0:0:0:
64,192,72803,128,0,72898:0:0:0:0:
192,192,72898,128,0,72993:0:0:0:0:
448,192,72898,128,0,72993:0:0:0:0:
320,192,72993,128,0,73088:0:0:0:0:
192,192,73088,128,0,73183:0:0:0:0:
64,192,73183,128,0,73277:0:0:0:0:
448,192,73183,128,0,73467:0:0:0:0:
64,192,73562,128,0,74512:0:0:0:0:
192,192,73562,1,0,0:0:0:0:
320,192,73562,1,0,0:0:0:0:
192,192,73657,1,0,0:0:0:0:
320,192,73752,1,0,0:0:0:0:
448,192,73752,1,0,0:0:0:0:
448,192,73847,1,0,0:0:0:0:
192,192,73942,1,0,0:0:0:0:
320,192,73942,1,0,0:0:0:0:
320,192,74037,1,0,0:0:0:0:
448,192,74037,1,0,0:0:0:0:
320,192,74132,1,0,0:0:0:0:
192,192,74227,1,0,0:0:0:0:
448,192,74227,1,0,0:0:0:0:
320,192,74322,1,0,0:0:0:0:
192,192,74417,1,0,0:0:0:0:
448,192,74417,1,0,0:0:0:0:
192,192,74512,1,0,0:0:0:0:
320,192,74607,1,0,0:0:0:0:
448,192,74607,1,0,0:0:0:0:
192,192,74607,128,0,74702:0:0:0:0:
320,192,74702,1,0,0:0:0:0:
448,192,74702,128,0,74796:0:0:0:0:
192,192,74796,1,0,0:0:0:0:
320,192,74796,1,0,0:0:0:0:
64,192,74891,128,0,75841:0:0:0:0:
448,192,74891,1,0,0:0:0:0:
320,192,74986,1,0,0:0:0:0:
448,192,75081,1,0,0:0:0:0:
320,192,75081,1,0,0:0:0:0:
192,192,75081,1,0,0:0:0:0:
192,192,75176,1,0,0:0:0:0:
320,192,75176,1,0,0:0:0:0:
448,192,75271,1,0,0:0:0:0:
192,192,75366,1,0,0:0:0:0:
320,192,75366,1,0,0:0:0:0:
448,192,75461,1,0,0:0:0:0:
192,192,75461,1,0,0:0:0:0:
320,192,75556,1,0,0:0:0:0:
192,192,75556,1,0,0:0:0:0:
448,192,75651,1,0,0:0:0:0:
320,192,75651,1,0,0:0:0:0:
192,192,75746,1,0,0:0:0:0:
448,192,75841,1,0,0:0:0:0:
320,192,75841,1,0,0:0:0:0:
192,192,75936,128,0,76031:0:0:0:0:
448,192,75936,128,0,76031:0:0:0:0:
320,192,76031,128,0,76126:0:0:0:0:
64,192,76221,128,0,77170:0:0:0:0:
192,192,76315,1,0,0:0:0:0:
320,192,76410,1,0,0:0:0:0:
192,192,76505,1,0,0:0:0:0:
448,192,76600,1,0,0:0:0:0:
192,192,76695,1,0,0:0:0:0:
448,192,76790,1,0,0:0:0:0:
320,192,76885,1,0,0:0:0:0:
448,192,76980,1,0,0:0:0:0:
320,192,76980,1,0,0:0:0:0:
192,192,77075,1,0,0:0:0:0:
320,192,77075,1,0,0:0:0:0:
448,192,77170,1,0,0:0:0:0:
64,192,77360,1,0,0:0:0:0:
448,192,77360,1,0,0:0:0:0:
192,192,77455,1,0,0:0:0:0:
320,192,77455,1,0,0:0:0:0:
64,192,77550,128,0,77645:0:0:0:0:
192,192,77645,128,0,77739:0:0:0:0:
448,192,77645,128,0,77739:0:0:0:0:
320,192,77739,128,0,77834:0:0:0:0:
64,192,77739,128,0,77834:0:0:0:0:
192,192,77834,128,0,77929:0:0:0:0:
64,192,77929,128,0,78024:0:0:0:0:
448,192,78024,128,0,78119:0:0:0:0:
320,192,78024,128,0,78309:0:0:0:0:
192,192,78214,128,0,78309:0:0:0:0:
64,192,78309,128,0,78404:0:0:0:0:
448,192,78309,128,0,78404:0:0:0:0:
192,192,78404,128,0,78689:0:0:0:0:
320,192,78404,128,0,78689:0:0:0:0:
64,192,78784,128,0,78879:0:0:0:0:
192,192,78879,128,0,78974:0:0:0:0:
448,192,78879,128,0,78974:0:0:0:0:
64,192,78974,128,0,79069:0:0:0:0:
320,192,78974,128,0,79069:0:0:0:0:
64,192,79164,128,0,79258:0:0:0:0:
448,192,79164,128,0,79258:0:0:0:0:
320,192,79258,128,0,79448:0:0:0:0:
192,192,79353,128,0,79448:0:0:0:0:
448,192,79448,128,0,79543:0:0:0:0:
64,192,79448,128,0,79543:0:0:0:0:
64,192,79638,128,0,79733:0:0:0:0:
192,192,79638,128,0,79828:0:0:0:0:
320,192,79733,128,0,79828:0:0:0:0:
448,192,79733,128,0,80018:0:0:0:0:
320,192,80018,128,0,80208:0:0:0:0:
192,192,80113,128,0,80303:0:0:0:0:
64,192,80208,128,0,80303:0:0:0:0:
192,192,80398,128,0,80588:0:0:0:0:
64,192,80493,128,0,80683:0:0:0:0:
192,192,80683,128,0,80777:0:0:0:0:
448,192,80683,128,0,80777:0:0:0:0:
320,192,80777,128,0,80967:0:0:0:0:
64,192,80872,128,0,80967:0:0:0:0:
192,192,80967,128,0,81252:0:0:0:0:
448,192,80967,128,0,81157:0:0:0:0:
64,192,81062,128,0,81157:0:0:0:0:
320,192,81157,128,0,81252:0:0:0:0:
448,192,81252,1,0,0:0:0:0:
448,192,81347,1,0,0:0:0:0:
448,192,81442,1,0,0:0:0:0:
64,192,81537,128,0,82581:0:0:0:0:
192,192,81537,1,0,0:0:0:0:
320,192,81537,1,0,0:0:0:0:
448,192,81632,1,0,0:0:0:0:
192,192,81727,1,0,0:0:0:0:
320,192,81727,1,0,0:0:0:0:
448,192,81822,1,0,0:0:0:0:
192,192,81917,1,0,0:0:0:0:
320,192,81917,1,0,0:0:0:0:
448,192,82012,1,0,0:0:0:0:
320,192,82012,1,0,0:0:0:0:
192,192,82107,1,0,0:0:0:0:
320,192,82202,1,0,0:0:0:0:
448,192,82202,1,0,0:0:0:0:
192,192,82296,1,0,0:0:0:0:
320,192,82391,1,0,0:0:0:0:
448,192,82486,1,0,0:0:0:0:
192,192,82486,1,0,0:0:0:0:
192,192,82581,1,0,0:0:0:0:
320,192,82581,1,0,0:0:0:0:
64,192,82676,128,0,82771:0:0:0:0:
448,192,82676,128,0,82771:0:0:0:0:
320,192,82771,128,0,82866:0:0:0:0:
192,192,82771,128,0,82866:0:0:0:0:
64,192,82866,128,0,83151:0:0:0:0:
320,192,82961,128,0,83056:0:0:0:0:
192,192,83056,128,0,83151:0:0:0:0:
448,192,83056,128,0,83341:0:0:0:0:
320,192,83246,128,0,83436:0:0:0:0:
192,192,83436,128,0,83531:0:0:0:0:
64,192,83531,128,0,83626:0:0:0:0:
448,192,83531,128,0,83626:0:0:0:0:
320,192,83626,128,0,83721:0:0:0:0:
192,192,83626,128,0,83721:0:0:0:0:
192,192,83815,1,0,0:0:0:0:
320,192,83815,1,0,0:0:0:0:
64,192,83910,1,0,0:0:0:0:
448,192,83910,1,0,0:0:0:0:
192,192,84005,1,0,0:0:0:0:
320,192,84005,1,0,0:0:0:0:
64,192,84290,1,0,0:0:0:0:
192,192,84290,1,0,0:0:0:0:
320,192,84290,1,0,0:0:0:0:
448,192,84290,1,0,0:0:0:0:
64,192,94923,5,0,0:0:0:0:
192,192,94923,1,0,0:0:0:0:
320,192,94923,1,0,0:0:0:0:
448,192,94923,1,0,0:0:0:0:
320,192,95208,128,0,100334:0:0:0:0:
64,192,95208,128,0,100334:0:0:0:0:
448,192,100334,128,0,101664:0:0:0:0:
192,192,100334,128,0,101664:0:0:0:0:
64,192,101664,128,0,102993:0:0:0:0:
320,192,101664,128,0,102993:0:0:0:0:
192,192,102993,128,0,105461:0:0:0:0:
448,192,102993,128,0,105461:0:0:0:0:
448,192,105556,1,0,0:0:0:0:
320,192,105556,1,0,0:0:0:0:
192,192,105556,1,0,0:0:0:0:
64,192,105556,1,0,0:0:0:0:
64,192,105746,1,0,0:0:0:0:
192,192,105841,1,0,0:0:0:0:
64,192,105936,1,0,0:0:0:0:
192,192,106031,1,0,0:0:0:0:
320,192,106126,1,0,0:0:0:0:
192,192,106221,1,0,0:0:0:0:
320,192,106315,1,0,0:0:0:0:
448,192,106315,1,0,0:0:0:0:
320,192,106410,1,0,0:0:0:0:
448,192,106410,1,0,0:0:0:0:
192,192,106505,1,0,0:0:0:0:
64,192,106505,1,0,0:0:0:0:
192,192,106600,1,0,0:0:0:0:
64,192,106600,1,0,0:0:0:0:
64,192,106695,1,0,0:0:0:0:
192,192,106695,1,0,0:0:0:0:
320,192,106790,1,0,0:0:0:0:
192,192,106885,1,0,0:0:0:0:
320,192,106980,1,0,0:0:0:0:
192,192,107075,1,0,0:0:0:0:
320,192,107170,1,0,0:0:0:0:
192,192,107265,1,0,0:0:0:0:
64,192,107360,1,0,0:0:0:0:
192,192,107455,1,0,0:0:0:0:
64,192,107550,1,0,0:0:0:0:
192,192,107645,1,0,0:0:0:0:
320,192,107739,1,0,0:0:0:0:
192,192,107834,1,0,0:0:0:0:
64,192,107929,1,0,0:0:0:0:
192,192,107929,1,0,0:0:0:0:
64,192,108119,1,0,0:0:0:0:
192,192,108119,1,0,0:0:0:0:
448,192,108214,1,0,0:0:0:0:
320,192,108309,1,0,0:0:0:0:
448,192,108404,1,0,0:0:0:0:
320,192,108499,1,0,0:0:0:0:
192,192,108594,1,0,0:0:0:0:
320,192,108689,1,0,0:0:0:0:
192,192,108784,1,0,0:0:0:0:
320,192,108879,1,0,0:0:0:0:
448,192,108974,1,0,0:0:0:0:
320,192,109069,1,0,0:0:0:0:
320,192,109164,1,0,0:0:0:0:
448,192,109164,1,0,0:0:0:0:
320,192,109353,1,0,0:0:0:0:
448,192,109353,1,0,0:0:0:0:
64,192,109448,1,0,0:0:0:0:
192,192,109448,1,0,0:0:0:0:
448,192,109543,128,0,110208:0:0:0:0:
192,192,109543,1,0,0:0:0:0:
320,192,109638,1,0,0:0:0:0:
192,192,109733,1,0,0:0:0:0:
320,192,109828,1,0,0:0:0:0:
192,192,109923,1,0,0:0:0:0:
320,192,110018,1,0,0:0:0:0:
192,192,110113,1,0,0:0:0:0:
320,192,110208,128,0,110683:0:0:0:0:
64,192,110208,1,0,0:0:0:0:
192,192,110303,1,0,0:0:0:0:
64,192,110398,1,0,0:0:0:0:
192,192,110493,1,0,0:0:0:0:
64,192,110588,1,0,0:0:0:0:
192,192,110683,1,0,0:0:0:0:
192,192,110777,128,0,110872:0:0:0:0:
320,192,110777,128,0,110872:0:0:0:0:
448,192,110777,128,0,110872:0:0:0:0:
64,192,110777,128,0,110872:0:0:0:0:
64,192,110967,1,0,0:0:0:0:
192,192,111062,1,0,0:0:0:0:
64,192,111157,1,0,0:0:0:0:
192,192,111252,1,0,0:0:0:0:
320,192,111347,1,0,0:0:0:0:
192,192,111442,1,0,0:0:0:0:
320,192,111537,1,0,0:0:0:0:
192,192,111632,1,0,0:0:0:0:
64,192,111632,1,0,0:0:0:0:
192,192,111822,1,0,0:0:0:0:
64,192,111822,1,0,0:0:0:0:
448,192,111917,128,0,112107:0:0:0:0:
320,192,112202,1,0,0:0:0:0:
192,192,112296,1,0,0:0:0:0:
320,192,112391,1,0,0:0:0:0:
192,192,112486,1,0,0:0:0:0:
320,192,112581,1,0,0:0:0:0:
448,192,112676,1,0,0:0:0:0:
320,192,112771,1,0,0:0:0:0:
448,192,112866,1,0,0:0:0:0:
64,192,112961,128,0,113246:0:0:0:0:
320,192,113056,1,0,0:0:0:0:
448,192,113056,1,0,0:0:0:0:
320,192,113151,1,0,0:0:0:0:
448,192,113151,1,0,0:0:0:0:
192,192,113246,128,0,113531:0:0:0:0:
320,192,113436,1,0,0:0:0:0:
448,192,113436,1,0,0:0:0:0:
320,192,113531,1,0,0:0:0:0:
448,192,113531,1,0,0:0:0:0:
64,192,113721,1,0,0:0:0:0:
192,192,113721,1,0,0:0:0:0:
320,192,113815,1,0,0:0:0:0:
448,192,113910,1,0,0:0:0:0:
320,192,114005,1,0,0:0:0:0:
448,192,114100,1,0,0:0:0:0:
320,192,114195,1,0,0:0:0:0:
64,192,114290,1,0,0:0:0:0:
192,192,114290,1,0,0:0:0:0:
320,192,114385,1,0,0:0:0:0:
448,192,114480,1,0,0:0:0:0:
320,192,114575,1,0,0:0:0:0:
448,192,114670,1,0,0:0:0:0:
320,192,114765,1,0,0:0:0:0:
64,192,114860,1,0,0:0:0:0:
192,192,114860,1,0,0:0:0:0:
64,192,114955,1,0,0:0:0:0:
192,192,114955,1,0,0:0:0:0:
320,192,114955,1,0,0:0:0:0:
448,192,114955,1,0,0:0:0:0:
64,192,115239,1,0,0:0:0:0:
192,192,115239,1,0,0:0:0:0:
320,192,115239,1,0,0:0:0:0:
448,192,115239,1,0,0:0:0:0:
64,192,115524,1,0,0:0:0:0:
192,192,115524,1,0,0:0:0:0:
320,192,115524,1,0,0:0:0:0:
448,192,115524,1,0,0:0:0:0:
64,192,115809,128,0,116189:0:0:0:0:
448,192,115809,128,0,116189:0:0:0:0:
64,192,116284,1,0,0:0:0:0:
192,192,116284,1,0,0:0:0:0:
320,192,116284,1,0,0:0:0:0:
448,192,116284,1,0,0:0:0:0:
64,192,116948,1,0,0:0:0:0:
192,192,116948,1,0,0:0:0:0:
320,192,116948,1,0,0:0:0:0:
448,192,116948,1,0,0:0:0:0:
192,192,117233,1,0,0:0:0:0:
64,192,117328,1,0,0:0:0:0:
192,192,117423,1,0,0:0:0:0:
64,192,117518,1,0,0:0:0:0:
448,192,117613,1,0,0:0:0:0:
320,192,117708,1,0,0:0:0:0:
448,192,117708,1,0,0:0:0:0:
320,192,117803,1,0,0:0:0:0:
320,192,117898,1,0,0:0:0:0:
448,192,117898,1,0,0:0:0:0:
448,192,117993,1,0,0:0:0:0:
320,192,118088,1,0,0:0:0:0:
448,192,118088,1,0,0:0:0:0:
192,192,118183,1,0,0:0:0:0:
320,192,118183,1,0,0:0:0:0:
64,192,118277,1,0,0:0:0:0:
192,192,118277,1,0,0:0:0:0:
64,192,118372,1,0,0:0:0:0:
64,192,118467,1,0,0:0:0:0:
192,192,118467,1,0,0:0:0:0:
192,192,118562,1,0,0:0:0:0:
64,192,118657,1,0,0:0:0:0:
192,192,118657,1,0,0:0:0:0:
448,192,118752,1,0,0:0:0:0:
320,192,118752,1,0,0:0:0:0:
192,192,118752,1,0,0:0:0:0:
64,192,118752,1,0,0:0:0:0:
448,192,118847,1,0,0:0:0:0:
320,192,118942,1,0,0:0:0:0:
448,192,118942,1,0,0:0:0:0:
320,192,119037,1,0,0:0:0:0:
320,192,119132,1,0,0:0:0:0:
448,192,119132,1,0,0:0:0:0:
448,192,119227,1,0,0:0:0:0:
448,192,119322,1,0,0:0:0:0:
320,192,119322,1,0,0:0:0:0:
320,192,119417,1,0,0:0:0:0:
192,192,119417,1,0,0:0:0:0:
448,192,119417,1,0,0:0:0:0:
192,192,119512,1,0,0:0:0:0:
64,192,119512,1,0,0:0:0:0:
64,192,119607,1,0,0:0:0:0:
192,192,119702,1,0,0:0:0:0:
64,192,119702,1,0,0:0:0:0:
64,192,119796,128,0,119891:0:0:0:0:
192,192,119796,128,0,119986:0:0:0:0:
320,192,119796,128,0,120081:0:0:0:0:
448,192,120081,1,0,0:0:0:0:
448,192,120176,1,0,0:0:0:0:
320,192,120176,1,0,0:0:0:0:
448,192,120271,1,0,0:0:0:0:
320,192,120366,1,0,0:0:0:0:
448,192,120366,1,0,0:0:0:0:
320,192,120461,1,0,0:0:0:0:
192,192,120461,1,0,0:0:0:0:
64,192,120461,1,0,0:0:0:0:
64,192,120556,1,0,0:0:0:0:
192,192,120556,1,0,0:0:0:0:
192,192,120651,1,0,0:0:0:0:
320,192,120651,1,0,0:0:0:0:
192,192,120746,1,0,0:0:0:0:
320,192,120746,1,0,0:0:0:0:
320,192,120841,1,0,0:0:0:0:
320,192,120936,1,0,0:0:0:0:
192,192,120936,1,0,0:0:0:0:
192,192,121126,1,0,0:0:0:0:
320,192,121126,1,0,0:0:0:0:
192,192,121315,1,0,0:0:0:0:
320,192,121315,1,0,0:0:0:0:
64,192,121315,1,0,0:0:0:0:
448,192,121315,1,0,0:0:0:0:
64,192,121505,128,0,122170:0:0:0:0:
192,192,121505,1,0,0:0:0:0:
320,192,121600,1,0,0:0:0:0:
448,192,121695,1,0,0:0:0:0:
320,192,121790,1,0,0:0:0:0:
192,192,121885,1,0,0:0:0:0:
320,192,121980,1,0,0:0:0:0:
448,192,122075,1,0,0:0:0:0:
192,192,122170,128,0,122739:0:0:0:0:
320,192,122170,1,0,0:0:0:0:
448,192,122265,1,0,0:0:0:0:
320,192,122360,1,0,0:0:0:0:
448,192,122455,1,0,0:0:0:0:
320,192,122550,1,0,0:0:0:0:
448,192,122645,1,0,0:0:0:0:
320,192,122739,1,0,0:0:0:0:
64,192,122929,1,0,0:0:0:0:
192,192,122929,1,0,0:0:0:0:
64,192,123024,1,0,0:0:0:0:
64,192,123119,1,0,0:0:0:0:
192,192,123119,1,0,0:0:0:0:
320,192,123119,1,0,0:0:0:0:
320,192,123214,1,0,0:0:0:0:
192,192,123309,1,0,0:0:0:0:
320,192,123309,1,0,0:0:0:0:
192,192,123404,1,0,0:0:0:0:
320,192,123499,1,0,0:0:0:0:
192,192,123499,1,0,0:0:0:0:
192,192,123594,1,0,0:0:0:0:
64,192,123689,1,0,0:0:0:0:
192,192,123689,1,0,0:0:0:0:
64,192,123784,1,0,0:0:0:0:
64,192,123879,1,0,0:0:0:0:
192,192,123879,1,0,0:0:0:0:
192,192,123974,1,0,0:0:0:0:
320,192,123974,1,0,0:0:0:0:
64,192,124069,1,0,0:0:0:0:
192,192,124069,1,0,0:0:0:0:
320,192,124069,1,0,0:0:0:0:
448,192,124069,1,0,0:0:0:0:
320,192,124164,1,0,0:0:0:0:
448,192,124258,1,0,0:0:0:0:
320,192,124353,1,0,0:0:0:0:
192,192,124448,1,0,0:0:0:0:
64,192,124543,1,0,0:0:0:0:
192,192,124638,1,0,0:0:0:0:
320,192,124733,1,0,0:0:0:0:
448,192,124828,128,0,125113:0:0:0:0:
192,192,124828,128,0,125113:0:0:0:0:
320,192,125113,128,0,125303:0:0:0:0:
64,192,125303,1,0,0:0:0:0:
192,192,125303,1,0,0:0:0:0:
192,192,125398,1,0,0:0:0:0:
64,192,125398,1,0,0:0:0:0:
64,192,125493,1,0,0:0:0:0:
192,192,125588,1,0,0:0:0:0:
320,192,125683,1,0,0:0:0:0:
448,192,125777,1,0,0:0:0:0:
320,192,125872,1,0,0:0:0:0:
192,192,125967,1,0,0:0:0:0:
320,192,126062,1,0,0:0:0:0:
192,192,126157,1,0,0:0:0:0:
320,192,126252,1,0,0:0:0:0:
448,192,126347,1,0,0:0:0:0:
64,192,126442,1,0,0:0:0:0:
192,192,126442,1,0,0:0:0:0:
320,192,126632,1,0,0:0:0:0:
448,192,126632,1,0,0:0:0:0:
64,192,126727,1,0,0:0:0:0:
192,192,126727,1,0,0:0:0:0:
320,192,126727,1,0,0:0:0:0:
448,192,126727,1,0,0:0:0:0:
64,192,126822,128,0,127296:0:0:0:0:
192,192,126822,1,0,0:0:0:0:
320,192,126917,1,0,0:0:0:0:
448,192,127012,1,0,0:0:0:0:
320,192,127107,1,0,0:0:0:0:
192,192,127202,1,0,0:0:0:0:
192,192,127296,128,0,127866:0:0:0:0:
320,192,127296,1,0,0:0:0:0:
448,192,127391,1,0,0:0:0:0:
320,192,127486,1,0,0:0:0:0:
448,192,127581,1,0,0:0:0:0:
320,192,127676,1,0,0:0:0:0:
448,192,127771,1,0,0:0:0:0:
64,192,127866,128,0,128151:0:0:0:0:
448,192,127866,128,0,128151:0:0:0:0:
320,192,127866,1,0,0:0:0:0:
64,192,128341,1,0,0:0:0:0:
320,192,128341,1,0,0:0:0:0:
64,192,128436,1,0,0:0:0:0:
192,192,128436,1,0,0:0:0:0:
192,192,128531,1,0,0:0:0:0:
448,192,128531,1,0,0:0:0:0:
320,192,128626,1,0,0:0:0:0:
448,192,128626,1,0,0:0:0:0:
192,192,128721,1,0,0:0:0:0:
320,192,128721,1,0,0:0:0:0:
64,192,128815,1,0,0:0:0:0:
320,192,128815,1,0,0:0:0:0:
64,192,128910,1,0,0:0:0:0:
320,192,128910,1,0,0:0:0:0:
192,192,129005,1,0,0:0:0:0:
448,192,129005,1,0,0:0:0:0:
320,192,129100,1,0,0:0:0:0:
64,192,129100,1,0,0:0:0:0:
192,192,129195,1,0,0:0:0:0:
320,192,129195,1,0,0:0:0:0:
448,192,129195,128,0,129480:0:0:0:0:
320,192,129480,1,0,0:0:0:0:
192,192,129480,1,0,0:0:0:0:
64,192,129575,1,0,0:0:0:0:
192,192,129575,1,0,0:0:0:0:
192,192,129670,1,0,0:0:0:0:
320,192,129670,1,0,0:0:0:0:
320,192,129765,1,0,0:0:0:0:
448,192,129765,1,0,0:0:0:0:
320,192,129860,1,0,0:0:0:0:
192,192,129860,1,0,0:0:0:0:
64,192,129955,1,0,0:0:0:0:
192,192,129955,1,0,0:0:0:0:
64,192,130050,1,0,0:0:0:0:
192,192,130050,1,0,0:0:0:0:
192,192,130145,1,0,0:0:0:0:
320,192,130145,1,0,0:0:0:0:
64,192,130334,1,0,0:0:0:0:
320,192,130334,1,0,0:0:0:0:
64,192,130524,1,0,0:0:0:0:
320,192,130524,1,0,0:0:0:0:
448,192,130619,1,0,0:0:0:0:
192,192,130619,1,0,0:0:0:0:
64,192,130619,128,0,130809:0:0:0:0:
320,192,130619,128,0,130809:0:0:0:0:
448,192,130714,1,0,0:0:0:0:
192,192,130714,1,0,0:0:0:0:
448,192,130809,1,0,0:0:0:0:
192,192,130809,1,0,0:0:0:0:
64,192,130904,1,0,0:0:0:0:
320,192,130904,1,0,0:0:0:0:
64,192,130999,1,0,0:0:0:0:
192,192,130999,1,0,0:0:0:0:
64,192,131094,1,0,0:0:0:0:
64,192,131189,1,0,0:0:0:0:
192,192,131189,1,0,0:0:0:0:
192,192,131284,1,0,0:0:0:0:
448,192,131284,1,0,0:0:0:0:
320,192,131379,1,0,0:0:0:0:
192,192,131379,1,0,0:0:0:0:
64,192,131474,1,0,0:0:0:0:
320,192,131474,1,0,0:0:0:0:
192,192,131569,1,0,0:0:0:0:
448,192,131569,1,0,0:0:0:0:
320,192,131664,1,0,0:0:0:0:
64,192,131664,1,0,0:0:0:0:
192,192,131758,1,0,0:0:0:0:
320,192,131758,1,0,0:0:0:0:
320,192,131853,1,0,0:0:0:0:
192,192,131853,1,0,0:0:0:0:
448,192,131948,128,0,132138:0:0:0:0:
64,192,132233,1,0,0:0:0:0:
192,192,132328,1,0,0:0:0:0:
64,192,132423,1,0,0:0:0:0:
192,192,132518,1,0,0:0:0:0:
448,192,132613,1,0,0:0:0:0:
320,192,132708,1,0,0:0:0:0:
448,192,132803,1,0,0:0:0:0:
320,192,132898,1,0,0:0:0:0:
64,192,132993,1,0,0:0:0:0:
192,192,133088,1,0,0:0:0:0:
64,192,133183,1,0,0:0:0:0:
192,192,133277,1,0,0:0:0:0:
320,192,133372,1,0,0:0:0:0:
192,192,133372,1,0,0:0:0:0:
448,192,133372,128,0,133562:0:0:0:0:
448,192,133657,1,0,0:0:0:0:
192,192,133657,1,0,0:0:0:0:
448,192,133752,1,0,0:0:0:0:
192,192,133752,1,0,0:0:0:0:
64,192,133847,1,0,0:0:0:0:
320,192,133847,1,0,0:0:0:0:
64,192,133942,1,0,0:0:0:0:
320,192,133942,1,0,0:0:0:0:
192,192,134037,1,0,0:0:0:0:
64,192,134132,1,0,0:0:0:0:
320,192,134132,1,0,0:0:0:0:
192,192,134227,1,0,0:0:0:0:
448,192,134227,1,0,0:0:0:0:
320,192,134322,1,0,0:0:0:0:
192,192,134417,1,0,0:0:0:0:
64,192,134512,1,0,0:0:0:0:
64,192,134607,128,0,134796:0:0:0:0:
64,192,134986,1,0,0:0:0:0:
192,192,135081,1,0,0:0:0:0:
320,192,135176,1,0,0:0:0:0:
448,192,135271,1,0,0:0:0:0:
320,192,135366,1,0,0:0:0:0:
192,192,135461,1,0,0:0:0:0:
64,192,135556,1,0,0:0:0:0:
64,192,135651,128,0,135841:0:0:0:0:
192,192,135841,1,0,0:0:0:0:
320,192,135841,1,0,0:0:0:0:
192,192,135936,1,0,0:0:0:0:
320,192,135936,1,0,0:0:0:0:
192,192,136031,1,0,0:0:0:0:
320,192,136031,1,0,0:0:0:0:
64,192,136031,1,0,0:0:0:0:
448,192,136031,1,0,0:0:0:0:
64,192,136126,1,0,0:0:0:0:
320,192,136126,1,0,0:0:0:0:
64,192,136221,1,0,0:0:0:0:
192,192,136221,1,0,0:0:0:0:
448,192,136315,1,0,0:0:0:0:
192,192,136315,1,0,0:0:0:0:
320,192,136410,1,0,0:0:0:0:
448,192,136410,1,0,0:0:0:0:
64,192,136505,1,0,0:0:0:0:
448,192,136505,1,0,0:0:0:0:
192,192,136600,1,0,0:0:0:0:
320,192,136600,1,0,0:0:0:0:
64,192,136695,1,0,0:0:0:0:
448,192,136695,1,0,0:0:0:0:
192,192,136790,1,0,0:0:0:0:
64,192,136790,1,0,0:0:0:0:
192,192,136885,1,0,0:0:0:0:
320,192,136885,1,0,0:0:0:0:
448,192,136885,1,0,0:0:0:0:
448,192,136980,1,0,0:0:0:0:
320,192,136980,1,0,0:0:0:0:
192,192,137075,1,0,0:0:0:0:
64,192,137075,1,0,0:0:0:0:
192,192,137170,1,0,0:0:0:0:
320,192,137170,1,0,0:0:0:0:
320,192,137265,1,0,0:0:0:0:
64,192,137455,1,0,0:0:0:0:
192,192,137455,1,0,0:0:0:0:
320,192,137455,1,0,0:0:0:0:
448,192,137455,1,0,0:0:0:0:
64,192,137645,1,0,0:0:0:0:
192,192,137739,1,0,0:0:0:0:
320,192,137834,1,0,0:0:0:0:
64,192,137929,1,0,0:0:0:0:
192,192,138024,1,0,0:0:0:0:
320,192,138119,1,0,0:0:0:0:
64,192,138214,1,0,0:0:0:0:
192,192,138309,1,0,0:0:0:0:
320,192,138404,128,0,138879:0:0:0:0:
64,192,138404,128,0,138879:0:0:0:0:
192,192,138499,1,0,0:0:0:0:
448,192,138594,1,0,0:0:0:0:
192,192,138689,1,0,0:0:0:0:
448,192,138784,1,0,0:0:0:0:
192,192,138879,128,0,140208:0:0:0:0:
448,192,138879,128,0,139448:0:0:0:0:
